#TITLE:PARANOiA RED;
#SUBTITLE:;
#ARTIST:RED220;
#TITLETRANSLIT:;
#SUBTITLETRANSLIT:;
#ARTISTTRANSLIT:;
#GENRE:;
#CREDIT:;
#MUSIC:PARANOiA RED.ogg;
#BANNER:PARANOiA RED.png;
#BACKGROUND:PARANOiA RED-bg.png;
#CDTITLE:;
#SAMPLESTART:1.088;
#SAMPLELENGTH:15.000;
#SELECTABLE:YES;
#OFFSET:0.000;
#BPMS:0.000=220.000;
#STOPS:;
#BGCHANGES:;
#FGCHANGES:;

//--------------- dance-single - ----------------
#NOTES:
     dance-single:
     :
     Beginner:
     5:
     0,0,0,0,0:
0000
0000
0000
0000
,
0000
0000
0000
0000
,
0000
0000
0000
0000
,
0000
0000
0000
0000
,
0000
0000
0000
0000
,
0000
0001
0000
0000
,
0000
1000
0000
0000
,
0000
0001
0000
0100
,
0000
0010
0000
0010
,
0010
0000
0100
0000
,
1000
0000
1000
0000
,
0100
0000
0100
0000
,
1000
0000
1000
0000
,
0001
0000
0000
0000
,
0100
0000
0010
0000
,
1001
0000
0000
0000
,
0010
0000
1001
0000
,
0100
0000
0010
0000
,
0001
0000
0001
0000
,
0010
0000
0010
0000
,
0001
0000
0001
0000
,
1000
0000
0000
0000
,
0010
0000
0100
0000
,
1001
0000
0000
0000
,
0100
0000
1001
0000
,
1001
0000
0000
0000
,
0010
0000
0000
0000
,
1001
0000
0000
0000
,
0100
0000
0000
0000
,
1001
0000
0000
0000
,
0100
0000
0000
0000
,
0110
0000
0000
0000
,
1001
0000
0000
0000
,
0000
1000
1000
1000
,
1000
0000
0000
0001
,
0000
0001
0001
0001
,
0001
0000
0110
0000
,
0000
0001
0001
0001
,
0001
0000
0000
1000
,
0000
1000
1000
1000
,
1000
0000
0110
0000
,
0000
0100
0100
0100
,
0100
0000
0000
1001
,
0000
0010
0010
0010
,
0010
0000
1001
0000
,
0000
0010
0010
0010
,
0010
0000
0000
1001
,
0000
0100
0100
0100
,
0100
0000
1001
0000
,
1000
0000
0001
0001
,
0000
1000
1000
1000
,
0000
0001
0001
0000
,
1000
0000
0100
0000
,
0100
0000
1000
0000
,
0100
0000
0100
0000
,
0010
0000
0001
0000
,
0001
0000
0100
0000
,
0100
0000
1000
0000
,
1000
0000
0100
0000
,
0100
0000
0110
0000
,
0001
0000
0000
0000
,
0010
0000
0000
0000
,
0001
0000
0000
0000
,
0010
0000
0000
0000
,
1000
0000
0000
0000
,
0100
0000
0000
0000
,
1000
0000
0000
0000
,
0100
0000
0000
0000
,
1000
1000
0000
1000
,
1000
0000
1000
0000
,
0001
0001
0000
0001
,
0001
0000
1001
0000
,
0100
0100
0000
0100
,
0100
0000
0100
0000
,
0010
0010
0000
0010
,
0010
0000
1001
0000
,
1000
1000
0000
0001
,
0001
0000
0001
0000
,
1000
1000
0000
0001
,
0001
0000
1001
0000
,
0001
0001
0000
1000
,
1000
0000
1000
0000
,
0001
0000
1000
0000
,
0001
0001
0001
0000
;

//--------------- dance-single - ----------------
#NOTES:
     dance-single:
     :
     Easy:
     9:
     0,0,0,0,0:
0000
0000
0000
0000
,
0000
0000
0000
0000
,
0000
0000
0000
0000
,
0000
0000
0000
0000
,
0000
0000
0000
0000
,
0000
0001
0000
0001
,
0000
1000
0000
1000
,
0001
0001
0100
0100
,
0010
0010
0000
0010
,
1000
1000
0100
1000
,
1000
0100
1000
0010
,
0100
0010
0100
0100
,
1000
1100
1000
1100
,
0001
0100
0000
0000
,
0100
0100
0010
0010
,
1001
0000
0000
1000
,
0010
0001
0011
0000
,
0001
0001
0010
0001
,
0001
0010
0001
0100
,
0010
0100
0010
0010
,
0001
0101
0001
0101
,
1000
0010
0000
0000
,
0010
0010
0100
0100
,
1001
0000
0000
0001
,
0100
1000
1100
0000
,
1001
0000
0100
0100
,
0010
0000
1000
1100
,
1000
0000
0010
0010
,
0100
0000
0001
0101
,
0001
0000
1000
1000
,
0100
0000
0100
1100
,
0010
0000
0001
0001
,
1000
0000
0010
0010
,
0000
0100
1000
0100
,
1000
0000
0000
1000
0000
0000
0101
0000
,
0000
0100
0001
0100
,
0001
0000
0010
1001
,
0000
0010
0001
0010
,
0001
0000
0000
0001
0000
0000
1010
0000
,
0000
0010
1000
0010
,
1000
0000
0100
1001
,
0000
1000
0100
0010
,
0100
0000
0000
1000
0000
0000
1001
0000
,
0000
0001
0010
0100
,
0010
0000
0100
1001
,
0000
0001
0100
0010
,
0100
0000
0000
0001
0000
0000
1001
0000
,
0000
1000
0010
0100
,
0010
0000
0100
0100
,
1001
0000
0001
0001
,
0000
0001
0001
1000
,
1001
1000
1000
1001
,
1000
0010
0100
0001
,
0100
0010
1000
1001
,
0100
0001
0100
1000
,
0010
0010
0001
0100
,
0001
1000
0100
0110
,
0100
1000
0100
1001
,
1000
0010
0100
0010
,
0100
0010
0110
0000
,
0001
0000
0100
0100
,
0010
0000
0001
0011
,
0001
0000
0100
0110
,
0010
0000
1000
1010
,
1000
0000
0010
0010
,
0100
0000
1000
1100
,
1000
0000
0010
0110
,
0100
0000
0001
0101
,
1000
0100
0100
1000
,
0100
0100
1000
1001
,
0001
0010
0010
0001
,
0010
0010
1001
0000
,
1000
0100
0010
1000
,
0100
0010
1000
1100
,
0001
0010
0100
0001
,
0010
0100
1001
0000
,
1000
0100
0001
0010
,
1000
0100
0001
1001
,
0001
0010
1000
0100
,
0001
0010
1001
0000
,
1000
0100
0001
1000
,
0100
0001
1000
1001
,
0001
0100
1000
0001
,
1000
0001
1001
0000
;

//--------------- dance-single - ----------------
#NOTES:
     dance-single:
     :
     Medium:
     12:
     0.641473,0.715878,0.417953,0,0,419,380,39,0,0,0,0.641473,0.715878,0.417953,0,0,419,380,39,0,0,0:
0000
0000
0000
0000
,
0000
0000
0000
0000
,
0000
0000
0000
0000
,
0000
0000
0000
0000
,
0000
0000
0000
0000
,
0000
0001
0000
0001
,
0000
1000
0000
1000
,
0001
0001
0100
0100
,
0010
0010
0000
0010
,
1000
0100
1000
0000
0100
0000
1000
0000
,
1000
0010
0100
0000
1000
0000
0010
0000
,
0100
0001
0010
0000
0100
0000
0100
0000
,
1000
1100
1000
1100
,
0001
0010
0100
0000
0000
0000
0000
0000
,
0100
1000
0100
0000
0010
0000
0010
0000
,
1001
0000
0000
0000
0000
0000
1000
0100
,
0010
0001
0011
0000
,
0001
0010
0001
0000
0010
0000
0001
0000
,
0001
0100
0010
0000
0001
0000
0100
0000
,
0010
1000
0100
0000
0010
0000
0010
0000
,
0001
0101
0001
0101
,
1000
0100
0010
0000
0000
0000
0000
0000
,
0010
0001
0010
0000
0100
0000
0100
0000
,
1001
0000
0000
0000
0000
0000
0001
0010
,
0100
1000
1010
0000
,
1001
0000
0000
0001
0100
0000
0000
0100
,
0010
0000
0000
0010
1000
0000
1100
0000
,
1000
0000
0000
1000
0010
0000
0000
0010
,
0100
0000
0000
0100
0001
0000
0101
0000
,
0001
0000
0000
0001
1000
0000
0000
1000
,
0100
0000
0000
1000
0100
0000
1100
0000
,
0010
0000
0000
0100
0001
0000
0000
0001
,
1000
0000
0000
0100
0010
0100
0010
0000
,
0000
1000
0100
1000
0100
1000
0100
1000
,
0100
0000
0000
1010
0000
0000
0101
0000
,
0000
0001
0100
0001
0100
0001
0100
0001
,
0100
0000
0011
1001
,
0000
0001
0010
0001
0010
0001
0010
0001
,
0010
0000
0000
0101
0000
0000
1010
0000
,
0000
1000
0010
1000
0010
1000
0010
1000
,
0010
0000
1100
1001
,
0000
1000
0100
0010
0100
1000
0100
0010
,
0100
0000
0000
1010
0000
1000
0001
0000
,
0000
0001
0010
0100
0010
0001
0010
0100
,
0010
0000
0000
0000
0100
0001
1000
0000
,
0000
0001
0100
0010
0100
0001
0100
0010
,
0100
0000
0000
0101
0000
0001
1000
0000
,
0000
1000
0010
0100
0010
1000
0010
0100
,
0010
0000
0000
0000
0100
0010
0100
0000
,
1000
0001
0000
0000
0001
1000
0001
1000
,
0000
0000
0001
1000
0001
0000
1000
0000
,
1001
0000
1000
0001
1000
0000
1001
0000
,
1000
0000
0010
1000
0100
0000
0001
0000
,
0100
0001
0010
0000
1000
0000
1001
0000
,
0100
1000
0001
0000
0100
0001
1000
0000
,
0010
1000
0010
0000
0001
0000
0100
0000
,
0001
0000
1000
0010
0100
0000
0110
0000
,
0100
0001
1000
0000
0100
0000
1001
0000
,
1000
0100
0010
0000
0100
0000
0010
0010
,
0100
0010
0110
1001
,
0001
0100
0000
1000
0100
0000
0000
0000
,
0110
0000
0000
0010
0001
0000
0011
0000
,
0001
0100
0000
0010
0100
0000
0110
0000
,
0000
1000
0000
0100
1000
0000
1010
0000
,
1000
0010
0000
0001
0010
0000
0000
0000
,
0110
0000
0000
0100
1000
0000
1100
0000
,
1000
0010
0000
0100
0010
0000
0110
0000
,
0000
0001
0000
0010
0001
0000
0101
0000
,
1000
0100
0000
0001
0100
0000
1000
0100
,
0000
0001
0100
0000
1000
0000
1001
0000
,
0001
0010
0000
1000
0010
0000
0001
0010
,
0000
1000
0010
0000
1001
0000
0000
0000
,
1000
0100
0000
0100
0010
0000
1000
0100
,
0000
0100
0010
0000
1000
0000
1100
0000
,
0001
0010
0000
0010
0100
0000
0001
0010
,
0000
0010
0100
0000
1001
0000
0000
0000
,
1000
0100
0000
0001
0010
0000
1000
0100
,
0000
0001
0010
0000
1000
0000
1001
0000
,
0001
0010
0000
1000
0100
0000
0001
0010
,
0000
1000
0100
0000
1001
0000
0000
0000
,
1000
0100
0000
0100
0001
0000
1000
0100
,
0000
0100
0001
0000
1000
0000
1001
0000
,
0001
0100
0000
0010
0001
0000
0001
0100
,
1000
0001
1001
0000
;

//--------------- dance-single - ----------------
#NOTES:
     dance-single:
     :
     Hard:
     13:
     0.742517,0.805363,0.450103,0,0,485,443,42,0,0,0,0.742517,0.805363,0.450103,0,0,485,443,42,0,0,0:
0000
0000
0000
0000
,
0000
0000
0000
0000
,
0000
0000
0000
0000
,
0000
0000
0000
0000
,
0000
0000
0000
0000
,
0000
0001
0000
0001
,
0000
1000
0000
1000
,
0001
0001
0100
0100
,
0010
0010
0000
0010
,
1000
0100
1000
0001
0100
0001
1000
0100
,
1000
0010
0100
0010
1000
0100
0010
0001
,
0100
0001
0010
0001
0100
0010
0100
0001
,
1000
1100
1000
1100
,
0001
0010
0100
0000
0000
0000
0000
0000
,
0100
1000
0100
0001
0100
0000
0010
0000
,
1001
0000
0000
0000
0000
0000
1000
0100
,
0001
0001
0011
0000
,
0001
0010
0001
1000
0010
1000
0001
0010
,
0001
0100
0010
0100
0001
0010
0100
1000
,
0010
1000
0100
1000
0010
0100
0010
1000
,
0001
0101
0001
0101
,
1000
0100
0010
0000
0000
0000
0000
0000
,
0010
0001
0010
1000
0010
0000
0100
0000
,
1001
0000
0000
0000
0000
0000
0001
0010
,
1000
1000
1010
0000
,
1001
0000
0000
0001
0100
0000
0000
0100
,
0010
0000
0000
0010
1000
1100
0000
0001
,
1000
0000
0000
1000
0010
0000
0000
0010
,
0100
0000
0000
0100
0101
0010
0000
0000
,
0001
0000
0000
0001
1000
0000
0000
1000
,
0100
0000
0000
1100
0100
1000
0000
0010
,
0100
0000
0000
0100
0001
0000
0000
0001
,
1000
0000
0000
0100
0010
0100
0010
0100
,
0000
1000
0100
0001
0100
1000
0100
0001
,
0100
1000
0000
1010
0000
0000
0101
0000
,
0000
0001
0100
1000
0100
0001
0100
1000
,
0100
0001
0000
0000
0011
0000
1001
0000
,
0000
0001
0010
1000
0010
0001
0010
1000
,
0010
0001
0000
0101
0000
0000
1010
0000
,
0000
1000
0010
0001
0010
1000
0010
0001
,
0010
1000
0000
0000
1100
0000
1001
0000
,
0000
1000
0100
0010
0100
0001
0100
0010
,
0100
1000
0000
1010
0000
1000
0001
0000
,
0000
0001
0010
0100
0010
1000
0010
0100
,
0010
0001
0000
0000
0101
0001
1000
0000
,
0000
0001
0100
0010
0100
1000
0100
0010
,
0100
0001
0000
0101
0000
0001
1000
0000
,
0000
1000
0010
0100
0010
0001
0010
0100
,
0010
1000
0000
0000
0100
0100
0110
0000
,
1000
0001
0000
0000
0001
1000
0001
1000
,
0000
0000
0001
1000
0001
0100
1000
0100
,
0001
0000
1000
0001
1000
0100
0001
0100
,
1000
0000
0010
1000
0100
0010
0001
0000
,
0100
0001
0010
0100
1000
0000
1001
0000
,
1100
1000
0001
0000
0101
0001
1000
0000
,
0010
1000
0010
0100
0001
0010
0100
1000
,
0001
0000
1000
0010
0100
0001
0100
0000
,
0101
0001
1000
0100
1100
0000
1001
0000
,
1000
0100
0010
0001
0100
0000
0010
0010
,
0100
0100
0010
0000
0110
0000
1001
0000
,
0001
0100
0000
1000
0100
0000
0000
0000
,
0110
0000
0000
0010
0001
0000
0011
0000
,
0001
0100
0000
0010
0100
0000
0110
0000
,
0000
1000
0000
0100
1000
0000
1010
0000
,
1000
0010
0000
0001
0010
0000
0000
0000
,
0110
0000
0000
0100
1000
0000
1100
0000
,
1000
0010
0000
0100
0010
0000
0110
0000
,
0000
0001
0000
0010
0001
0000
0101
0000
,
1000
0100
0001
1000
0100
0000
1000
0100
,
0001
1000
0100
0000
1000
0000
1001
0000
,
0001
0010
1000
0001
0010
0000
0001
0010
,
1000
0001
0010
0000
1001
0000
0000
0000
,
1000
0100
0010
1000
0100
0000
1000
0100
,
0010
1000
0100
0000
1000
0000
1100
0000
,
0001
0010
0100
0001
0010
0000
0001
0010
,
0100
0001
0010
0000
1001
0000
0000
0000
,
1000
0100
0001
1000
0010
0000
0001
0100
,
1000
0001
0010
0000
1000
0000
1001
0000
,
0001
0010
1000
0001
0100
0000
1000
0010
,
0001
1000
0100
0000
1001
0000
0000
0000
,
1000
0100
0010
1000
0100
0000
0001
0010
,
0100
0001
0010
0000
1000
0000
1001
0000
,
0001
0100
0010
0001
0010
1000
0001
0100
,
1000
0001
1001
0000
;

//--------------- dance-double - ----------------
#NOTES:
     dance-double:
     :
     Easy:
     9:
     0,0,0,0,0:
00000000
00000000
00000000
00000000
,
00000000
00000000
00000000
00000000
,
00000000
00000000
00000000
00000000
,
00000000
00000000
00000000
00000000
,
00000000
00000000
00000000
00000000
,
00000000
00010000
00000000
00010000
,
00000000
10000000
00000000
10000000
,
00100000
00100000
00010000
00010000
,
00001000
00001000
00000000
00001000
,
00100000
01000000
10000000
10000000
,
01000000
00100000
00010000
00001000
,
00000100
00000010
00000001
00001000
,
00010000
00010000
00010000
00000000
,
01000000
10000000
00000000
00000000
,
10000000
00100000
00001000
00000101
,
00000001
00000000
00000000
00000001
,
00000100
00001100
00011000
00000000
,
00000100
00000010
00000001
00000001
,
00000010
00000100
00001000
00010000
,
00100000
01000000
10000000
00010000
,
00001000
00001000
00001000
00000000
,
00000010
00000001
00000000
00000000
,
00000001
00000100
00010000
10100000
,
10000000
00000000
00000000
10000000
,
00100000
00110000
00011000
00000000
,
10010000
00000000
01000000
00000000
,
00001000
00000000
00000001
00000100
,
00001001
00000000
00000010
00000000
,
00010000
00000000
10000000
01000000
,
10010000
00000000
00100000
00000000
,
00000010
00000000
00000001
00000010
,
00001001
00000000
00000100
00000000
,
01000000
00000000
01000000
01000000
,
00000000
01000000
01000000
01000000
,
01000000
00000000
00000000
10010000
00000000
00000000
00011000
00000000
,
00000000
00000100
00000100
00000100
,
00000100
00000000
00000110
00011000
,
00000000
00000010
00000010
00000010
,
00000010
00000000
00000000
00001001
00000000
00000000
00011000
00000000
,
00000000
00100000
00100000
00100000
,
00100000
00000000
01100000
00011000
,
00000000
00010000
01000000
00010000
,
01000000
00000000
00000000
10010000
00000000
00000000
00010000
00000000
,
00000000
00001000
00000010
00001000
,
00000010
00000000
00000001
00000100
,
00000000
00001000
00100000
00001000
,
00100000
00000000
00000000
00011000
00000000
00000000
00010000
00000000
,
00000000
00010000
00000100
00010000
,
00000100
00000000
00010000
00010000
,
01000000
00000000
00001000
00001000
,
00000000
00000100
00001000
00010000
,
00011000
00100000
01000000
10010000
,
10000000
00010000
00000010
00001000
,
00100000
00010000
01000000
01010000
,
00010000
00001000
00010000
00001000
,
00000100
00001000
00000100
00001000
,
00000100
00010000
00100000
01000000
,
00001000
00010000
00001000
00011000
,
00100000
00010000
01000000
00001000
,
00010000
00001000
01000100
00000000
,
00010000
00000000
00010000
00010000
,
01000000
00000000
00010000
10010000
,
10000000
00000000
00001000
00000100
,
00000010
00000000
00011000
00000000
,
00001000
00000000
00000100
00000100
,
00000010
00000000
00001000
00001001
,
00000001
00000000
00010000
00100000
,
01000000
00000000
00011000
00100000
,
10000000
01000000
01000000
10000000
,
01000000
01000000
00100000
00010100
,
00001000
00000100
00000100
00001000
,
00000100
00000100
00001000
00000000
,
10000000
00100000
00100000
10000000
,
00100000
00100000
01000000
00010100
,
00001000
00000010
00000010
00001000
,
00000010
00000010
00001000
00000000
,
00010000
00001000
00000100
00010000
,
00001000
00000100
00010000
00011000
,
00001000
00010000
00100000
00001000
,
00010000
00100000
00001000
00000000
,
00001000
00010000
01000000
00001000
,
00010000
00000010
00001000
00011000
,
00010000
00001000
01000000
00010000
,
00010000
00001000
00011000
00000000
;

//--------------- dance-double - ----------------
#NOTES:
     dance-double:
     :
     Medium:
     12:
     0.616978,0.671136,0.428669,0,0,403,363,40,0,0,0,0.616978,0.671136,0.428669,0,0,403,363,40,0,0,0:
00000000
00000000
00000000
00000000
,
00000000
00000000
00000000
00000000
,
00000000
00000000
00000000
00000000
,
00000000
00000000
00000000
00000000
,
00000000
00000000
00000000
00000000
,
00000000
00010000
00000000
00010000
,
00000000
10000000
00000000
10000000
,
00100000
00100000
00010000
00010000
,
00001000
00001000
00000000
00001000
,
00100000
00000000
01000000
00000000
10000000
01000000
10000000
00000000
,
01000000
00000000
00100000
00000000
00010000
01000000
00001000
00000000
,
00000100
00000000
00000010
00000000
00000100
00000001
00001000
00000000
,
00010000
00010000
00010000
00010000
,
01000000
00010000
10000000
00000000
00000000
00000000
00000000
00000000
,
10000000
00010000
00100000
00000000
00001000
00000000
00000101
00000000
,
00000001
00000000
00000000
00000000
00000000
00000000
00000001
00001000
,
00000100
00001100
00011000
00000000
,
00000100
00000000
00000010
00000000
00000001
00000010
00000001
00000000
,
00000010
00000000
00000100
00000000
00001000
00000010
00010000
00000000
,
00100000
00000000
01000000
00000000
00100000
10000000
00010000
00000000
,
00001000
00001000
00001000
00001000
,
00000010
00001000
00000001
00000000
00000000
00000000
00000000
00000000
,
00000001
00001000
00000100
00000000
00010000
00000000
10100000
00000000
,
10000000
00000000
00000000
00000000
00000000
00000000
10000000
00010000
,
00100000
00110000
00011000
00000000
,
10010000
00000000
00000000
10000000
01000000
00000000
00000000
00000000
,
00001000
00000000
00000000
00000100
00000001
00000000
00000100
00000000
,
00001001
00000000
00000000
00000001
00000010
00000000
00000000
00000000
,
00010000
00000000
00000000
00100000
10000000
00000000
01000000
00000000
,
10010000
00000000
00000000
10000000
00100000
00000000
00000000
00000000
,
00000010
00000000
00000000
00000100
00000001
00000000
00000010
00000000
,
00001001
00000000
00000000
00000001
00000100
00000000
00000000
00000000
,
01000000
00000000
00000000
00100000
01000000
00100000
01000000
00000000
,
00000000
00010000
01000000
00010000
01000000
00010000
01000000
00010000
,
01000000
00010000
00000000
10010000
00000000
00000000
00011000
00000000
,
00000000
00001000
01000000
00001000
01000000
00001000
01000000
00001000
,
01000000
00001000
00000000
00000000
00000110
00000000
00011000
00000000
,
00000000
00010000
00000010
00010000
00000010
00010000
00000010
00010000
,
00000010
00010000
00000000
00001001
00000000
00000000
00011000
00000000
,
00000000
00001000
00100000
00001000
00100000
00001000
00100000
00001000
,
00100000
00001000
00000000
00000000
01100000
00000000
00011000
00000000
,
00000000
10000000
00010000
00100000
01000000
00100000
00010000
00100000
,
01000000
00100000
00000000
10010000
00000000
00001000
00010000
00000000
,
00000000
00000001
00001000
00000100
00000010
00000100
00001000
00000100
,
00000010
00000100
00000000
00000000
00000001
00001000
00000100
00000000
,
00000000
00010000
00001000
01000000
00100000
01000000
00001000
01000000
,
00100000
01000000
00000000
00011000
00000000
00001000
00010000
00000000
,
00000000
00001000
00010000
00000010
00000100
00000010
00010000
00000010
,
00000100
00000010
00000000
00000000
00010000
00001000
00010000
00000000
,
01000000
10000000
00000000
00000000
00001000
00010000
00001000
00000000
,
00000000
00000000
00000100
00010000
00001000
00000000
00010000
00000000
,
00011000
00000000
00100000
00010000
01000000
00000000
10010000
00000000
,
10000000
00000000
00010000
00100000
00000010
00000000
00001000
00000000
,
00100000
00000010
00010000
00000000
01000000
00000000
01010000
00000000
,
00010000
01000000
00001000
00000000
00010000
00000010
00001000
00000000
,
00000100
01000000
00001000
00000000
00000100
00000000
00001000
00000000
,
00000100
00000000
00010000
00001000
00100000
00000000
01000000
00000000
,
00001000
00001000
00010000
00000000
00001000
00000000
00011000
00000000
,
00100000
00000010
00010000
00000000
01000000
00000000
00001000
00001000
,
00010000
00001000
01000100
00011000
,
00010000
00000000
00000000
01000000
00010000
00000000
00000000
00000000
,
01000000
00000000
00000000
00100000
00010000
00000000
10010000
00000000
,
10000000
00000000
00000000
00010000
00001000
00000000
00000100
00000000
,
00000010
00001000
00000000
00000000
00011000
00000000
00000000
00000000
,
00001000
00000000
00000000
00000001
00000100
00000000
00000000
00000000
,
00000010
00000000
00000000
00000100
00001000
00000000
00001001
00000000
,
00000001
00000000
00000000
00001000
00010000
00000000
00100000
00000000
,
01000000
00010000
00000000
00000000
00011000
00000000
00100000
00000000
,
10000000
01000000
00000000
00010000
01000000
00000000
10000000
01000000
,
00000000
00010000
01000000
00000000
00100000
00000000
00010100
00000000
,
00001000
00000100
00000000
00000001
00000100
00000000
00001000
00000100
,
00000000
00000001
00000100
00000000
00001000
00000000
00000000
00000000
,
10000000
00100000
00000000
00010000
00100000
00000000
10000000
00100000
,
00000000
00010000
00100000
00000000
01000000
00000000
00010100
00000000
,
00001000
00000010
00000000
00000001
00000010
00000000
00001000
00000010
,
00000000
00000001
00000010
00000000
00001000
00000000
00000000
00000000
,
00010000
00001000
00000000
00000010
00001000
00000000
00010000
00001000
,
00000000
00000010
00001000
00000000
00010000
00000000
00011000
00000000
,
00001000
00010000
00000000
00100000
00010000
00000000
00001000
00010000
,
00000000
00100000
00010000
00000000
00001000
00000000
00000000
00000000
,
00001000
00010000
00000000
01000000
00010000
00000000
00001000
00010000
,
00000000
01000000
00010000
00000000
00001000
00000000
00011000
00000000
,
00010000
00001000
00000000
00000100
00001000
00000000
00010000
00001000
,
00010000
00001000
00011000
00000000
;

//--------------- dance-double - ----------------
#NOTES:
     dance-double:
     :
     Hard:
     13:
     0.714959,0.76062,0.342936,0,0,467,435,32,0,0,0,0.714959,0.76062,0.342936,0,0,467,435,32,0,0,0:
00000000
00000000
00000000
00000000
,
00000000
00000000
00000000
00000000
,
00000000
00000000
00000000
00000000
,
00000000
00000000
00000000
00000000
,
00000000
00000000
00000000
00000000
,
00000000
00010000
00000000
00010000
,
00000000
10000000
00000000
10000000
,
00100000
00100000
00010000
00010000
,
00001000
00001000
00000000
00001000
,
00100000
00010000
01000000
00100000
10000000
01000000
10000000
00100000
,
01000000
00010000
00100000
00001000
00010000
00000100
00001000
00000010
,
00000100
00000001
00000010
00000001
00000100
00000010
00001000
00000100
,
00010000
00010000
00010000
00010000
,
00010000
01000000
10000000
00000000
00000000
00000000
00000000
00000000
,
00000001
00000100
00001000
00010000
00100000
00000000
10100000
00000000
,
10000000
00000000
00000000
00000000
00000000
00000000
00000001
00000100
,
00001000
00001100
00011000
00000000
,
00000100
00001000
00000010
00000100
00000001
00000010
00000001
00000100
,
00000010
00001000
00000100
00010000
00001000
00100000
00010000
01000000
,
00100000
10000000
01000000
10000000
00100000
01000000
00010000
00100000
,
00001000
00001000
00001000
00001000
,
00001000
00000100
00000001
00000000
00000000
00000000
00000000
00000000
,
10000000
00100000
00010000
00001000
00000100
00000000
00000101
00000000
,
00000001
00000000
00000000
00000000
00000000
00000000
10000000
00100000
,
00010000
00110000
00011000
00000000
,
10010000
00000000
00000000
10000000
01000000
00000000
00000000
00010000
,
00001000
00000000
00000000
00000100
00000001
00000100
00000000
00000000
,
00001001
00000000
00000000
00000001
00000010
00000000
00000000
00001000
,
00010000
00000000
00000000
00100000
10000000
01000000
00000000
00000000
,
10010000
00000000
00000000
10000000
00100000
00000000
00000000
00010000
,
00000010
00000000
00000000
00000100
00000001
00000010
00000000
00000000
,
00001001
00000000
00000000
00000001
00000100
00000000
00000000
00001000
,
01000000
00000000
00000000
01000000
00100000
01000000
00100000
01000000
,
00000000
00010000
01000000
00010000
00000100
00010000
01000000
00010000
,
00000100
00010000
00000000
10010000
00000000
00000000
00011000
00000000
,
00000000
00001000
00000100
00001000
01000000
00001000
00000100
00001000
,
01000000
00001000
00000000
00000000
00000110
00000000
00011000
00000000
,
00000000
00010000
00000010
00010000
00100000
00010000
00000010
00010000
,
00100000
00010000
00000000
00001001
00000000
00000000
00011000
00000000
,
00000000
00001000
00100000
00001000
00000010
00001000
00100000
00001000
,
00000010
00001000
00000000
00000000
01100000
00000000
00011000
00000000
,
00000000
10000000
00010000
00100000
10000000
00100000
00010000
00100000
,
10000000
00100000
00000000
10010000
00000000
00001000
00010000
00000000
,
00000000
00000001
00001000
00000100
00000001
00000100
00001000
00000100
,
00000001
00000100
00000000
00000000
00000001
00001000
00000100
00000000
,
00000000
00010000
00001000
01000000
00100000
01000000
00001000
01000000
,
00100000
01000000
00000000
00011000
00000000
00001000
00010000
00000000
,
00000000
00001000
00010000
00000010
00000100
00000010
00010000
00000010
,
00000100
00000010
00000000
00000000
00010000
00001000
00011000
00000000
,
00010000
00001000
00000000
00000000
00001000
00010000
00001000
00010000
,
00000000
00000000
00001000
00010000
00100000
00010000
00001000
00000010
,
00001000
00000000
00100000
00010000
01000000
00100000
10000000
01000000
,
10000000
00000000
00010000
00100000
00000010
00010000
00001000
00000000
,
00100000
00000010
00010000
00001000
01000000
00000000
01010000
00000000
,
00010000
01000000
00001000
00000000
00010000
00000010
00001000
00000000
,
00000100
01000000
00001000
00010000
00000010
00100000
00001000
00010000
,
00000100
00000000
00010000
00001000
00100000
00010000
01000000
00000000
,
00001000
00001000
00010000
00010000
00001000
00000000
00011000
00000000
,
00100000
00000010
00010000
00001000
01000000
00000000
00001000
00001000
,
00010000
00010000
00001000
00000000
01000100
00000000
00011000
00000000
,
00010000
00100000
00000000
00100000
10000000
00000000
00000000
00000000
,
11000000
00000000
00000000
01000000
00100000
00000000
10010000
00000000
,
10000000
01000000
00000000
00010000
00001000
00000000
00000100
00000000
,
00000000
00000010
00000000
00010000
00001000
00000000
00011000
00000000
,
00001000
00000100
00000000
00000100
00000001
00000000
00000000
00000000
,
00000011
00000000
00000000
00000010
00000100
00000000
00001001
00000000
,
00000001
00000010
00000000
00001000
00010000
00000000
00100000
00000000
,
00000000
01000000
00000000
00001000
00010000
00000000
00110000
00000000
,
10000000
01000000
00010000
10000000
01000000
00000000
10000000
01000000
,
00010000
10000000
01000000
00000000
00100000
00000000
00010100
00000000
,
00001000
00000100
00000001
00001000
00000100
00000000
00001000
00000100
,
00000001
00001000
00000100
00000000
00001000
00000000
00000000
00000000
,
10000000
00100000
00010000
10000000
00100000
00000000
10000000
00100000
,
00010000
10000000
00100000
00000000
01000000
00000000
00010100
00000000
,
00001000
00000010
00000001
00001000
00000010
00000000
00001000
00000010
,
00000001
00001000
00000010
00000000
00001000
00000000
00000000
00000000
,
00010000
00001000
00000010
00010000
00001000
00000000
00010000
00001000
,
00000010
00010000
00001000
00000000
00010000
00000000
00011000
00000000
,
00001000
00010000
00100000
00001000
00010000
00000000
00001000
00010000
,
00100000
00001000
00010000
00000000
00001000
00000000
00000000
00000000
,
00001000
00010000
01000000
00001000
00010000
00000000
00001000
00010000
,
01000000
00001000
00010000
00000000
00001000
00000000
00011000
00000000
,
00010000
00001000
00000100
00010000
00001000
00000100
00010000
00001000
,
00010000
00001000
00011000
00000000
;
