#TITLE:PARANOiA MILLENNIUM;
#SUBTITLE:;
#ARTIST:100;
#TITLETRANSLIT:;
#SUBTITLETRANSLIT:;
#ARTISTTRANSLIT:;
#GENRE:;
#CREDIT:;
#MUSIC:PARANOiA MILLENNIUM.ogg;
#BANNER:PARANOiA MILLENNIUM.png;
#BACKGROUND:PARANOiA MILLENNIUM-bg.png;
#CDTITLE:;
#SAMPLESTART:11.997;
#SAMPLELENGTH:15.000;
#SELECTABLE:YES;
#OFFSET:0.000;
#BPMS:0.000=100.000;
#STOPS:;
#BGCHANGES:;
#FGCHANGES:;

//--------------- dance-single - ----------------
#NOTES:
     dance-single:
     :
     Beginner:
     1:
     0,0,0,0,0:
0000
0000
0000
0000
,
0000
0000
0000
0000
,
0000
0000
0000
0000
,
0000
0000
0000
0000
,
0000
0000
0000
0000
,
1000
0000
0000
0000
,
0001
0000
0000
0000
,
0100
0000
0000
0000
,
0001
0000
0000
0000
,
0010
0000
0000
0000
,
0010
0000
0000
0000
,
0001
0000
0000
0000
,
0010
0000
0000
0000
,
0100
0000
1000
0000
,
0100
0000
0010
0000
,
0010
0000
0001
0000
,
0010
0000
0100
0000
,
1000
0000
1000
0000
,
1000
0000
0100
0000
,
0001
0000
0001
0000
,
0001
0000
0010
0000
,
1000
0000
0000
0000
,
0010
0000
0000
0000
,
1000
0000
0000
0000
,
0001
0000
0000
0000
,
1000
0000
0000
0000
,
0001
0000
0000
0000
,
0100
0000
0000
0000
,
0001
0000
0000
0000
,
1000
0000
1000
0000
,
1000
0000
0010
0000
,
0001
0000
0001
0000
,
0001
0000
0100
0000
,
0100
0000
0100
0000
,
0010
0000
1000
0000
,
0100
0000
0100
0000
,
0010
0000
1000
0000
,
0100
0000
0000
0000
,
0010
0000
0000
0000
,
0001
0000
0000
0000
;

//--------------- dance-single - ----------------
#NOTES:
     dance-single:
     :
     Easy:
     4:
     0,0,0,0,0:
0000
0000
0000
0000
,
0000
0000
0000
0000
,
0000
0000
0000
0000
,
0010
0100
0010
0100
,
0010
0010
0010
0010
,
1100
0000
0010
0010
,
0001
0100
0001
1100
,
0100
0000
1000
1000
,
0001
0100
1000
0011
,
0000
0000
0010
0010
,
0010
1000
0010
1000
,
0001
0000
0001
0001
,
0010
0100
1000
1010
,
0100
1000
1000
0000
,
0100
1000
0010
1010
,
0010
0001
0001
0000
,
0010
0001
0100
0101
,
1000
0001
1000
0000
,
1000
0001
0100
1010
,
0001
1000
0001
0000
,
0001
1000
0010
0101
,
1000
0001
0010
0001
,
0010
0001
0012
0100
,
1003
0001
0010
2000
,
3001
1000
2010
3100
,
1000
0000
1000
1000
,
0002
2003
3200
0310
,
0100
0100
2000
0000
,
3002
0000
0023
0031
,
1000
0001
1000
0000
,
1000
0001
0010
0100
,
0001
1000
0001
0000
,
0001
1000
0100
0010
,
0100
0010
0100
0000
,
0010
0100
1000
0001
,
0100
0010
0100
0000
,
0010
0100
1000
0001
,
0100
0010
0010
0100
,
0010
0100
0100
0001
,
1001
0000
0000
0000
;

//--------------- dance-single - ----------------
#NOTES:
     dance-single:
     :
     Medium:
     10:
     0,0,0,0,0:
0000
0000
0000
0000
,
0000
0000
0000
0000
,
0000
0000
0000
0000
,
0010
0010
0100
0010
0010
0010
0100
0010
,
0010
0100
0010
1000
0010
0100
0010
0001
,
1100
0000
0000
0101
0000
0000
0100
0000
0010
0000
0100
0000
0010
0000
0011
0000
,
0001
0010
0100
0001
0001
0001
1100
0101
,
0100
0010
0000
0110
0000
0000
0000
0000
1000
0000
0001
0000
1000
0000
1001
0000
,
0001
0010
0100
0001
1000
1000
0011
1001
,
0000
0100
0000
0110
0000
0000
0000
0000
0010
0000
0010
0000
0010
0000
0010
0000
,
0010
0010
1000
0100
0010
0011
1000
1001
,
0001
0100
0000
0110
0000
0000
0000
0000
0001
0000
1000
0000
0001
0000
1000
0000
,
0010
1000
0100
0100
1000
0010
1010
1001
,
0100
0100
0000
0000
1000
0000
0001
0000
1000
0000
0001
0010
0000
0010
0001
0000
,
0100
0100
0000
0000
1000
0000
0001
0000
0010
0000
1000
0000
1010
0000
1001
0000
,
0010
0010
0000
0000
0001
0000
1000
0000
0001
0000
1000
0100
0000
0100
1000
0000
,
0010
0010
0000
0000
0001
0000
1000
0000
0100
0000
0001
0000
0101
0000
1001
0000
,
1000
1000
0000
0000
0001
0000
0010
0000
1000
0000
0001
0010
0000
0010
0001
0000
,
1000
1000
0000
0000
0001
0000
1000
0000
0100
0000
0010
0000
1010
0000
0101
0000
,
0001
0001
0000
0000
1000
0000
0100
0000
0001
0000
1000
0100
0000
0100
1000
0000
,
0001
0001
0000
0000
1000
0000
0001
0000
0010
0000
0100
0000
0101
0000
1010
0000
,
1000
0010
0001
0100
0010
2010
0001
0100
,
3010
0100
0001
1001
0012
0000
0100
0000
,
1003
0001
0001
1000
0010
0110
2000
0000
,
3001
0000
0000
0000
0110
0000
0000
0000
1000
0000
0000
0000
0001
0000
0000
0000
2010
0000
0000
0000
0000
0000
0000
0000
3100
0000
0000
0010
0000
0000
0001
0000
,
1000
0000
0001
0000
0000
0000
0011
0000
0000
0000
0000
0000
1000
0000
0000
0000
1000
0000
0000
0000
0001
0000
0000
0000
1000
0000
0000
0010
0000
0000
0100
0000
,
0002
0000
0000
0000
0010
0000
0000
0000
2003
0000
0000
0000
0010
0000
0000
0000
3200
0000
0000
0000
0000
0000
0000
0000
0310
0000
0000
0001
0000
0000
1000
0000
,
0100
0001
0100
0120
2030
0100
0000
0100
,
3002
0000
0000
0000
0010
0000
0000
0000
0000
0000
0000
0000
0010
0000
0000
0000
0023
0000
0000
0000
0100
0000
0000
0000
0031
0000
0000
1000
0000
0000
0100
0000
,
1000
1000
0000
0000
0001
0000
1000
0000
1000
0000
0010
0100
0000
0100
0010
0000
,
1000
1000
0000
0000
0001
0000
0100
0000
0010
0000
0001
0000
0100
0000
1001
0000
,
0001
0001
0000
0000
1000
0000
0001
0000
0001
0000
0100
0010
0000
0010
0100
0000
,
0001
0001
0000
0000
1000
0000
0010
0000
0100
0000
1000
0000
0010
0000
1001
0000
,
0100
0100
0000
0000
0010
0000
0100
0000
0100
0000
1000
0100
0000
0100
1000
0000
,
0010
0010
0000
0000
0100
0000
0010
0000
1000
0000
1000
0000
0001
0000
1001
0000
,
0100
0100
0000
0000
0010
0000
0100
0000
0100
0000
1000
0100
0000
0100
1000
0000
,
0010
0010
0000
0000
0100
0000
0010
0000
1000
0000
1000
0000
0001
0000
1001
0000
,
0100
0100
0010
0010
0010
1000
0100
0010
,
0010
0010
0100
0100
0100
1000
0001
0110
,
1001
0000
0000
0000
;

//--------------- dance-single - ----------------
#NOTES:
     dance-single:
     :
     Hard:
     12:
     0.588333,0.667593,0.41284,0.110762,0.644434,409,368,41,11,0,0,0.588333,0.667593,0.41284,0.110762,0.644434,409,368,41,11,0,0:
0000
0000
0000
0000
,
0000
0000
0000
0000
,
0000
0000
0000
0000
,
0010
0000
0010
1000
0100
0000
0010
0000
0010
0000
0010
0001
0100
0000
0010
0000
,
0010
1000
0100
1000
0010
0000
1000
0000
0010
0001
0100
0001
0010
0000
0001
0000
,
1100
0000
0000
0101
0000
0000
0100
0000
0010
1000
0100
0000
0010
0000
0011
0000
,
0001
0100
0010
1000
0100
0010
0001
0000
0001
0000
0001
0000
1100
0000
0101
0000
,
0100
0010
0000
0110
0000
0000
0000
0000
1000
0100
0001
0100
1000
0000
1001
0000
,
0001
0100
0010
1000
0100
0010
0001
0000
1000
0000
1000
0000
0011
0000
1001
0000
,
0000
0100
0000
0110
0000
0000
0000
0000
0010
1000
0010
0100
0010
1000
0010
0100
,
0010
0010
1000
0100
0010
0011
1000
1001
,
0001
0100
0000
0110
0000
0000
0000
0000
0001
0100
1000
0100
0001
0100
1000
0100
,
0010
1000
0100
0100
1000
0010
1010
1001
,
0100
0100
0000
0000
1000
0100
0001
0010
1000
0000
0001
0010
0000
0010
0001
0000
,
0100
0100
0000
0000
1000
0100
0001
0000
0010
0000
1000
0000
1010
0000
1001
0000
,
0010
0010
0000
0000
0001
0010
1000
0100
0001
0000
1000
0100
0000
0100
1000
0000
,
0010
0010
0000
0000
0001
0010
1000
0000
0100
0000
0001
0000
0101
0000
1001
0000
,
1000
1000
0000
0000
0001
0001
0010
1000
1000
0000
0001
0010
0000
0100
0001
0000
,
1000
1000
0000
0000
0001
0010
1000
0000
0100
0000
0010
0000
1010
0000
0101
0000
,
0001
0001
0000
0000
1000
1000
0100
0001
0001
0000
1000
0100
0000
0010
1000
0000
,
0001
0001
0000
0000
1000
0100
0001
0000
0010
0000
0100
0000
0101
0000
1010
0000
,
1000
0100
0010
0000
0001
0000
0100
0000
0010
0000
2010
0000
0001
0000
0100
0000
,
3010
0100
0001
1001
0012
0000
0100
0000
,
1003
0100
0001
0000
0001
0100
1000
0000
0010
0000
0110
0000
2000
0000
0000
0000
,
3001
0000
0000
0000
0110
0000
0000
0000
1000
0000
0100
0000
0001
0000
0000
0000
2010
0000
0000
0000
0000
0000
0000
0000
3100
0000
0000
0010
0000
0000
0001
0000
,
1000
0000
0001
0000
0000
0000
0011
0000
0000
0000
0100
0000
1000
0000
0000
0000
1000
0000
0010
0000
0001
0000
0000
0000
1000
0000
0000
0010
0000
0000
0100
0000
,
0002
0000
0000
0000
0010
0000
0000
0000
2003
0000
0000
0000
0010
0000
0000
0000
3200
0000
0000
0000
0000
0000
0000
0000
0310
0000
0000
0001
0000
0000
1000
0000
,
0100
0010
0001
0000
0100
0000
0120
0000
2030
0000
0100
0000
0000
0000
0100
0000
,
3002
0000
0000
0000
0010
0000
0000
0000
0000
0000
0000
0000
0010
0000
0000
0000
0023
0000
0000
0000
0100
0000
0000
0000
0031
0000
0000
1000
0000
0000
0100
0000
,
1000
1000
0000
0000
0001
0100
1000
0000
1000
0000
0010
0100
0000
0100
0010
0000
,
1000
1000
0000
0000
0001
0010
0100
1000
0010
0100
0001
0010
0100
0000
1001
0000
,
0001
0001
0000
0000
1000
0010
0001
0000
0001
0000
0100
0010
0000
0010
0100
0000
,
0001
0001
0000
0000
1000
0100
0010
0001
0100
0010
1000
0100
0010
0000
1001
0000
,
0100
0110
0000
0000
0010
1000
0100
0001
0100
0000
1000
0100
0000
0100
1000
0000
,
0010
0110
0000
0000
0100
0001
0010
0100
1000
0010
1000
0100
0001
0000
1001
0000
,
0100
0110
0000
0000
0010
1000
0100
0001
0100
0000
1000
0100
0000
0100
1000
0000
,
0010
0110
0000
0000
0100
0001
0010
0100
1000
0010
1000
0100
0001
0000
1001
0000
,
0100
0001
0100
0001
0010
1000
0010
1000
0010
0100
1000
0010
0100
0001
0010
1000
,
0010
1000
0010
0001
0100
0001
0100
1000
0100
0010
1000
0100
0001
0100
0110
0000
,
1001
0000
0000
0000
;
