#TITLE:PARANOiA MAX ~FUNKY BLEEP MIX~;
#SUBTITLE:;
#ARTIST:190 remixed by DEPROGRAM MAN;
#TITLETRANSLIT:;
#SUBTITLETRANSLIT:;
#ARTISTTRANSLIT:;
#GENRE:;
#CREDIT:;
#MUSIC:PARANOiA MAX ~FUNKY BLEEP MIX~.ogg;
#BANNER:PARANOiA MAX ~FUNKY BLEEP MIX~.png;
#BACKGROUND:PARANOiA MAX ~FUNKY BLEEP MIX~-bg.png;
#CDTITLE:;
#SAMPLESTART:1.262;
#SAMPLELENGTH:15.000;
#SELECTABLE:YES;
#OFFSET:0.000;
#BPMS:0.000=190.150;
#STOPS:;
#DISPLAYBPM:190.000;
#BGCHANGES:;
#FGCHANGES:;

//--------------- dance-single - ----------------
#NOTES:
     dance-single:
     :
     Beginner:
     4:
     0,0,0,0,0:
0000
0000
0000
0000
,
0000
0000
0000
0000
,
0000
0000
0000
0000
,
0000
0000
0000
0000
,
0000
0000
0000
0000
,
0000
0000
0000
0000
,
0000
0000
0000
0000
,
0001
0001
0000
0100
,
0100
0000
0100
0000
,
0001
0000
0000
0000
,
1000
0000
0000
0000
,
0010
0000
0000
0000
,
1000
0000
0000
0000
,
0010
0000
0000
0000
,
1000
0000
0000
0000
,
1000
0000
0000
0000
,
0010
0000
1001
0000
,
0000
0100
0000
0100
,
0000
0100
0000
0100
,
0000
1000
0000
1000
,
0000
0100
0000
0000
,
0000
0001
0000
0001
,
0000
0010
0000
0100
,
0000
1000
0000
1000
,
0000
1000
1000
0000
,
0000
0010
0000
0010
,
0000
0010
0000
1001
,
0000
0100
0000
0100
,
0000
1001
0000
0000
,
0000
0010
0000
0010
,
0000
0010
0000
1001
,
0000
0100
0000
0100
,
0100
0000
0000
0000
,
1000
0000
0000
0010
,
0000
0000
0000
0001
,
0001
0000
0000
0010
,
0000
0000
0000
0001
,
0001
0000
0000
0010
,
0000
0000
0010
0000
,
1000
0000
0000
0000
,
0000
0000
0000
0000
,
0001
0000
0001
0000
,
1000
0000
1000
0000
,
0100
0000
0010
0000
,
0100
0000
0010
0000
,
0000
1000
0000
1000
,
0000
1000
0000
1000
,
0000
0001
0000
0001
,
0000
0001
0000
0001
,
0000
1000
0000
1000
,
1000
0000
1001
0000
,
0100
0100
0000
0000
,
0100
0100
0100
0000
,
0100
0100
0000
0000
,
0100
0100
0100
0000
,
0010
0010
0000
0000
,
0010
0010
0010
0000
,
0010
0010
0000
0000
,
0010
0010
0010
0000
,
1000
0000
0001
0001
,
0000
1000
1000
0000
,
1000
0000
0100
0000
,
0100
0000
1000
0000
,
1000
0000
0100
0000
,
0001
0000
0000
0000
,
0001
0000
0001
0000
,
0100
0000
1000
0000
,
1000
0000
0100
0000
,
1001
0000
0000
0000
,
0000
0100
0100
0000
,
0010
0000
0100
0100
,
0000
1000
1000
0000
,
1001
0000
0000
0000
,
1000
0000
0000
1000
,
0000
0000
0100
0000
,
1000
0000
1000
0000
,
1000
0000
0000
0000
,
0001
0001
0000
0000
,
0100
0100
0000
0000
,
0100
0000
1000
0000
,
1001
0000
0000
0000
,
0001
0000
0010
0010
,
0000
0010
0010
0010
,
0000
0100
0100
0100
,
0000
0100
0100
0100
,
0000
0100
0000
0100
,
0000
0000
0010
0000
,
0010
0000
0010
0000
,
0100
0100
0000
0000
;

//--------------- dance-single - ----------------
#NOTES:
     dance-single:
     :
     Easy:
     8:
     0,0,0,0,0:
0000
0000
0000
0000
,
0000
0000
0000
0000
,
0000
0000
0000
0000
,
0000
0000
0000
0000
,
0000
0000
0000
0000
,
0000
0000
0000
0000
,
0000
0000
0000
0000
,
0001
0001
0000
0100
,
0100
0000
0110
0000
,
0000
0001
0000
0001
0000
1000
0000
0101
,
0000
0000
0000
0000
0000
0010
0000
1000
,
0000
0010
0000
1000
0000
0001
0000
1010
,
0000
0000
0000
0000
0000
0100
0000
0010
,
0000
0001
0000
0010
0000
0001
0000
1100
,
0000
0000
0000
0000
0000
0100
0000
1000
,
0000
0001
0000
0010
0000
1000
0000
1010
,
0000
0000
1001
0000
,
0000
0100
0000
0001
0000
0100
0000
0001
,
0000
0101
1000
0100
,
0000
1000
0000
0100
0000
1000
0000
0100
,
0000
0110
1000
0010
,
0000
0001
0000
1000
0000
0001
0000
1000
,
0000
1010
0001
0100
,
0000
1000
0000
0001
0000
1000
0000
0001
,
0000
1001
1001
0000
,
0000
0010
1000
0010
,
0000
1000
0000
0010
0000
0001
0000
1001
,
0000
0100
0001
0100
,
0000
0001
0000
0100
0000
1000
0000
1001
,
0000
0010
0001
0010
,
0000
0001
0000
0010
0000
1000
0000
1001
,
0000
0100
1000
0100
,
1000
0000
0000
0001
0000
0000
0001
0000
1000
0000
0000
0000
0000
0000
0000
0000
,
1000
0000
0000
0100
0000
0000
0010
0000
,
0000
0001
0000
1000
0100
0010
0001
0000
,
0001
0000
0000
0100
0000
0000
0010
0000
,
0000
1000
0000
1000
0010
0100
0001
0000
,
0001
0000
0000
0100
0000
0000
0010
0000
,
0000
1000
0000
1000
0010
0100
0001
0000
,
1000
0000
0000
1000
0000
0000
0000
0000
,
0000
0000
0000
0000
,
0001
0000
0000
0000
0001
0000
0000
0001
,
1000
0000
0000
0000
1000
0000
0000
1000
,
0100
0000
1010
0001
,
0100
1000
0010
0001
,
0000
1000
0000
1000
0000
1000
0000
1000
,
0000
1000
0000
1000
0000
1000
0000
1000
,
0000
0001
0000
0001
0000
0001
0000
0001
,
0000
0001
0000
0001
0000
0001
0000
0001
,
0000
1000
0000
1000
0000
1000
0000
1000
,
0001
0100
1001
0000
,
0100
0100
1000
0001
,
0100
0100
0100
0101
,
0100
0100
1000
0001
,
0100
0100
0101
0000
,
0010
0010
0001
1000
,
0010
0010
0010
1010
,
0010
0010
0001
1000
,
0010
0010
0110
0000
,
1000
0000
0001
0001
,
0000
1000
0001
1001
,
1000
0001
0100
1000
,
0100
1001
1000
0100
,
1000
0001
0100
1000
,
0001
1001
0001
0000
,
0001
1000
0001
0010
,
0100
1001
1000
0001
,
1000
0010
0100
0010
,
0001
1000
1001
0000
,
1000
0100
0100
1000
,
0010
0000
1001
0000
0100
0100
0100
0000
,
0001
1000
1000
0001
,
0010
0010
1001
0000
,
1000
0001
0100
1000
,
0001
0000
0100
0001
,
1000
0010
0010
0000
1000
0000
0100
0000
,
1000
0001
1001
0000
,
0001
0001
1000
1000
,
0100
0100
0010
0000
,
0100
0001
1000
0010
,
0100
0010
0010
0000
1001
0000
0000
0000
,
0001
0010
0010
0000
0010
0000
0010
0000
,
1000
0010
0010
0000
0010
0000
0010
0000
,
0001
0100
0100
0000
0100
0100
0100
0000
,
1000
0100
0100
0000
0100
0100
0100
0000
,
0010
0000
0000
0010
0000
0000
0100
0000
,
0000
0100
0000
0000
0010
0000
1001
0000
,
1010
0001
0011
1000
,
0100
0100
1001
0000
;

//--------------- dance-single - ----------------
#NOTES:
     dance-single:
     :
     Medium:
     10:
     0,0,0,0,0:
0000
0000
0000
0000
,
0000
0000
0000
0000
,
0000
0000
0000
0000
,
0000
0000
0000
0000
,
0000
0000
0000
0000
,
0000
0000
0000
0000
,
0000
0000
0000
0000
,
0001
0001
0000
0100
,
0100
0000
0110
0000
,
1000
0001
0000
0011
0000
1000
0000
0101
,
0000
0000
0000
0000
0000
0010
0000
1001
,
0000
0010
0000
1100
0000
0001
0000
1010
,
0000
0000
0000
0000
0000
0100
0000
0110
,
0000
0001
0000
0110
0000
0001
0000
1100
,
0000
0000
0000
0000
0000
0100
0000
1001
,
0000
0001
0000
0011
0000
1000
0000
1010
,
0000
0000
0000
0000
0000
0000
0000
0000
1001
0000
0000
0001
0000
0000
0001
0000
,
0000
0100
0010
0001
0000
0100
0000
0001
,
0000
0000
0101
0000
1000
0000
0100
0010
,
0000
1000
0010
0100
0000
1000
0000
0100
,
0000
0000
0110
0000
1000
0000
0010
0010
,
0000
0001
0100
1000
0000
0001
0000
1000
,
0000
0000
1010
0000
1000
0000
0001
0001
,
0000
1000
0010
0001
0000
1000
0000
0001
,
0000
0000
0000
0000
1001
0000
0000
0000
1000
0000
0000
1000
0000
0000
1000
0000
,
0000
0010
1000
0010
,
0000
1000
0000
0010
0000
0001
0000
1001
,
0000
0100
0001
0100
,
0000
0001
0000
0100
0000
1000
0000
1001
,
0000
0010
0001
0010
,
0000
0001
0000
0010
0000
1000
0000
1001
,
0000
0100
1000
0100
,
1000
0000
0000
0001
0000
0000
0001
0000
1000
0000
0000
0000
0010
0000
0000
0000
,
1000
0000
0000
0100
0000
0000
0010
0000
,
0000
0001
0000
1000
0100
0010
0001
0000
,
0001
0000
0000
0100
0000
0000
0010
0000
,
0000
1000
0000
1000
0010
0100
0001
0000
,
0001
0000
0000
0100
0000
0000
0010
0000
,
0000
1000
0000
1000
0010
0100
0001
0000
,
1000
0000
0000
1000
0000
0000
0000
0000
,
0000
0000
0000
0000
,
0001
0000
0000
0001
0001
0000
0000
0001
,
1000
0000
0000
1000
1000
0000
0000
1000
,
0100
0000
1010
0001
,
0100
1000
0010
0001
,
0000
1000
0000
1000
0000
1000
0000
1000
,
0000
1000
0000
1000
0000
1000
0000
1000
,
0001
0100
0100
0000
1000
0100
0100
0000
,
0001
0100
0100
0000
1000
0100
0100
0000
,
0000
1000
0000
1000
0000
1000
0000
1000
,
0001
0000
0100
0010
0100
0000
1001
0000
,
0100
0000
0100
0000
1000
0010
0001
0000
,
0100
0100
0100
0101
,
0100
0000
0100
0000
1000
0010
0001
0000
,
0100
0100
0100
0101
,
0010
0000
0010
0000
0001
0100
1000
0000
,
0010
0010
0010
1010
,
0010
0000
0010
0000
0001
0100
1000
0000
,
0010
0000
0000
0000
0010
0000
0000
0000
0010
0000
0000
0010
0000
0000
0010
0000
,
1000
0000
0000
0000
1000
0001
1000
0001
,
0000
1000
0001
1001
,
1000
0011
0100
1000
,
0100
0000
1001
0000
1000
0010
0100
0000
,
1000
0011
0100
1000
,
0001
0000
1001
0000
0001
0010
0100
0000
,
0001
1100
0001
0010
,
0100
0000
1001
0000
1000
0100
0001
0000
,
1000
1010
0100
0010
,
0001
0100
1000
0000
1001
0000
0000
0000
,
1000
0100
0100
1000
,
0010
0000
1001
0000
0100
0100
0100
0000
,
0001
1000
1000
0001
,
0010
0010
0010
0000
1001
0000
0000
0000
,
1000
0001
0100
1000
,
0001
1000
0100
0001
,
1000
0010
0001
0000
1000
0000
0100
0000
,
1000
0100
0001
0000
1000
0000
1001
0000
,
0001
0001
1000
1000
,
0100
1000
0100
0000
0100
0001
0100
0000
,
0100
0001
1000
0010
,
0100
0010
1000
0000
0100
0000
1001
0000
,
0001
0010
0010
0000
0010
0010
0010
0000
,
1000
0010
0010
0000
0010
0010
0010
0000
,
0001
0100
0100
0100
0100
0100
0100
0000
,
1000
0100
0100
0100
0100
0100
0100
0000
,
0010
0001
0000
0010
1000
0000
0100
0001
,
0000
0100
1000
0000
0010
0000
1001
0000
,
1010
0001
0011
1000
,
1100
0101
1001
0000
;

//--------------- dance-single - ----------------
#NOTES:
     dance-single:
     :
     Hard:
     12:
     0,0,0,0,0:
0000
0000
0000
0000
,
0000
0000
0000
0000
,
0000
0000
0000
0000
,
0000
0000
0000
0000
,
0000
0000
0000
0000
,
0000
0000
0000
0000
,
0000
0000
0000
0000
,
0001
0001
0000
0100
,
0100
0000
0110
0000
,
1000
0001
0010
0001
0000
1000
0100
0001
,
0000
0000
0000
0000
0000
0010
0000
1001
,
0000
0010
1000
0100
0000
0001
0010
1000
,
0000
0000
0000
0000
0000
0100
0000
0110
,
0000
0001
0100
0010
0000
0001
0100
1000
,
0000
0000
0000
0000
0000
0100
0000
1001
,
0000
0001
0001
0010
0000
1000
1000
0010
,
0000
0000
0000
0000
0000
0000
0000
0000
1001
0000
0000
0001
0000
0000
0001
0000
,
1000
0100
0010
0001
0000
0100
0010
0001
,
0010
0000
0101
0000
1000
0010
0100
0010
,
0000
1000
0010
0100
0000
1000
0010
0100
,
0000
0000
0110
0000
1000
0001
0010
0010
,
0000
0001
0100
1000
0000
0001
0100
1000
,
0100
0000
1010
0000
1000
0010
0001
0001
,
0000
1000
0010
0001
0000
1000
0010
0001
,
1000
0000
0000
0000
1001
0000
0000
0000
1001
0000
0000
1000
0000
0000
1000
0000
,
0000
0001
0010
0100
1000
0001
0010
0100
,
0000
1000
0100
0010
0000
0001
0000
1001
,
0000
1000
0100
0010
0001
1000
0100
0010
,
0000
0001
0010
0100
0000
1000
0000
1001
,
0000
1000
0010
0100
0001
1000
0010
0100
,
0000
0001
0100
0010
0000
1000
0000
1001
,
0000
0001
0100
0010
1000
0001
0100
0010
,
1000
0000
0000
1001
0000
0000
0001
0000
1000
0000
0000
0000
0010
0000
0000
0000
,
1001
0000
0000
0100
0000
0000
0010
0000
,
0000
1001
0000
1000
0100
0010
0001
0000
,
1001
0000
0000
0100
0000
0000
0010
0000
,
0000
1001
0000
1000
0010
0001
0010
0000
,
1001
0000
0000
0100
0000
0000
0010
0000
,
0000
1001
0000
1000
0010
0001
0100
0000
,
1000
0000
0000
1000
0000
0000
0000
0000
,
0000
0000
0000
0000
,
0001
0000
0000
0001
0000
0000
0001
0000
0001
0000
0000
0001
0000
0000
0001
0000
,
1000
0000
0000
1000
0000
0000
1000
0000
1000
0000
0000
1000
0000
0000
1000
0000
,
0100
0000
1010
0001
,
0100
1000
0010
0001
,
0000
1000
0001
1000
0001
1000
0001
1000
,
0001
1000
0001
1000
0001
1000
0001
1000
,
0001
0100
0100
0010
1000
0100
0100
0010
,
0001
0100
0100
0010
1000
0100
0100
0010
,
0001
1000
0001
1000
0001
1000
0001
1000
,
0001
0000
0100
0010
0100
0000
1001
0000
,
0100
0000
0100
0010
1000
0010
0001
0010
,
0100
0001
0100
1000
0100
0001
0100
0000
,
0100
0000
0100
0010
1000
0010
0001
0010
,
0100
0001
0100
1000
0100
0001
0100
0000
,
0010
0000
0010
0100
0001
0100
1000
0100
,
0010
1000
0010
0001
0010
1000
0010
0000
,
0010
0000
0010
0100
0001
0100
1000
0100
,
0010
0000
1000
0000
0010
0000
0001
0000
0010
0000
0000
0010
0000
0000
0010
0000
,
1000
0001
0000
0000
1000
0010
0001
1000
,
0000
1000
0001
1001
,
1000
0011
0100
1000
,
0100
0000
1001
0000
1000
0010
0100
0010
,
1000
0011
0100
1000
,
0001
0000
1001
0000
0001
0010
0100
0010
,
0001
1100
0001
0010
,
0100
0000
1001
0000
1000
0100
0001
0100
,
1000
1010
0100
0010
,
0001
0100
1000
0000
1001
0000
0000
0000
,
1000
0001
0100
0000
0100
0001
1000
0000
,
0010
0000
1001
0000
0100
0100
0100
0000
,
0001
0100
1000
0000
1000
0010
0001
0000
,
0010
0010
0010
0000
1001
0000
0000
0000
,
1000
0100
0001
0000
0100
0000
1000
0000
,
0001
0010
1000
0000
0100
0010
0001
0000
,
1000
0010
0001
0010
1000
0000
0100
0000
,
1000
0100
0001
0010
1000
0000
1001
0000
,
0001
0010
0001
0010
1000
0010
1000
0010
,
0100
1000
0100
1000
0100
0001
0100
0001
,
0100
0010
0001
0100
1000
0100
0010
1000
,
0100
0010
1000
0001
0100
0000
1001
0000
,
0001
0010
0010
0010
0001
0010
0010
0000
,
1000
0010
0010
0010
1000
0010
0010
0000
,
0001
0100
0001
0100
0100
0100
0100
0000
,
1000
0100
1000
0100
0100
0100
0100
0000
,
0010
0001
0000
0010
1000
0000
0100
0001
,
0000
0100
1000
0000
0010
0000
1001
0000
,
1010
1001
0011
1010
,
1100
0101
1001
0000
;

//--------------- dance-double - ----------------
#NOTES:
     dance-double:
     :
     Easy:
     8:
     0,0,0,0,0:
00000000
00000000
00000000
00000000
,
00000000
00000000
00000000
00000000
,
00000000
00000000
00000000
00000000
,
00000000
00000000
00000000
00000000
,
00000000
00000000
00000000
00000000
,
00000000
00000000
00000000
00000000
,
00000000
00000000
00000000
00000000
,
00000001
00000001
00000000
00001000
,
00001000
00000000
00011000
00000000
,
00000000
00010000
00000000
01000000
00000000
00100000
00000000
00011000
,
00000000
00000000
00000000
00000000
00000000
00010000
00000000
00000100
,
00000000
00001000
00000000
00000010
00000000
00000100
00000000
00011000
,
00000000
00000000
00000000
00000000
00000000
00001000
00000000
00100000
,
00000000
00010000
00000000
10000000
00000000
00100000
00000000
00011000
,
00000000
00000000
00000000
00000000
00000000
00001000
00000000
00010000
,
00000000
00100000
00000000
00001000
00000000
00000010
00000000
00010010
,
00000000
00000000
00011000
00000000
,
00000000
00100000
00000000
01000000
00000000
00100000
00000000
00010000
,
00000000
00000110
00000010
00000100
,
00000000
00000010
00000000
00000100
00000000
00000010
00000000
00000100
,
00000000
00011000
00100000
01000000
,
00000000
00010000
00000000
01000000
00000000
00100000
00000000
00001000
,
00000000
00000110
00001000
00001000
,
00000000
00000001
00000000
00000010
00000000
00000100
00000000
00010000
,
00000000
01100000
10010000
00000000
,
00000000
00100000
00010000
00001000
,
00000000
00000100
00000000
00000010
00000000
00000100
00000000
00001001
,
00000000
00000100
00001000
00010000
,
00000000
00100000
00000000
01000000
00000000
00100000
00000000
10010000
,
00000000
01000000
00010000
00001000
,
00000000
00000010
00000000
00000100
00000000
00000010
00000000
00001001
,
00000000
00000010
00001000
00010000
,
01000000
00000000
00000000
00100000
00000000
00000000
10000000
00000000
00010000
00000000
00000000
00000000
00000000
00000000
00000000
00000000
,
10010000
00000000
00000000
00100000
00000000
00000000
00010000
00000000
,
00000000
00001000
00000000
00000010
00000001
00000100
00000010
00000000
,
00001001
00000000
00000000
00000100
00000000
00000000
00001000
00000000
,
00000000
00010000
00000000
01000000
10000000
00100000
01000000
00000000
,
10010000
00000000
00000000
00100000
00000000
00000000
00010000
00000000
,
00000000
00001000
00000000
00000010
00000001
00000100
00000010
00000000
,
00010000
00000000
00000000
00010000
00000000
00000000
00000000
00000000
,
00000000
00000000
00000000
00000000
,
00100000
00000000
00000000
00000000
00100000
00000000
00000000
00100000
,
00000010
00000000
00000000
00000000
00000010
00000000
00000000
00000010
,
00001000
00000000
00001001
00000100
,
00010000
00001000
01000000
00010000
,
00000000
10000000
00000000
10000000
00000000
10000000
00000000
10000000
,
00000000
10000000
00000000
10000000
00000000
10000000
00000000
10000000
,
00000000
00010000
00000000
00010000
00000000
00010000
00000000
00010000
,
00000000
00010000
00000000
00010000
00000000
00010000
00000000
00010000
,
00000000
00001000
00000000
00001000
00000000
00001000
00000000
00001000
,
00000100
00001000
00011000
00000000
,
00100000
00100000
01000000
01000000
,
01000000
01000000
00010000
00010000
,
00000010
00000010
00000100
00000100
,
00000100
00000100
00001000
00000000
,
01000000
01000000
00100000
00100000
,
00100000
00100000
00010000
00010000
,
00000100
00000100
00000010
00000010
,
00000010
00000010
00000110
00000000
,
00001000
00000000
00010000
00010000
,
00000000
00010000
00001000
00011000
,
00100000
00010000
00001000
00010000
,
00001000
00011000
01000000
00010000
,
00001000
00010000
01000000
00010000
,
00001000
00011000
00010000
00000000
,
00010000
00001000
00000010
00001000
,
00010000
00011000
01000000
00001000
,
00010000
00001000
00100000
00001000
,
00010000
00001000
00011000
00000000
,
00010000
01000000
01000000
00010000
,
01000000
00000000
00011000
00000000
00000100
00000100
00000100
00000000
,
00001000
00000001
00000001
00001000
,
00000010
00000010
00011000
00000000
,
10010000
00000000
00100000
00000000
00000000
00100000
00000000
00000000
,
00010000
00000000
00000000
00000010
00000000
00000000
00000010
00000000
,
00000100
00010000
00001000
00100000
,
00001000
00010000
00000100
00000010
,
00001001
00000000
00000100
00000000
00000000
00000100
00000000
00000000
,
00001000
00000000
00000000
00100000
00000000
00000000
00100000
00000000
,
00100000
00001000
00010000
00000100
,
00001000
00000001
00001001
00000000
,
00100000
00010000
00010000
00000000
00010000
00000000
00010000
00000000
,
00000010
00001000
00001000
00000000
00001000
00000000
00001000
00000000
,
00000100
00001000
00001000
00000000
00001000
00001000
00001000
00000000
,
01000000
00010000
00010000
00000000
00010000
00010000
00010000
00000000
,
00010000
00000000
00000000
00010000
00000000
00000000
00000100
00000000
,
00000000
00000100
00000000
00000000
00001000
00000000
00011000
00000000
,
01010000
00010000
00001100
00001000
,
00010000
00010000
00011000
00000000
;

//--------------- dance-double - ----------------
#NOTES:
     dance-double:
     :
     Medium:
     10:
     0,0,0,0,0:
00000000
00000000
00000000
00000000
,
00000000
00000000
00000000
00000000
,
00000000
00000000
00000000
00000000
,
00000000
00000000
00000000
00000000
,
00000000
00000000
00000000
00000000
,
00000000
00000000
00000000
00000000
,
00000000
00000000
00000000
00000000
,
00000001
00000001
00000000
00001000
,
00001000
00000000
00011000
00000000
,
00100000
00010000
00000000
01010000
00000000
00100000
00000000
00011000
,
00000000
00000000
00000000
00000000
00000000
00010000
00000000
00001100
,
00000000
00001000
00000000
00001010
00000000
00000100
00000000
00011000
,
00000000
00000000
00000000
00000000
00000000
00001000
00000000
00110000
,
00000000
00010000
00000000
11000000
00000000
00100000
00000000
00011000
,
00000000
00000000
00000000
00000000
00000000
00001000
00000000
00011000
,
00000000
00100000
00000000
00101000
00000000
00000010
00000000
00010010
,
00000000
00000000
00000000
00000000
00000000
00000000
00000000
00000000
00011000
00000000
00000000
00010000
00000000
00000000
00010000
00000000
,
00000000
00100000
10000000
01000000
00000000
00100000
00000000
00010000
,
00000000
00000000
00000110
00000000
00000010
00000000
00000100
00001000
,
00000000
00000010
00001000
00000100
00000000
00000010
00000000
00000100
,
00000000
00000000
00011000
00000000
00100000
00000000
01000000
00100000
,
00000000
00010000
00100000
01000000
00000000
00100000
00000000
00001000
,
00000000
00000000
00000110
00000000
00001000
00000000
00001000
00000001
,
00000000
00000001
00000100
00000010
00000000
00000100
00000000
00010000
,
00000000
00000000
00000000
00000000
01100000
00000000
00000000
00000000
10010000
00000000
00000000
00010000
00000000
00000000
00010000
00000000
,
00000000
00100000
00010000
00001000
,
00000000
00000100
00000000
00000010
00000000
00000100
00000000
00001001
,
00000000
00000100
00001000
00010000
,
00000000
00100000
00000000
01000000
00000000
00100000
00000000
10010000
,
00000000
01000000
00010000
00001000
,
00000000
00000010
00000000
00000100
00000000
00000010
00000000
00001001
,
00000000
00000010
00001000
00010000
,
01000000
00000000
00000000
00100000
00000000
00000000
10000000
00000000
00010000
00000000
00000000
00000000
00100000
00000000
00000000
00000000
,
10010000
00000000
00000000
00100000
00000000
00000000
00010000
00000000
,
00000000
00001000
00000000
00000010
00000001
00000100
00000010
00000000
,
00001001
00000000
00000000
00000100
00000000
00000000
00001000
00000000
,
00000000
00010000
00000000
01000000
10000000
00100000
01000000
00000000
,
10010000
00000000
00000000
00100000
00000000
00000000
00010000
00000000
,
00000000
00001000
00000000
00000010
00000001
00000100
00000010
00000000
,
00010000
00000000
00000000
00010000
00000000
00000000
00000000
00000000
,
00000000
00000000
00000000
00000000
,
00100000
00000000
00000000
00100000
00100000
00000000
00000000
00100000
,
00000010
00000000
00000000
00000010
00000010
00000000
00000000
00000010
,
00001000
00000000
00001001
00000100
,
00010000
00001000
01000000
00010000
,
00000000
10000000
00000000
10000000
00000000
10000000
00000000
10000000
,
00000000
10000000
00000000
10000000
00000000
10000000
00000000
10000000
,
00010000
01000000
01000000
00000000
00100000
00001000
00001000
00000000
,
00000010
00000100
00000100
00000000
00001000
00000001
00000001
00000000
,
00000000
00001000
00000000
00001000
00000000
00001000
00000000
00001000
,
00000001
00000000
00001000
00000100
00001000
00000000
00011000
00000000
,
00100000
00000000
00100000
00000000
01000000
00010000
01000000
00000000
,
01000000
01000000
00010000
00010000
,
00000010
00000000
00000010
00000000
00000100
00001000
00000100
00000000
,
00000100
00000100
00001000
00001000
,
01000000
00000000
01000000
00000000
00100000
00010000
00100000
00000000
,
00100000
00100000
00010000
00010000
,
00000100
00000000
00000100
00000000
00000010
00001000
00000010
00000000
,
00000010
00000000
00000000
00000000
00000010
00000000
00000000
00000000
00010000
00000000
00000000
00010000
00000000
00000000
00010000
00000000
,
00001000
00000000
00000000
00000000
00010000
00001000
00010000
00001000
,
00000000
00010000
00001000
00011000
,
00100000
00011000
00000100
00010000
,
00001000
00000000
00011000
00000000
01000000
00001000
00010000
00000000
,
00000010
00011000
01000000
00001000
,
00010000
00000000
00011000
00000000
00000010
00010000
00001000
00000000
,
01000000
00011000
00000010
00010000
,
00001000
00000000
00011000
00000000
01000000
00010000
00001000
00000000
,
00000010
00011000
00100000
00001000
,
00010000
00001000
00010000
00000000
00011000
00000000
00000000
00000000
,
10000000
01000000
01000000
10000000
,
01000000
00000000
00011000
00000000
00000100
00000100
00000100
00000000
,
00001000
00000001
00000001
00001000
,
00000010
00000010
00000010
00000000
00011000
00000000
00000000
00000000
,
10010000
00000000
00100000
00000000
00000000
00100000
00001000
00000000
,
00010000
00000000
00000000
00001000
00000000
00000010
00000001
00000000
,
00000100
00001000
00010000
00000000
00001000
00000000
00100000
00000000
,
00010000
01000000
00010000
00001000
,
00001001
00000000
00000100
00000000
00000000
00000100
00000000
00000000
,
00001000
00000000
00000000
00100000
00000000
10000000
10000000
00000000
,
00100000
00010000
00001000
00000000
00010000
00000000
00000100
00000000
,
00001000
00000001
00001001
00000000
,
00100000
00010000
00010000
00000000
00010000
00010000
00010000
00000000
,
00000010
00001000
00001000
00000000
00001000
00001000
00001000
00000000
,
00000100
00001000
00001000
00001000
00001000
00001000
00001000
00000000
,
01000000
00010000
00010000
00010000
00010000
00010000
00010000
00000000
,
00010000
00100000
00000000
00001000
00010000
00000000
00000100
00001000
,
00000000
00000100
00010000
00000000
00001000
00000000
00011000
00000000
,
01010000
00010000
00001100
00001000
,
00000110
00010000
00011000
00000000
;

//--------------- dance-double - ----------------
#NOTES:
     dance-double:
     :
     Hard:
     13:
     0,0,0,0,0:
00000000
00000000
00000000
00000000
,
00000000
00000000
00000000
00000000
,
00000000
00000000
00000000
00000000
,
00000000
00000000
00000000
00000000
,
00000000
00000000
00000000
00000000
,
00000000
00000000
00000000
00000000
,
00000000
00000000
00000000
00000000
,
00000001
00000001
00000000
00001000
,
00001000
00000000
00011000
00000000
,
00100000
00010000
10000000
01000000
00000000
00100000
00010000
00001000
,
00000000
00000000
00000000
00000000
00000000
00010000
00000000
00001100
,
00000000
00001000
00000001
00000010
00000000
00000100
00001000
00010000
,
00000000
00000000
00000000
00000000
00000000
00001000
00000000
00110000
,
00000000
00010000
10000000
01000000
00000000
00100000
00010000
00001000
,
00000000
00000000
00000000
00000000
00000000
00001000
00000000
00011000
,
00000000
00100000
00100000
00001000
00000000
00000010
00000010
00010000
,
00000000
00000000
00000000
00000000
00000000
00000000
00000000
00000000
00011000
00000000
00000000
00001000
00000000
00000000
00001000
00000000
,
00100000
00010000
10000000
01000000
00000000
00100000
00001000
00010000
,
00000100
00000000
00000110
00000000
00000010
00000001
00000100
00000001
,
00000000
00000010
00000001
00000100
00000000
00000010
00001000
00000100
,
00010000
00000000
00011000
00000000
00100000
00010000
01000000
00100000
,
00000000
10000000
01000000
00010000
00000000
01000000
00010000
00001000
,
00000100
00000000
00000110
00000000
00001000
00000001
00001000
00000001
,
00000000
00000001
00000100
00001000
00000000
00000100
00001000
00010000
,
01000000
00000000
00000000
00000000
01100000
00000000
00000000
00000000
10010000
00000000
00000000
00010000
00000000
00000000
00010000
00000000
,
00000000
10000000
00100000
01000000
00010000
00100000
00001000
00010000
,
00000000
00000100
00001000
00000010
00000000
00000100
00000000
00001001
,
00000000
00000001
00000100
00000010
00001000
00000100
00010000
00001000
,
00000000
00100000
00010000
01000000
00000000
00100000
00000000
10010000
,
00000000
10000000
01000000
00100000
00010000
01000000
00001000
00010000
,
00000000
00000010
00001000
00000100
00000000
00000010
00000000
00001001
,
00000000
00000001
00000010
00000100
00001000
00000010
00010000
00001000
,
01000000
00000000
00000000
00100000
00000000
00000000
10000000
00000000
00010000
00000000
00000000
00000000
00100000
00000000
00000000
00000000
,
10010000
00000000
00000000
00100000
00000000
00000000
00010000
00000000
,
00000000
00001000
00000000
00000010
00000001
00000100
00000010
00000000
,
00001001
00000000
00000000
00000100
00000000
00000000
00001000
00000000
,
00000000
00010000
00000000
01000000
00010000
01000000
10000000
00000000
,
10010000
00000000
00000000
00100000
00000000
00000000
00010000
00000000
,
00000000
00001000
00000000
00000001
00000100
00001000
00000010
00000000
,
00010000
00000000
00000000
00010000
00000000
00000000
00000000
00000000
,
00000000
00000000
00000000
00000000
,
00100000
00000000
00000000
00100000
00000000
00000000
00100000
00000000
00100000
00000000
00000000
00100000
00000000
00000000
00100000
00000000
,
00000010
00000000
00000000
00000010
00000000
00000000
00000010
00000000
00000010
00000000
00000000
00000010
00000000
00000000
00000010
00000000
,
00010000
00000000
00001001
00000001
,
00001000
00010000
10000000
00010000
,
00000000
10000000
00010000
10000000
00010000
10000000
00010000
10000000
,
00010000
10000000
00010000
10000000
00010000
10000000
00010000
10000000
,
00010000
01000000
01000000
00010000
00100000
00001000
00001000
00010000
,
00000010
00000100
00000100
00000010
00001000
00000001
00000001
00000010
,
00000001
00001000
00000001
00001000
00000001
00001000
00000001
00001000
,
00000001
00000000
00001000
00000100
00001000
00000000
00011000
00000000
,
00100000
00000000
00100000
00010000
01000000
00010000
01000000
10000000
,
01000000
10000000
01000000
00001000
00010000
00001000
00010000
00000000
,
00000010
00000000
00000010
00001000
00000100
00001000
00000100
00000001
,
00000100
00000001
00000100
00010000
00001000
00010000
00001000
00000000
,
01000000
00000000
01000000
00010000
00100000
00010000
00100000
10000000
,
00100000
10000000
00100000
00001000
00010000
00001000
00010000
00000000
,
00000100
00000000
00000100
00001000
00000010
00001000
00000010
00000001
,
00000010
00000000
00000001
00000000
00000010
00000000
00010000
00000000
00001000
00000000
00000000
00001000
00000000
00000000
00001000
00000000
,
00010000
00001000
00000000
00000000
00000010
00001000
00010000
00100000
,
00000000
00010000
00001000
00011000
,
00100000
00011000
00000100
00010000
,
00100000
00000000
00011000
00000000
01000000
00001000
00010000
00000100
,
00000010
00011000
01000000
00001000
,
00000010
00000000
00011000
00000000
00000010
00010000
00001000
00100000
,
01000000
00011000
00000010
00010000
,
01000000
00000000
00011000
00000000
01000000
00010000
00001000
00000100
,
00000010
00011000
00100000
00001000
,
00000100
00001000
00010000
00000000
00011000
00000000
00000000
00000000
,
10000000
00010000
01000000
00000000
01000000
00010000
10000000
00000000
,
01000000
00000000
00011000
00000000
00000100
00000100
00000100
00000000
,
00001000
00000100
00000001
00000000
00000001
00000010
00001000
00000000
,
00000010
00000010
00000010
00000000
00011000
00000000
00000000
00000000
,
10010000
00000000
00100000
00010000
00000000
00100000
00001000
00000000
,
00010000
00000100
00000000
00001000
00000001
00000001
00000001
00000000
,
00000100
00001000
00010000
00000000
00001000
00000000
00100000
00000000
,
00010000
01000000
10000000
00000000
00010000
00000000
00001000
00000000
,
00001001
00000000
00000100
00001000
00000000
00000100
00010000
00000000
,
00001000
00100000
00000000
00010000
10000000
10000000
10000000
00000000
,
00100000
00010000
00001000
00000000
00010000
00000000
00000100
00000000
,
00001000
00000010
00000001
00000000
00001001
00000000
00000100
00000000
,
00100000
00010000
00010000
00010000
00100000
00010000
00010000
00000000
,
00000010
00001000
00001000
00001000
00000010
00001000
00001000
00000000
,
00000100
00001000
00000100
00001000
00001000
00001000
00001000
00000000
,
01000000
00010000
01000000
00010000
00010000
00010000
00010000
00000000
,
10000000
00100000
00000000
00010000
00001000
00000000
00000010
00000001
,
00000000
00000100
00001000
00000000
00010000
00000000
00011000
00000000
,
11000000
00110000
00001100
00000011
,
00000110
00011000
01100000
00000000
;
