#TITLE:PARANOiA KCET ~clean mix~;
#SUBTITLE:;
#ARTIST:izzard;
#TITLETRANSLIT:;
#SUBTITLETRANSLIT:;
#ARTISTTRANSLIT:;
#GENRE:;
#CREDIT:;
#MUSIC:PARANOiA KCET ~clean mix~ (izzard).ogg;
#BANNER:PARANOiA KCET ~clean mix~ (izzard).png;
#BACKGROUND:PARANOiA KCET ~clean mix~ (izzard)-bg.png;
#CDTITLE:;
#SAMPLESTART:62.708;
#SAMPLELENGTH:15.000;
#SELECTABLE:YES;
#OFFSET:0.000;
#BPMS:0.000=180.000
,186.000=170.000
,188.000=180.000
;
#STOPS:;
#DISPLAYBPM:180.000;
#BGCHANGES:;
#FGCHANGES:;

//--------------- dance-single - ----------------
#NOTES:
     dance-single:
     :
     Beginner:
     4:
     0,0,0,0,0:
0000
0000
0000
0000
,
0000
0000
0000
0000
,
0000
0000
0000
0000
,
1000
0000
0010
0000
,
1000
0000
0010
0000
,
0010
0000
0100
0000
,
1001
0000
0100
0000
,
0001
0000
0010
0000
,
1000
0000
0100
0000
,
1000
0000
1000
0000
,
0001
0000
0001
0000
,
1000
0000
1000
0000
,
1000
0000
1000
0000
,
0100
0000
0100
0000
,
0001
0000
0100
0000
,
0001
0000
0001
0000
,
0001
0000
0001
0000
,
0010
0000
0010
0000
,
1000
0000
0010
0000
,
0100
0100
0100
0100
,
0100
0100
0100
0000
,
0100
0100
0100
0100
,
0100
0100
0100
0000
,
0010
0010
0010
0010
,
0010
0010
0010
0000
,
0010
0010
0010
0010
,
0010
0010
0010
0000
,
0100
0100
0100
0000
,
0010
0000
0010
0010
,
0000
0000
0010
0000
,
0010
0010
0000
0000
,
0010
0000
0000
0000
,
0010
0010
0010
0000
,
0100
0000
0000
0000
,
0010
0010
0010
0000
,
0001
0000
0000
0000
,
0001
0000
0000
0000
,
0100
0100
0100
0000
,
0010
0000
1001
0000
,
0100
0000
0000
0000
,
0100
0100
0100
0000
,
0010
0000
0000
0000
,
0100
0100
0100
0000
,
1000
0000
0000
0000
,
0100
0000
0000
0000
,
0010
0010
0010
0000
,
0100
0000
1001
0000
,
1000
0000
1000
0000
,
0001
0000
1000
0000
,
0001
0000
0100
0000
,
1000
0000
0010
0000
,
0100
0100
0100
0000
,
1000
0000
0100
0000
,
0001
0000
1000
0000
,
0001
0000
0100
0000
,
0010
0010
0010
0000
,
1000
0000
0010
0000
,
1000
0000
0001
0000
,
1000
0000
0010
0000
,
0100
0000
1000
0000
,
0010
0000
0001
0000
,
0001
0000
1000
0000
,
0001
0000
1000
0000
,
1000
0000
0000
0000
,
0010
0000
0000
0001
,
0001
0000
0000
0000
,
0100
0000
0010
0000
,
0001
0000
0000
0000
,
0100
0000
0000
0010
,
0010
0000
1000
0000
,
0001
0000
1001
1001
;

//--------------- dance-single - ----------------
#NOTES:
     dance-single:
     :
     Easy:
     8:
     0,0,0,0,0:
0000
0000
0000
0000
,
0000
0000
0000
0000
,
0000
0000
0000
0000
,
1001
1000
0010
1000
,
1001
1000
0010
0001
,
0110
1000
0100
1000
,
1001
1000
0100
0000
,
0001
0001
0010
0001
,
1000
1000
0100
0010
,
1000
0100
1000
1010
,
0001
0010
0001
0000
,
1000
0010
1000
0001
,
0010
0100
0001
1000
,
1000
0100
0001
0010
,
0001
0000
0100
0000
0000
0100
0100
0000
,
0001
0100
0001
1000
,
0100
0010
1000
0001
,
0001
0010
1000
0100
,
1000
0000
0010
0000
0000
0010
0010
0000
,
0100
0101
0100
0101
,
0100
0101
0100
0100
,
0100
1100
0100
1100
,
0100
1100
0100
0100
,
0010
1010
0010
1010
,
0010
1010
0010
0010
,
0010
0011
0010
0011
,
0010
0011
0010
0010
,
0100
0100
0100
0000
,
0010
0000
0010
0110
,
0000
0000
0010
0000
,
0010
0110
0000
0000
,
0010
0000
0000
0100
0000
0100
0000
0000
,
0010
0010
0101
1100
,
0100
0000
0000
0100
0000
0100
0000
0000
,
0010
0010
0010
0000
,
0001
0000
1010
0000
1100
0000
0000
0010
,
0000
0001
0000
0100
0000
1000
0000
0000
,
0100
0100
0100
0100
,
0010
0010
1001
0000
,
0100
0000
0000
0010
0000
0100
0000
0000
,
0100
1000
1010
0011
,
0010
0000
0000
0010
0000
0100
0000
0000
,
0100
0100
0100
0100
,
1000
0000
0101
0000
0011
0000
0000
0100
,
0000
1000
0000
0010
0000
0001
0000
0000
,
0010
0010
0010
0010
,
0100
0100
1001
0000
,
1001
0010
1000
0001
,
1001
0100
1000
0001
,
1001
0100
0100
0100
,
1001
0010
0010
0000
,
0100
1100
0100
0101
,
1000
0000
0100
0000
0000
0100
0100
0000
,
0001
1000
1000
0100
,
0001
0000
0010
0000
0000
0100
0100
0000
,
0010
0011
0010
1010
,
1000
0000
0010
0000
0000
0010
0010
0000
,
1000
0001
0001
0010
,
1000
0100
0010
0000
,
0100
0000
0100
0000
1000
0001
1000
0000
,
0010
0100
0001
0000
,
0001
1000
1000
0001
,
0001
0010
0001
0000
1000
0000
0000
0000
,
1000
1000
0000
0000
0011
0000
0010
0000
,
1010
1000
0000
0010
,
0001
0001
0000
0000
1100
0000
0100
0000
,
0101
0100
0010
1001
,
0001
0001
0000
0000
1100
0000
0100
0000
,
0101
0001
0000
0010
,
1000
1000
0000
0000
1000
0000
1000
0000
,
0001
0001
0001
1001
;

//--------------- dance-single - ----------------
#NOTES:
     dance-single:
     :
     Medium:
     10:
     0,0,0,0,0:
0000
0000
0000
0000
,
0000
0000
0000
0000
,
0000
0000
0000
0000
,
1000
0000
1000
0000
0010
0001
1000
0000
,
0001
0000
1000
0000
0010
0100
0001
0000
,
0100
0000
1000
0000
0100
0001
1000
0000
,
0001
0000
1000
0000
0100
1000
0100
0000
,
0001
0000
0001
0000
0010
0010
0001
0000
,
1000
0000
1000
0000
0100
0100
0010
0000
,
1000
0000
0100
0100
1000
0000
1010
0000
,
0001
0000
0010
0010
0001
0000
0101
0000
,
1000
0100
0010
0100
1000
0000
0001
0000
,
0010
1000
0100
0010
0001
0000
1000
0000
,
1000
0100
0100
0000
0001
0010
0010
0000
,
0001
0100
0100
0000
0000
0100
0100
0000
,
0001
0010
0100
0010
0001
0000
1000
0000
,
0100
0001
0010
0100
1000
0000
0001
0000
,
0001
0010
0010
0000
1000
0100
0100
0000
,
1000
0010
0010
0000
0000
0010
0010
0000
,
0100
0101
0100
0101
,
0100
0000
0101
0000
0100
0010
0100
0000
,
0100
1100
0100
1100
,
0100
0000
1100
0000
0100
0010
0100
0000
,
0010
1010
0010
1010
,
0010
0000
1010
0000
0010
0100
0010
0000
,
0010
0011
0010
0011
,
0010
0000
0011
0000
0010
0100
0010
0000
,
0100
1000
0100
0000
0100
0000
0000
0000
,
0010
0001
0010
0000
0010
0001
0010
0000
,
0000
0000
0000
0000
0010
1000
0010
0000
,
0010
1000
0010
0000
0000
0000
0000
0000
,
0010
0000
1000
0100
0000
0100
0000
1000
,
0010
0010
0101
1100
,
0100
0000
0001
0100
0000
0100
0001
0000
,
0010
0000
0010
0000
0010
0100
0010
0000
,
0001
0000
1010
0000
1100
0000
0001
0010
,
0000
0001
0000
0100
0000
1000
0000
0010
,
0100
0100
0100
0100
,
0010
0001
0010
0000
1000
0001
1000
0000
,
0100
0000
0001
0010
0000
0100
0000
0001
,
0100
1000
1010
0011
,
0010
0000
1000
0010
0000
0100
1000
0000
,
0100
0000
0100
0000
0100
0010
0100
0000
,
1000
0000
0101
0000
0011
0000
1000
0100
,
0000
1000
0000
0010
0000
0001
0000
0100
,
0010
0010
0010
0010
,
0100
1000
0100
0000
0001
1000
0001
0000
,
1000
0000
0010
0001
1000
0000
0001
0000
,
1000
0000
0100
0001
1000
0000
0001
0000
,
1000
0000
0100
0001
0100
0000
0100
0000
,
1000
0000
0010
0001
0010
0000
0100
0000
,
0100
1100
0100
0101
,
1000
0100
0100
0000
0000
0100
0100
0000
,
0001
0000
1000
0000
1000
1000
0100
0000
,
0001
0001
0010
0000
0000
0100
0100
0000
,
0010
0011
0010
1010
,
1000
0010
0010
0000
0000
0010
0010
0000
,
1000
0000
0001
0000
0001
0001
0010
0000
,
1000
1000
0100
0000
0010
0100
0010
0000
,
0100
1000
0100
0000
1000
0001
1000
0000
,
0010
1000
0100
0000
0001
0000
0001
0000
,
0001
0010
1000
0000
1000
0000
0001
0000
,
0001
0010
0001
0000
1000
0000
1010
0000
,
1000
1000
0000
0000
0011
0000
0010
0000
,
1010
0000
1000
0010
0000
0001
0010
0000
,
0001
0001
0000
0000
1100
0000
0100
0000
,
0101
0100
0010
1001
,
0001
0001
0000
0000
1100
0000
0100
0000
,
0101
0000
0001
0010
0000
1000
0010
0000
,
1000
1000
0001
0000
1000
0010
1000
0000
,
0001
0001
0001
1001
;

//--------------- dance-single - ----------------
#NOTES:
     dance-single:
     :
     Hard:
     12:
     0.676847,0.653003,0.779399,0,0.041021,462,386,76,0,0,0,0.676847,0.653003,0.779399,0,0.041021,462,386,76,0,0,0:
0000
0000
0000
0000
,
0000
0000
0000
0000
,
0000
0000
0000
0000
,
1000
0000
1000
0100
0010
0001
1000
0000
,
0001
0000
1000
0100
0010
0100
0001
0000
,
0100
0000
1000
0010
0100
0001
1000
0000
,
0001
0000
1000
0010
0100
1000
0100
0000
,
0001
0000
0001
0000
0010
0010
0101
0000
,
1000
0000
1000
0000
0100
0100
1010
0000
,
1000
0000
0100
0100
1000
0100
1010
0000
,
0001
0000
0010
0010
0001
0010
0101
0000
,
1000
0100
0010
0100
1000
0010
0001
0000
,
0010
1000
0100
0010
0001
0100
1000
0000
,
1000
0100
0100
0000
0001
0010
0010
0000
,
0001
0101
0110
0000
0000
0100
0100
0000
,
0001
0010
0100
0010
0001
0100
1000
0000
,
0100
0001
0010
0100
1000
0010
0001
0000
,
0001
0010
0010
0000
1000
0100
0100
0000
,
1000
1010
0110
0000
0000
0010
0010
0000
,
1100
0101
1100
0101
,
1100
0000
0101
0000
0100
0100
0100
0000
,
0101
1100
0101
1100
,
0101
0000
1100
0000
0100
0100
0100
0000
,
0011
1010
0011
1010
,
0011
0000
1010
0000
0010
0010
0010
0000
,
1010
0011
1010
0011
,
1010
0000
0011
0000
0010
0010
0010
0000
,
0100
1000
0100
0001
0100
1000
0100
0000
,
0010
0001
0010
0000
0010
1000
0010
0001
,
0000
0100
0100
0000
0010
1000
0010
0000
,
0010
0001
0010
1000
0000
0100
0100
0000
,
0010
0000
1000
0100
0000
0100
0000
1000
,
0010
0011
0101
1100
,
0100
0000
0001
0100
0000
0100
0001
0000
,
0010
0000
0000
0000
0010
0000
0000
0000
0010
0100
0010
0100
0010
0000
0000
0000
,
0011
0000
1010
0000
1100
0000
0001
0010
,
0000
0011
0000
0101
0000
1100
0000
0010
,
0100
1000
0100
0000
0100
0001
0100
0000
,
0010
0000
0001
0000
0010
0000
0000
0000
1000
0001
1000
0001
1000
0000
0000
0000
,
0100
0000
0001
0010
0000
0100
0000
0001
,
0100
1100
1010
0011
,
0010
0000
1000
0010
0000
0100
1000
0000
,
0100
0000
0000
0000
0100
0000
0000
0000
0100
0010
0100
0010
0100
0000
0000
0000
,
1100
0000
0101
0000
0011
0000
1000
0100
,
0000
1100
0000
1010
0000
0011
0000
0100
,
0010
0001
0010
0000
0010
1000
0010
0000
,
0100
0000
1000
0000
0100
0000
0000
0000
0001
1000
0001
1000
0001
0000
0000
0000
,
1000
0100
0010
0001
1000
0000
0001
0000
,
1000
0010
0100
0001
1000
0000
0001
0000
,
1000
1000
0100
0001
0100
0000
0100
0000
,
1000
1000
0010
0001
0010
0000
0100
0000
,
0100
0001
1100
0000
0100
1000
0101
0000
,
1000
1100
0110
0000
0000
0100
0100
0000
,
0001
0100
1000
0000
1000
1000
0100
0100
,
0001
0001
0010
0000
0000
1100
0110
0000
,
0010
1000
0011
0000
0010
0001
1010
0000
,
1000
1010
0110
0000
0000
0010
0010
0000
,
1000
0010
0001
0000
0001
0001
0010
0010
,
1000
1000
0100
0000
0010
0010
0010
0000
,
0100
0100
0100
0000
1000
1000
1000
0000
,
0010
1000
1100
0010
0001
0100
0101
0000
,
1000
0100
0001
0000
0001
0010
1000
0000
,
1000
0010
0011
0100
1000
0010
1010
0000
,
1000
1000
0000
0000
0011
0000
0010
0000
,
1010
0000
1000
0100
0000
0001
0110
0000
,
0001
0001
1000
0000
1100
0000
0100
0000
,
0101
0000
0100
0000
0010
0010
1001
0000
,
0001
0001
0000
0000
1100
0000
0100
0000
,
0101
0000
0001
0100
0000
1000
0110
0000
,
1000
1000
0001
1000
1000
0010
1000
1000
,
0001
0001
0001
0010
0001
0000
1001
0000
;
