#TITLE:PARANOiA JET;
#SUBTITLE:;
#ARTIST:JUNE with 220;
#TITLETRANSLIT:;
#SUBTITLETRANSLIT:;
#ARTISTTRANSLIT:;
#GENRE:;
#CREDIT:;
#MUSIC:PARANOiA JET.ogg;
#BANNER:PARANOiA JET.png;
#BACKGROUND:PARANOiA JET-bg.png;
#CDTITLE:;
#SAMPLESTART:1.088;
#SAMPLELENGTH:15.000;
#SELECTABLE:YES;
#OFFSET:0.000;
#BPMS:0.000=220.000;
#STOPS:;
#BGCHANGES:;
#FGCHANGES:;

//--------------- dance-single - ----------------
#NOTES:
     dance-single:
     :
     Beginner:
     5:
     0,0,0,0,0:
0000
0000
0000
0000
,
0000
0000
0000
0000
,
0000
0000
0000
0000
,
0000
0000
0000
0000
,
0000
0000
0000
0000
,
0000
0001
0000
0000
,
0000
1000
0000
0000
,
0000
0001
0000
1000
,
0000
0001
0000
0000
,
0000
0001
0000
0010
,
0000
0100
0000
0000
,
0000
0001
0000
0100
,
0000
1001
1001
0000
,
1000
0000
0100
0000
,
0001
0000
0000
0000
,
1000
0000
0010
0010
,
0000
0110
0110
0000
,
0000
1000
0000
0100
,
0000
0010
0000
0000
,
0000
1000
0000
0100
,
0000
1001
1001
0000
,
0001
0000
0010
0000
,
1000
0000
0000
0000
,
0001
0000
1000
0000
,
0010
0000
0000
0000
,
0000
0000
0010
0010
,
0000
1000
0000
1000
,
0000
0000
0100
0100
,
0100
0000
0110
0000
,
0000
0000
0100
0100
,
0000
0010
0000
0100
,
0000
0000
0001
0000
,
0001
0000
1001
0000
,
0000
0010
0010
0010
,
0010
0000
0010
0010
,
0000
1000
0000
0000
,
0001
0000
0000
0000
,
0000
0100
0100
0100
,
0100
0100
0100
0100
,
0000
1000
1000
0000
,
0001
0000
0000
0000
,
0000
0100
0100
0100
,
0100
0000
0100
0100
,
0000
0001
0000
0000
,
1000
0000
0000
0000
,
0000
0010
0010
0010
,
0010
0010
0010
0010
,
0000
1000
0000
0000
,
0100
0000
0000
0000
,
1000
0000
0001
0001
,
0000
0010
0010
0010
,
0010
0000
0100
0000
,
1000
1000
1000
0000
,
0000
1000
0000
0001
,
0000
0001
0000
0110
,
0000
1000
0000
1001
,
0000
0100
0100
0000
,
0000
0001
0000
1000
,
0000
1000
0000
0110
,
0000
0001
0000
1001
,
0000
0010
0010
0000
,
0000
0100
0000
0100
,
0000
0001
0000
1001
,
0000
0010
0000
1001
,
0000
0000
0000
0000
,
0010
0000
0010
0000
,
0001
0000
1001
0000
,
1000
0000
0010
0000
,
1000
0000
0000
0000
,
0001
0000
1000
0000
,
0100
0000
1001
0000
,
1000
0000
0001
0000
,
0010
0000
0000
0000
,
0010
0000
0100
0000
,
0001
0000
0100
0000
,
0010
0000
0100
0000
,
0001
0000
0100
0000
,
0010
0000
0100
0000
,
0001
0000
0100
0000
,
0010
0000
0100
0000
,
0001
0000
0100
0000
,
0010
0000
0000
0000
,
0100
0100
0000
0100
,
0100
0000
0000
0000
,
0010
0010
0000
1000
,
1000
0000
0000
0010
,
0000
0000
1000
0000
,
1000
0000
0100
0000
,
0001
0001
0001
0000
;

//--------------- dance-single - ----------------
#NOTES:
     dance-single:
     :
     Easy:
     9:
     0,0,0,0,0:
0000
0000
0000
0000
,
0000
0000
0000
0000
,
0000
0000
0000
0000
,
0000
0000
0000
0000
,
0000
0000
0000
0000
,
0000
0001
0000
0001
,
0000
1000
0000
1000
,
0000
0001
0000
1000
,
0001
0001
1001
0000
,
0001
0001
1000
0010
,
0100
0100
0001
0000
,
0001
0001
0100
0100
,
0001
1001
1001
0000
,
1000
1000
0100
0100
,
0001
0001
1000
0000
,
1000
0100
0010
0010
,
0100
0110
0110
0000
,
1000
1000
0001
0100
,
0010
0010
1000
0000
,
1000
1000
0100
0100
,
1000
1001
1001
0000
,
0001
0001
0010
1000
,
1000
1000
0010
0000
,
0001
0100
1000
0100
,
0010
0110
1001
0000
,
0000
0011
0000
0000
0010
0000
0010
0000
,
0100
1100
1000
0000
,
0000
0110
0000
0000
0100
0000
0100
0000
,
0100
0000
0110
0000
,
0000
1010
0000
0000
0100
0000
0100
0000
,
0001
0010
1000
0000
,
0000
1001
0000
0000
0001
0000
1000
0000
,
0001
0100
1001
0000
,
0000
0010
0010
0010
,
0010
0000
0010
0010
,
0000
1000
0101
0000
,
0001
1001
1000
0000
,
0000
0100
0100
0100
,
0100
0100
0100
0100
,
0000
1000
1000
1001
,
0001
0001
1001
0000
,
0000
0100
0100
0100
,
0100
0000
0100
0100
,
0000
0001
1100
0000
,
1000
1001
0001
1001
,
0000
0010
0010
0010
,
0010
0010
0010
0010
,
0000
1000
0010
1001
,
0100
0100
0010
1001
,
2000
0000
0010
3002
,
0000
0010
0100
1003
,
1000
0000
0100
0000
,
1000
1000
1001
0000
,
1000
1000
0001
0001
,
1000
0001
0110
0000
,
1000
1000
0001
1001
,
0000
0100
0100
0100
,
0001
0001
1000
1000
,
0001
1000
0110
0000
,
0001
0001
1000
1001
,
0000
0010
0010
0010
,
1000
0100
0001
0100
,
1000
0001
1001
0000
,
0010
0010
0100
1001
,
0000
0100
1001
0000
,
0010
0100
0010
0100
,
0001
0001
1001
0000
,
1000
0001
0010
0010
,
1000
1000
1001
0000
,
0001
1000
1000
0001
,
0100
0100
1001
0000
,
1000
1000
0001
0001
,
0010
0010
1001
0000
,
0010
1001
0100
1001
,
0001
1010
0100
0000
,
0010
1001
0100
1001
,
0001
1010
0100
0000
,
0010
1001
0100
1001
,
0001
1010
0100
0000
,
0010
1001
0100
1001
,
0001
1010
0100
0000
,
0020
1000
0100
1000
,
0100
0100
1030
0000
,
0200
0001
0010
0001
,
0010
0010
0301
0000
,
1000
0000
0000
1000
0001
0000
0010
0000
,
0000
0010
0100
0000
1000
0000
1001
0000
,
1000
0100
0010
0000
0100
0010
0001
0000
,
1000
0001
2002
0000
,
0000
0000
3003
0000
;

//--------------- dance-single - ----------------
#NOTES:
     dance-single:
     :
     Medium:
     11:
     0,0,0,0,0:
0000
0000
0000
0000
,
0000
0000
0000
0000
,
0000
0000
0000
0000
,
0000
0000
0000
0000
,
0000
0000
0000
0000
,
0000
0001
0000
0001
,
0000
1000
0000
1000
,
0001
0001
1000
1000
,
0001
0001
1001
1001
,
0001
0001
1000
0010
,
0100
0000
0100
0000
0001
0010
0000
0010
,
0001
0000
0001
0100
0000
0100
0000
0000
,
0001
1001
1000
1001
,
1000
1000
0100
0100
,
0001
0000
0001
0000
1000
0100
0000
0100
,
1000
0000
0100
0010
0000
0010
0000
0000
,
0100
0100
0110
1001
,
1000
1000
0001
0100
,
0010
0000
0010
0000
1000
0010
0000
0010
,
1000
0000
1000
0100
0000
0100
0000
0000
,
1000
1001
0001
1001
,
0001
0001
0010
1000
,
1000
1000
0010
0010
,
0001
0100
1000
0100
,
0010
0010
0110
1001
,
0000
0011
0000
0000
0010
0000
0010
0000
,
0100
1100
1000
1000
,
0000
0110
0000
0000
0100
0000
0100
0000
,
0100
0000
0000
0001
0010
0000
1001
0000
,
0000
1010
0000
0000
0100
0000
0100
0000
,
0001
0010
1000
0100
,
0000
1001
0000
0000
0001
0000
1000
0000
,
0001
0100
0001
1001
,
0000
0010
0010
0010
,
0010
0000
0010
0010
,
0000
0100
1000
0000
0101
0000
0000
0000
,
0001
1001
1000
0000
,
0000
0100
0100
0100
,
0100
0100
0100
0100
,
0000
0010
1000
0000
1000
0000
1001
0000
,
0001
1000
0001
1000
0001
0000
1001
0000
,
0000
0100
0100
0100
,
0100
0000
0100
0100
,
0000
0010
0001
0000
1100
0000
0000
0000
,
1000
1001
0001
1001
,
0000
0010
0010
0010
,
0010
0010
0010
0010
,
0000
0100
1000
0000
0010
0000
1001
0000
,
0100
0100
0010
1001
,
2000
0000
0010
3002
,
0000
0010
0100
1003
,
1000
0010
0100
0001
,
1000
0001
1000
0001
1000
0000
1001
0000
,
1000
1000
0001
0001
,
1000
0001
0100
0110
,
1000
1000
0001
1001
,
0000
0010
0100
0010
0100
0010
0100
0000
,
0001
0001
1000
1000
,
0001
1000
0010
0110
,
0001
0001
1000
1001
,
0000
0100
0010
0100
0010
0100
0010
0000
,
1000
0100
0001
0100
,
1000
0001
1000
1001
,
0010
0010
0100
1001
,
0100
0100
0010
1001
,
0010
0100
0010
0100
,
0001
0001
1000
1001
,
1000
0001
0010
0010
,
1000
1000
0001
1001
,
0001
1000
1000
0001
,
0100
0100
0010
1001
,
1000
1000
0001
0001
,
0010
0010
1000
0100
,
0010
1001
0100
1001
,
0001
1010
0100
1001
,
0010
1001
0100
1001
,
0001
1010
0100
1001
,
0010
1001
0100
1001
,
0001
1010
0100
1001
,
0010
1001
0100
1001
,
0001
1010
0100
1001
,
0020
1000
0100
1000
,
0100
0100
0100
0000
1030
0000
1001
0000
,
0200
0001
0010
0001
,
0010
0010
0010
0000
0301
0000
1001
0000
,
1000
0001
0000
1000
0001
0000
0010
0100
,
0000
0010
0100
0000
1000
0000
1001
0000
,
1000
0100
0010
0001
1000
0100
0010
0001
,
1000
0001
2002
0000
,
0000
0000
3003
0000
;

//--------------- dance-single - ----------------
#NOTES:
     dance-single:
     :
     Hard:
     13:
     0.803009,0.81419,0.742021,0.071153,0,553,480,73,7,0,0,0.803009,0.81419,0.742021,0.071153,0,553,480,73,7,0,0:
0000
0000
0000
0000
,
0000
0000
0000
0000
,
0000
0000
0000
0000
,
0000
0000
0000
0000
,
0000
0000
0000
0000
,
0000
0001
0000
0001
,
0000
1000
0000
1000
,
0001
0001
1000
1000
,
0001
0001
1001
1001
,
0001
0010
0001
0000
1000
0000
0010
0000
,
0100
1000
0100
0000
0001
0010
0000
0010
,
0001
0100
0001
0100
0000
0100
0000
0100
,
0001
1001
1000
1001
,
1000
0010
1000
0000
0100
0000
0100
0000
,
0001
0010
0001
0000
1000
0100
0000
0100
,
1000
0010
0100
0010
0000
0010
1000
0000
,
0100
0100
0110
1001
,
1000
0010
1000
0000
0001
0000
0100
0000
,
0010
0001
0010
0000
1000
0010
0000
0010
,
1000
0100
1000
0100
0000
0100
0000
0100
,
1000
1001
0001
1001
,
0001
0100
0001
0000
0010
0000
1000
0000
,
1000
0100
1000
0000
0010
0000
0010
0000
,
0001
0100
0100
0000
1000
0100
0100
0000
,
0010
0010
0110
1001
,
0000
0011
0000
0000
0010
0010
0010
0000
,
0100
0000
1100
0000
1000
0001
1000
0001
,
0000
0010
0001
0000
0100
0010
0100
0010
,
0100
0000
0000
0001
0010
0000
1001
0000
,
0000
1010
0000
0000
0100
0100
0100
0000
,
0001
0010
1000
0100
,
0000
1001
0000
0000
0001
0000
1000
0000
,
0001
0010
0100
1000
0001
0000
1001
0000
,
0000
1000
0010
1000
0010
1000
0010
1000
,
0010
0000
0000
1000
0010
1000
0010
1000
,
0000
0100
1000
0000
0101
0000
0000
0000
,
0001
1001
1000
0000
,
0000
0001
0100
0001
0100
0001
0100
0001
,
0100
0001
0100
0001
0100
0001
0100
0000
,
0000
0010
1000
0000
1000
0000
1001
0000
,
0001
1000
0001
1000
0001
0000
1001
0000
,
0000
0001
0100
0001
0100
0001
0100
0001
,
0100
0000
0000
1000
0100
0001
0100
0010
,
0000
0010
0001
0000
1100
0000
0000
0000
,
1000
1001
0001
1001
,
0000
1000
0010
1000
0010
1000
0010
1000
,
0010
1000
0010
1000
0010
1000
0010
0000
,
0000
0100
1000
0000
0010
0000
1001
0000
,
0100
0100
0010
1001
,
2000
0000
0010
3002
,
0000
0010
0100
1003
,
1000
0100
0010
0000
0100
0010
0001
0000
,
1000
0100
0001
0100
1000
0100
0001
0100
,
1000
0010
1000
0000
0001
0100
0001
0000
,
1000
0010
0001
0000
0100
0000
0110
0000
,
1000
1000
0001
1001
,
0000
0010
0100
0010
0100
0010
0100
0010
,
0001
0100
0001
0000
1000
0010
1000
0000
,
0001
0100
1000
0000
0010
0000
0110
0000
,
0001
0001
1000
1001
,
0000
0100
0010
0100
0010
0100
0010
0100
,
1000
0010
0100
0000
0001
0010
0100
0000
,
1000
0010
0001
0000
1000
0000
1001
0000
,
0010
0010
0100
1001
,
0100
0100
0010
1001
,
0010
1000
0100
0000
0010
0001
0100
0000
,
0001
0001
1000
1001
,
1000
0100
0001
0000
0010
0010
0010
0000
,
1000
1000
0001
1001
,
0001
0100
1000
0000
1000
0010
0001
0000
,
0100
0100
0010
1001
,
1000
1000
1000
0000
0001
0001
0001
0000
,
0010
0010
1000
0100
,
0110
1001
0110
1001
,
0011
1010
1100
1001
,
0110
1001
0110
1001
,
0011
1010
1100
1001
,
0110
1001
0110
1001
,
0011
1010
1100
1001
,
0110
1001
0110
1001
,
0011
1010
1100
1001
,
0020
1000
0001
1000
,
0100
1000
0100
0000
1030
0000
1001
0000
,
0200
0001
1000
0001
,
0010
0001
0010
0000
0301
0000
1001
0000
,
0010
0001
0000
0010
1000
0000
0100
1000
,
0000
0100
0001
0000
1000
0000
1001
0000
,
1000
0100
0010
0001
1000
0010
0001
0010
,
1000
0001
2002
0000
,
0000
0000
3003
0000
;
