#TITLE:PARANOiA GENOCiDE;
#SUBTITLE:;
#ARTIST:The Scarecrow;
#TITLETRANSLIT:;
#SUBTITLETRANSLIT:;
#ARTISTTRANSLIT:;
#GENRE:;
#CREDIT:;
#MUSIC:PARANOiA GENOCiDE.ogg;
#BANNER:PARANOiA GENOCiDE.png;
#BACKGROUND:PARANOiA GENOCiDE-bg.png;
#CDTITLE:;
#SAMPLESTART:63.148;
#SAMPLELENGTH:15.000;
#SELECTABLE:YES;
#OFFSET:0.000;
#BPMS:0.000=100.000
,1.500=150.000
,2.000=200.000
,2.500=250.000
,3.000=300.000
,3.500=350.000
,4.500=400.000
,5.500=450.000
,6.500=500.000
,7.500=550.000
,8.500=570.000
,12.000=285.000
;
#STOPS:;
#DISPLAYBPM:285.000;
#BGCHANGES:;
#FGCHANGES:;

//--------------- dance-single - ----------------
#NOTES:
     dance-single:
     :
     Beginner:
     5:
     0,0,0,0,0:
0000
0000
0000
0000
,
0000
0000
0000
0000
,
0000
0000
0000
0000
,
1001
0000
0000
0000
,
0000
0000
0000
0000
,
0000
0000
0000
0000
,
0000
0000
0000
0000
,
0110
0000
0000
0000
,
0000
0000
0000
0000
,
0001
0000
0000
0000
,
1000
0000
1000
0000
,
1001
0000
0000
0000
,
0001
0000
0100
0000
,
0001
0000
0000
0000
,
1000
0000
0000
0000
,
1001
0000
0000
0000
,
0100
0000
0001
0000
,
1000
0000
0000
0000
,
0100
0000
1001
0000
,
0001
0000
0000
0000
,
1000
0000
0000
0000
,
0001
0000
0000
0000
,
0100
0000
0000
0000
,
0100
0000
0000
0000
,
0001
0000
0000
0000
,
0010
0000
0000
0000
,
0110
0000
0000
0000
,
1000
0000
1000
0000
,
0010
0000
1000
0000
,
0100
0000
1001
0000
,
0010
0000
0000
0000
,
0001
0000
1000
0000
,
0010
0000
0001
0000
,
0100
0000
0001
0000
,
0100
0000
0000
0000
,
1000
0000
0100
0000
,
1000
0000
1000
0000
,
1000
0000
1001
0000
,
0100
0000
0000
0000
,
0100
0000
1000
0000
,
0100
0000
1000
0000
,
0010
0000
0001
0000
,
1001
0000
0000
0000
,
1000
0000
1000
0000
,
1000
0000
1000
0000
,
0100
0000
0010
0000
,
1000
0000
0000
0000
,
0010
0000
0100
0000
,
0001
0000
0010
0000
,
0100
0000
0001
0000
,
0010
0000
0000
0000
,
0001
0000
0001
0000
,
0001
0000
0001
0000
,
0010
0000
0100
0000
,
0001
0000
0000
0000
,
0100
0000
0010
0000
,
1000
0000
0100
0000
,
0010
0000
1000
0000
,
1001
0000
0000
0000
,
0001
0000
1000
0000
,
1000
0000
0000
0000
,
0010
0000
0001
0000
,
0100
0000
0010
0000
,
1000
0000
0001
0000
,
0001
0000
0000
0000
,
0100
0000
1000
0000
,
0010
0000
0100
0000
,
0110
0000
1000
0000
,
1000
0000
0000
0000
,
0010
0000
0001
0000
,
0001
0000
0001
0000
,
0110
0000
0001
0000
,
0001
0000
0000
0000
,
0100
0000
1000
0000
,
1000
0000
1000
0000
,
1001
0000
0000
0000
,
0000
0000
0000
0000
,
0000
0000
0000
0000
,
0000
0000
0000
0000
,
0010
0000
0000
0000
,
1001
0000
0000
0000
,
0100
0000
1001
0000
,
0100
0000
1001
0000
,
1000
0000
1000
0000
,
0010
0000
0000
0000
,
0010
0000
1000
0000
,
1000
0000
0001
0000
,
0001
0000
0001
0000
,
0100
0000
0000
0000
,
0100
0000
0001
0000
,
0001
0000
1000
0000
,
0001
0000
0001
0000
,
0001
0000
0001
0000
,
0010
0000
0100
0000
,
0001
0000
0000
0000
,
0100
0000
0010
0000
,
1000
0000
0100
0000
,
0010
0000
1000
0000
,
0100
0000
0000
0000
,
1000
0000
1000
0000
,
1000
0000
1000
0000
,
0100
0000
0010
0000
,
1000
0000
0000
0000
,
0010
0000
0100
0000
,
0001
0000
0010
0000
,
0100
0000
0001
0000
,
0100
0000
1001
0000
,
0001
0000
0001
0000
,
0100
0000
0001
0000
,
0010
0000
1001
0000
,
0100
0000
0000
0000
,
1000
0000
0001
0000
,
0100
0000
1000
0000
,
0010
0000
1000
0000
,
0010
0000
0000
0000
,
0001
0000
0010
0000
,
0001
0000
0001
0000
,
0001
0000
1001
0000
,
0010
0000
0000
0000
,
0010
0000
0001
0000
,
0010
0000
0001
0000
,
0100
0000
1000
0000
,
1001
0000
0000
0000
;

//--------------- dance-single - ----------------
#NOTES:
     dance-single:
     :
     Easy:
     9:
     0,0,0,0,0:
0000
0000
0000
0000
,
0000
0000
0000
0000
,
0000
0000
0000
0000
,
1001
0000
0000
0000
,
0000
0000
0000
0000
,
0000
0000
0000
0000
,
0000
0000
0000
0000
,
0110
0000
0000
0000
,
0000
0000
0000
0000
,
0011
0000
0000
0000
,
1010
0000
1000
1000
,
1001
0000
0000
0000
,
0001
0000
0100
0100
,
0101
0000
0000
0000
,
1010
0000
0000
0100
,
1001
0000
0000
0000
,
0100
0001
0001
0000
,
1100
0000
0100
0000
,
0100
0010
1001
0000
,
0001
0010
0100
0000
,
1000
0100
0001
0000
,
0001
0100
0010
0000
,
0100
0000
0000
1000
,
0100
1000
0100
0000
,
0001
0001
1000
0000
,
0010
0100
0100
0000
,
0220
0000
0330
0000
,
1000
0001
1000
0000
,
0010
0001
1000
0000
,
0100
0001
1001
0000
,
0010
0000
0000
0010
,
0001
0100
1000
0000
,
0010
1000
0001
0000
,
0100
0010
1001
0000
,
0100
1000
0010
0000
,
1000
0010
0100
0000
,
1000
0010
1000
0000
,
1000
0100
1001
0000
,
0100
0000
0000
0010
,
0100
0001
1000
0000
,
0100
1000
1000
0000
,
0010
0100
0001
0000
,
2002
0000
3003
0000
,
1000
0100
1000
0010
,
1000
0100
1000
0000
,
0100
0001
0010
0001
,
1000
0000
0000
1000
,
0010
1000
0100
1000
,
0001
1000
0010
0000
,
0100
1000
0001
1000
,
0010
0000
0110
0000
,
0001
0010
0001
0100
,
0001
0010
0001
0000
,
0010
1000
0100
1000
,
0001
0000
0000
0001
,
0100
0001
0010
0001
,
1000
0001
0100
0000
,
0010
0001
1000
0000
,
2002
0000
3003
0000
,
0011
0000
1000
0010
,
1000
0000
0000
0100
,
0010
0000
0001
0000
,
0100
1000
0010
0000
,
1100
0000
0001
0100
,
0001
0000
0000
0010
,
0100
0000
1000
0000
,
0010
0001
0100
0000
,
0110
0000
1000
0100
,
1000
0000
0000
0001
,
0010
0000
0001
0000
,
0001
1000
0001
0000
,
0110
0000
0001
0010
,
0001
0000
0000
1000
,
0100
0000
1000
0000
,
1000
0001
1000
0000
,
2002
0000
0000
0000
,
0000
0000
0000
0000
,
3003
0000
0000
0000
,
0000
0000
0000
0000
,
0010
0000
0000
0000
,
1001
0000
0000
0000
,
0100
0000
1001
0000
,
0100
0000
1001
0000
,
1000
0000
1000
0100
,
0010
0000
0000
0001
,
0010
0000
1000
0000
,
1000
1001
0001
0000
,
0001
0000
0001
0010
,
0100
0000
0000
1000
,
0100
0000
0001
0000
,
0001
1001
1000
0000
,
0001
0010
0001
0100
,
0001
0010
0001
0000
,
0010
1000
0100
1000
,
0001
0000
0000
0001
,
0100
0001
0010
0001
,
1000
0001
0100
0000
,
0010
0001
1000
0001
,
0100
0000
0110
0000
,
1000
0100
1000
0010
,
1000
0100
1000
0000
,
0100
0001
0010
0001
,
1000
0000
0000
1000
,
0010
1000
0100
1000
,
0001
1000
0010
0000
,
0100
1000
0001
1000
,
0001
0000
1001
0000
,
0001
1000
0001
0000
,
0100
1000
0001
0000
,
0010
1000
1001
0000
,
0100
0000
0000
0100
,
1000
0010
0001
0000
,
0100
0001
1000
0000
,
0010
0100
1001
0000
,
0010
0001
0100
0000
,
0001
0100
0010
0000
,
0001
0100
0001
0000
,
0001
0010
1001
0000
,
0010
0000
0000
0100
,
0010
1000
0001
0000
,
0010
0001
0001
0000
,
1000
0001
1000
0001
,
2002
0000
0000
0000
,
3003
0000
0000
0000
;

//--------------- dance-single - ----------------
#NOTES:
     dance-single:
     :
     Medium:
     12:
     0,0,0,0,0:
0000
0000
0000
0000
,
0000
0000
0000
0000
,
0000
0000
0000
0000
,
1001
0000
0000
0000
,
0000
0000
0000
0000
,
0000
0000
0000
0000
,
0000
0000
0000
0000
,
0110
0000
0000
0000
,
0000
0000
0000
0000
,
0011
0000
0000
0000
,
1010
0000
0000
0000
1000
0001
1000
0000
,
1001
0000
0000
0000
,
0001
0000
0000
0000
0100
0001
0100
0000
,
0101
0000
0000
0001
,
1010
0000
0000
0100
0000
0000
0100
0000
,
1001
0000
0000
0000
,
0110
0000
0011
0000
0001
0100
0010
0000
,
1100
0000
0110
0000
,
0100
1000
0010
0000
1001
0000
0000
0000
,
0001
0010
0100
1000
,
1000
0100
0001
0001
,
0001
0100
0010
1000
,
0100
0000
0000
0001
0000
0000
1000
0000
,
0100
1000
0100
1000
,
0001
0001
1000
0100
,
0010
0000
0100
0010
0100
0000
0010
0000
,
0220
0000
0330
0000
,
1000
0001
1000
1000
,
0010
0000
0001
0000
1000
0100
0010
0000
,
0100
0001
1000
1000
,
0010
0000
0000
0010
0000
0000
0010
0000
,
0001
0100
1000
1000
,
0010
0000
1000
0000
0001
0100
0010
0000
,
0100
0010
0001
0001
,
0100
0010
1000
0100
0010
0000
0000
0000
,
1000
0010
0100
0010
,
1000
0000
0010
0000
1000
0010
0100
0000
,
1000
0100
0001
0010
,
0100
0000
0000
0100
0000
0000
0010
0000
,
0100
0001
1000
1000
,
0100
0000
1000
0000
1000
0010
0100
0000
,
0010
0000
0100
1000
0001
0000
1000
0000
,
2002
0000
3003
0000
,
1000
0100
1000
0010
,
1000
0100
1000
0010
,
0100
0001
0010
0001
,
1000
0000
0000
0100
0000
0000
1000
0000
,
0010
1000
0100
1000
,
0001
1000
0010
1000
,
0100
1000
0001
1000
,
0010
0100
0001
0000
0110
0000
0000
0000
,
0001
0010
0001
0100
,
0001
0010
0001
0100
,
0010
1000
0100
1000
,
0001
0000
0000
0010
0000
0000
0001
0000
,
0100
0001
0010
0001
,
1000
0001
0100
0001
,
0010
0000
0010
0100
1000
0000
0100
0000
,
2002
0000
3003
0000
,
0011
0001
1000
0010
,
1000
0000
0000
0100
0000
0000
0100
0000
,
0010
0001
0001
0100
,
0100
0000
1000
0001
0010
0000
0000
0000
,
1100
1000
0001
0100
,
0001
0000
0000
0010
0000
0000
0010
0000
,
0100
1000
1000
0010
,
0010
0000
0001
1000
0100
0000
0000
0000
,
0110
0100
1000
0100
,
1000
0000
0000
0100
0000
0000
0001
0000
,
0011
0100
0001
1000
,
0001
0000
1000
0100
0001
0000
0000
0000
,
0110
0010
0001
0010
,
0001
0000
0000
0010
0000
0000
1000
0000
,
1100
0010
1000
0001
,
1000
0000
0001
0010
1000
0000
1000
0000
,
2002
0000
0000
0000
,
0000
0000
0000
0000
,
3003
0000
0000
0000
,
0000
0000
0000
0000
,
1010
0000
0000
0000
,
0011
0000
0000
0000
,
0101
0000
1100
0000
,
0100
0000
1001
0000
1000
0100
0010
0001
,
1000
0100
1000
0100
,
0010
0000
0000
0100
0000
0000
0001
0000
,
0010
0100
0010
0000
1000
0000
0100
0000
,
1000
1001
0001
0000
,
0001
0010
0001
0010
,
0100
0000
0000
0010
0000
0000
1000
0000
,
0100
0010
0100
0000
0001
0000
0010
0000
,
0001
1001
1000
0000
,
0001
0010
0001
0100
,
0001
0010
0001
0100
,
0010
1000
0100
1000
,
0001
0000
0000
0010
0000
0000
0001
0000
,
0100
0001
0010
0001
,
1000
0001
0100
0001
,
0010
0001
1000
0001
,
0100
0010
1000
0000
0110
0000
0000
0000
,
1000
0100
1000
0010
,
1000
0100
1000
0010
,
0100
0001
0010
0001
,
1000
0000
0000
0100
0000
0000
1000
0000
,
0010
1000
0100
1000
,
0001
1000
0010
1000
,
0100
1000
0001
1000
,
0001
0100
0010
0000
1001
0000
0000
0000
,
0001
1000
0001
0001
,
0100
0000
1000
0000
0001
0010
0100
0000
,
0010
1000
0001
0001
,
0100
0000
0000
0100
0000
0000
0100
0000
,
1000
0010
0001
0001
,
0100
0000
0001
0000
1000
0010
0100
0000
,
0010
0100
1000
1000
,
0010
0100
0001
0010
0100
0000
0000
0000
,
0001
0100
0010
0100
,
0001
0000
0100
0000
0001
0100
0010
0000
,
0001
0010
1000
0100
,
0010
0000
0000
0010
0000
0000
0100
0000
,
0010
1000
0001
0001
,
0010
0000
0001
0000
0001
0100
0010
0000
,
1000
0001
1000
0001
1000
0001
1000
0000
,
2002
0000
0000
0000
,
3003
0000
0000
0000
;

//--------------- dance-single - ----------------
#NOTES:
     dance-single:
     :
     Hard:
     16:
     0.870489,0.946608,0.66095,0.090541,0,673,600,73,10,0,0,0.870489,0.946608,0.66095,0.090541,0,673,600,73,10,0,0:
0000
0000
0000
0000
,
0000
0000
0000
0000
,
0000
0000
0000
0000
,
1001
0000
0000
0000
,
0000
0000
0000
0000
,
0000
0000
0000
0000
,
0000
0000
0000
0000
,
0110
0000
0000
0000
,
0000
0000
0000
0000
,
0011
0000
0000
0000
,
1010
0000
0000
0000
1000
0001
1000
0001
,
1000
0000
0000
0000
,
0001
0000
0000
0000
0100
0001
0100
0001
,
0100
0000
0000
0001
,
1010
0000
1000
0100
0000
0001
0100
0000
,
1001
0000
0000
0000
,
0110
0000
0011
0000
0001
0100
0010
1000
,
0100
0000
0110
0000
,
0100
1000
0010
0100
0001
0010
0100
1000
,
0001
0010
1100
1000
,
1010
0000
0100
0000
0001
0100
0001
0100
,
0001
0100
1010
1000
,
0100
0000
0010
0001
0000
0010
1000
0000
,
0100
1000
1100
1000
,
1001
0000
0001
0000
1000
0010
0100
0001
,
0010
0000
0100
0010
0100
0000
0010
0000
,
0220
0000
0330
0000
,
1000
0001
1001
1000
,
0010
0000
1001
0000
1000
0100
0010
0001
,
0100
0001
1001
1000
,
0010
0000
1000
0010
0000
0001
0010
0000
,
0001
0100
1001
1000
,
0010
0000
1001
0000
0001
0100
0010
1000
,
0100
0010
0011
0001
,
0100
0010
1000
0100
0010
0001
0100
0010
,
1000
0010
0110
0010
,
1000
0000
0110
0000
1000
0010
0100
0001
,
1000
0100
1001
0010
,
0100
0000
0001
0100
0000
1000
0010
0000
,
0100
0001
1010
1000
,
0100
0000
1001
0000
1000
0010
0100
0001
,
0010
0000
0100
1000
0001
0000
1000
0000
,
2002
0000
3003
0000
,
1000
0100
1000
0100
1000
0001
1000
0001
,
1000
0010
1000
0010
1000
0001
1000
0001
,
0100
0001
0100
0001
0010
0001
0010
0100
,
1000
0100
1000
0100
0000
0100
1000
0000
,
0010
1000
0010
1000
0100
0010
0100
0010
,
0001
0100
0001
0100
0010
1000
0010
1000
,
0100
0010
0100
0010
0001
1000
0001
1000
,
0010
0100
0001
0010
0100
0000
1001
0000
,
0001
0010
0001
0100
0001
1000
0001
0010
,
0001
0100
0001
0010
0001
1000
0001
0100
,
0010
1000
0010
1000
0100
1000
0100
0010
,
0001
0100
0001
0010
0000
0010
0001
0000
,
0100
0010
0100
0001
0010
0100
0010
0100
,
1000
0100
1000
0010
0100
0010
0100
0001
,
0010
0100
0010
0100
1000
0000
0110
0000
,
2002
0000
0000
3003
,
0011
0000
0001
0000
1000
0100
0010
0100
,
1000
0000
0001
0100
0000
1000
0100
0000
,
0010
0000
0011
0000
0001
0010
0100
1000
,
0100
0000
1000
0001
0010
0000
0011
0000
,
1100
0000
1000
0000
0001
0010
0100
0010
,
0001
0000
1000
0010
0000
0001
0010
0000
,
0100
0000
1100
0000
1000
0100
0010
0001
,
0010
0000
0001
1000
0100
0000
1100
0000
,
0110
0000
0110
0000
1000
0010
0100
0010
,
1000
0000
0001
0100
0000
0010
0001
0000
,
0011
0000
1100
0000
0001
0100
1000
0100
,
0001
0000
1000
0100
0001
0000
0011
0000
,
0110
0000
0110
0000
0001
0100
0010
0100
,
0001
0000
1000
0010
0000
0100
1000
0000
,
1100
0000
0011
0000
1000
0010
0001
0010
,
1000
0000
0001
0010
1000
0000
1100
0000
,
2002
0000
0000
0000
,
0000
0000
0000
0000
,
3003
0000
0000
0000
,
0000
0000
0000
0000
,
1010
0000
0000
0000
,
0011
0000
0000
0000
,
0101
0000
1100
0000
,
0110
0000
1001
0000
1000
0100
0010
0001
,
1000
0000
1100
0000
1000
0010
0100
0001
,
0010
0000
0001
0100
0000
0100
0001
0000
,
0010
0100
0010
0000
1000
0000
0100
0000
,
1000
1001
0001
1001
,
0001
0000
0011
0000
0001
0100
0010
1000
,
0100
0000
1000
0010
0000
0010
1000
0000
,
0100
0010
0100
0000
0001
0000
0010
0000
,
0001
1001
1000
1001
,
0001
0010
0001
0010
1000
0010
1000
0010
,
0001
0100
0001
0100
1000
0100
1000
0100
,
0010
1000
0010
1000
0100
1000
0100
0010
,
1000
0010
1000
0010
0000
0010
0001
0000
,
0100
0001
0100
0001
0010
1000
0010
1000
,
0010
0001
0010
0001
0100
0010
0100
0010
,
1000
0100
1000
0100
0001
0100
0001
0100
,
0010
0001
1000
0010
0100
0000
1001
0000
,
1000
0100
1000
0010
0100
1000
0100
0010
,
1000
0010
1000
0100
0001
0100
1000
0010
,
0100
0001
0100
0001
0010
1000
0010
0100
,
1000
0010
1000
0100
0000
0100
1000
0000
,
0010
0001
0010
1000
0100
0010
1000
0010
,
0001
0010
1000
0010
0001
0100
0010
1000
,
0100
0001
0100
0010
0001
0010
1000
0010
,
0001
0100
0010
1000
0001
0000
1001
0000
,
0001
1000
1001
0001
,
0100
0000
1001
0000
0001
0100
1000
0100
,
0010
1000
1001
0001
,
0100
0000
0001
0100
0000
1000
0100
0000
,
1000
0010
1001
0001
,
0100
0000
1001
0000
1000
0010
0001
0010
,
0100
0100
1100
1000
,
0010
0100
0001
0010
0100
0001
0100
1000
,
0001
0100
0110
0100
,
0001
0000
0110
0000
0001
0100
1000
0100
,
0001
0010
1001
0100
,
0010
0000
1000
0010
0000
0001
0100
0000
,
0010
1000
0101
0001
,
0010
0000
1001
0000
0001
0100
0010
1000
,
0100
0010
0001
0100
1000
0100
0001
0010
,
2002
0000
0000
0000
,
3003
0000
0000
0000
;

//--------------- dance-double - ----------------
#NOTES:
     dance-double:
     :
     Easy:
     10:
     0,0,0,0,0:
00000000
00000000
00000000
00000000
,
00000000
00000000
00000000
00000000
,
00000000
00000000
00000000
00000000
,
10010000
00000000
00000000
00000000
,
00000000
00000000
00000000
00000000
,
00000000
00000000
00000000
00000000
,
00000000
00000000
00000000
00000000
,
00001001
00000000
00000000
00000000
,
00000000
00000000
00000000
00000000
,
01010000
00000000
00000000
00000000
,
00001100
00000000
00000100
00010000
,
00100000
00000000
00000000
00000000
,
00001000
00000000
00010000
00000100
,
00000010
00000000
00000000
00000000
,
00011000
00000000
00000000
00010000
,
00011000
00000000
00000000
00000000
,
01000000
10000000
10000000
00000000
,
00100000
00000000
00011000
00000000
,
00000100
00010000
00011000
00000000
,
00100000
00100000
10000000
00000000
,
00010000
00100000
00001000
00000000
,
00001000
00010000
00000100
00000000
,
00000100
00000000
00000000
00001000
,
01000000
01000000
00100000
00000000
,
00010000
00010000
10000000
00000000
,
00100000
00001000
00001000
00000000
,
00022000
00000000
00033000
00000000
,
10000000
00010000
10000000
00000000
,
00100000
00010000
10000000
00000000
,
00100000
00001000
00010000
00000000
,
00000100
00000000
00000000
00000100
,
00001000
00000001
00001000
00000000
,
00000100
00001000
00000001
00000000
,
00000100
00010000
00001000
00000000
,
00100000
01000000
00100000
00000000
,
10000000
00010000
10000000
00000000
,
01000000
00010000
10000000
00000000
,
00100000
00001000
00010000
00000000
,
00000010
00000000
00000000
00000010
,
00001000
00000001
00001000
00000000
,
00000010
00001000
00000001
00000000
,
00000100
00010000
00010000
00000000
,
00022000
00000000
00033000
00000000
,
00100000
00010000
01000000
00001000
,
00010000
00000010
00001000
00000000
,
01000000
00010000
00100000
00001000
,
00010000
00000000
00000000
00010000
,
00000010
00001000
00000100
00010000
,
00001000
00100000
00010000
00000000
,
00000100
00001000
00000010
00010000
,
00001000
00000000
00011000
00000000
,
00100000
00010000
01000000
00001000
,
00010000
00000010
00001000
00000000
,
00000010
00010000
00001000
01000000
,
00010000
00000000
00000000
00000010
,
00000100
00001000
00000010
00010000
,
00001000
01000000
00010000
00000000
,
01000000
10000000
00100000
00000000
,
20020000
00000000
00000000
30030000
,
00110000
00000000
10000000
00010000
,
00010000
00000000
00000000
00001000
,
00000010
00000000
00000001
00000000
,
00000100
00010000
01000000
00000000
,
11000000
00000000
10000000
00010000
,
00010000
00000000
00000000
00000010
,
00000001
00000000
00000001
00000000
,
00000010
00010000
00100000
00000000
,
01100000
00000000
10000000
01000000
,
00010000
00000000
00000000
00001000
,
00000001
00000000
00000010
00000000
,
00010000
00001000
01000000
00000000
,
01100000
00000000
10000000
00100000
,
00010000
00000000
00000000
00000100
,
00000001
00000000
00000100
00000000
,
00010000
00001000
00100000
00000000
,
20020000
00000000
00000000
00000000
,
00000000
00000000
00000000
00000000
,
30030000
00000000
00000000
00000000
,
00000000
00000000
00000000
00000000
,
00001010
00000000
00000000
00000000
,
00110000
00000000
00000000
00000000
,
00010010
00000000
00011000
00000000
,
00101000
00000000
00011000
00000000
,
00000001
00000000
00000001
00000010
,
00000100
00000000
00000000
00010000
,
00100000
00000000
10000000
00000000
,
10000000
10010000
00010000
00000000
,
10000000
00000000
10000000
01000000
,
00100000
00000000
00000000
00001000
,
00000100
00000000
00000001
00000000
,
00000001
00001001
00001000
00000000
,
00000100
00001000
00000010
00010000
,
00001000
01000000
00010000
00000000
,
00000010
00001000
00000100
00010000
,
00001000
00000000
00000000
00001000
,
01000000
00010000
00100000
00001000
,
00010000
00000100
00001000
00000000
,
00100000
00010000
01000000
00001000
,
00010000
00000000
00011000
00000000
,
00000100
00001000
00000010
00010000
,
00001000
01000000
00010000
00000000
,
01000000
00001000
00010000
00000010
,
00001000
00000000
00000000
01000000
,
00100000
00010000
01000000
00001000
,
00010000
00000010
00001000
00000000
,
00000010
00010000
00000100
00010000
,
00001000
00000000
00011000
00000000
,
00000001
00001000
00000001
00000000
,
00000100
00001000
00000001
00000000
,
00000100
00010000
00001000
00000000
,
00100000
00000000
00000000
00100000
,
00010000
10000000
00010000
00000000
,
00100000
00010000
10000000
00000000
,
00100000
00001000
00010000
00000000
,
00000100
00000010
00000100
00000000
,
00000001
00001000
00000001
00000000
,
00000010
00001000
00000001
00000000
,
00000100
00010000
00001000
00000000
,
01000000
00000000
00000000
01000000
,
00010000
10000000
00010000
00000000
,
01000000
00010000
10000000
00000000
,
00100000
00001000
00010000
00001000
,
00022000
00000000
00000000
00000000
,
00033000
00000000
00000000
00000000
;

//--------------- dance-double - ----------------
#NOTES:
     dance-double:
     :
     Medium:
     12:
     0,0,0,0,0:
00000000
00000000
00000000
00000000
,
00000000
00000000
00000000
00000000
,
00000000
00000000
00000000
00000000
,
10010000
00000000
00000000
00000000
,
00000000
00000000
00000000
00000000
,
00000000
00000000
00000000
00000000
,
00000000
00000000
00000000
00000000
,
00001001
00000000
00000000
00000000
,
00000000
00000000
00000000
00000000
,
01010000
00000000
00000000
00000000
,
00001100
00000000
00000000
00000000
00001000
00000100
00010000
00000000
,
00100000
00000000
00000000
00000000
,
00001000
00000000
00000000
00000000
00001000
00010000
00000100
00000000
,
00000010
00000000
00000000
00010000
,
00011000
00000000
00000000
00001000
00000000
00000000
00010000
00000000
,
00011000
00000000
00000000
00000000
,
01000000
00000000
11000000
00000000
10000000
00100000
01000000
00000000
,
00100000
00000000
00011000
00000000
,
00000100
00010000
00001000
00000000
00011000
00000000
00000000
00000000
,
00100000
00100000
10000000
10000000
,
00010000
00100000
00001000
00001000
,
00001000
00010000
00000100
00000010
,
00000100
00000000
00010000
00000000
00000000
00001000
00000000
00000000
,
01000000
01000000
00100000
00010000
,
00010000
00010000
10000000
01000000
,
00100000
00000000
00001000
00010000
00001000
00000000
00010000
00000000
,
00022000
00000000
00033000
00000000
,
10000000
00010000
10000000
10000000
,
00100000
00000000
00010000
00000000
10000000
01000000
00100000
00000000
,
00100000
00001000
00010000
00010000
,
00000100
00000000
00000000
00000100
00000000
00000000
00000100
00000000
,
00001000
00000001
00001000
00001000
,
00000100
00000000
00001000
00000000
00000001
00000100
00000010
00000000
,
00000100
00010000
00001000
00001000
,
00100000
00010000
01000000
00000000
00100000
00000000
00000000
00000000
,
10000000
00010000
10000000
10000000
,
01000000
00000000
00010000
00000000
10000000
00100000
01000000
00000000
,
00100000
00001000
00010000
00010000
,
00000010
00000000
00000000
00000010
00000000
00000000
00000010
00000000
,
00001000
00000001
00001000
00001000
,
00000010
00000000
00001000
00000000
00000001
00000010
00000100
00000000
,
00000100
00000000
00010000
00001000
00010000
00000000
00001000
00000000
,
00022000
00000000
00033000
00000000
,
00100000
00010000
01000000
00001000
,
00010000
00000010
00001000
00000100
,
01000000
00010000
00100000
00001000
,
00010000
00000000
00000000
00001000
00000000
00000000
00010000
00000000
,
00000010
00001000
00000100
00010000
,
00001000
00100000
00010000
01000000
,
00000100
00001000
00000010
00010000
,
00001000
00010000
00001000
00000000
00011000
00000000
00000000
00000000
,
00100000
00010000
01000000
00001000
,
00010000
00000010
00001000
00000100
,
00000010
00000001
00010000
00001000
,
01000000
00000000
00000000
00010000
00000000
00000000
00000010
00000000
,
00000100
00001000
00000010
00010000
,
00001000
01000000
00010000
00100000
,
01000000
00000000
10000000
00010000
00100000
00000000
01000000
00000000
,
20020000
00000000
00000000
30030000
,
00110000
00010000
10000000
00100000
,
00010000
00000000
00000000
00001000
00000000
00000000
00001000
00000000
,
00000010
00000011
00000001
00000010
,
00000100
00000000
00010000
00001000
01000000
00000000
00000000
00000000
,
11000000
00010000
10000000
01000000
,
00010000
00000000
00000000
00001000
00000000
00000000
00000010
00000000
,
00000001
00000011
00000001
00000100
,
00000010
00000000
00010000
00001000
01000000
00000000
00000000
00000000
,
01100000
00100000
10000000
01000000
,
00010000
00000000
00000000
00001000
00000000
00000000
00001000
00000000
,
00000011
00000100
00000010
00010000
,
00010000
00000000
00001000
00100000
01000000
00000000
00000000
00000000
,
01100000
01000000
10000000
00100000
,
00010000
00000000
00000000
00001000
00000000
00000000
00000100
00000000
,
00000101
00000010
00000100
00010000
,
00010000
00000000
00001000
01000000
00100000
00000000
10000000
00000000
,
20020000
00000000
00000000
00000000
,
00000000
00000000
00000000
00000000
,
30030000
00000000
00000000
00000000
,
00000000
00000000
00000000
00000000
,
00001010
00000000
00000000
00000000
,
00110000
00000000
00000000
00000000
,
00010010
00000000
00011000
00000000
,
00101000
00000000
00011000
00000000
00001000
00010000
00000010
00000100
,
00000001
00000010
00000001
00000010
,
00000100
00000000
00000000
00010000
00000000
00000000
00010000
00000000
,
00100000
01000000
00100000
00000000
10000000
00000000
01000000
00000000
,
10000000
10010000
00010000
00000000
,
10000000
01000000
10000000
01000000
,
00100000
00000000
00000000
00001000
00000000
00000000
00001000
00000000
,
00000100
00000010
00000100
00000000
00000001
00000000
00000010
00000000
,
00000001
00001001
00001000
00000000
,
00000100
00001000
00000010
00010000
,
00001000
01000000
00010000
00100000
,
00000010
00001000
00000100
00010000
,
00001000
00000000
00000000
00010000
00000000
00000000
00001000
00000000
,
01000000
00010000
00100000
00001000
,
00010000
00000100
00001000
00000010
,
00100000
00010000
01000000
00001000
,
00010000
00001000
00010000
00000000
00011000
00000000
00000000
00000000
,
00000100
00001000
00000010
00010000
,
00001000
01000000
00010000
00100000
,
01000000
10000000
00001000
00010000
,
00000010
00000000
00000000
00001000
00000000
00000000
01000000
00000000
,
00100000
00010000
01000000
00001000
,
00010000
00000010
00001000
00000100
,
00000010
00000001
00010000
00000100
,
00001000
00000100
00010000
00000000
00011000
00000000
00000000
00000000
,
00000001
00001000
00000001
00000001
,
00000100
00000000
00001000
00000000
00000001
00000010
00000100
00000000
,
00000100
00010000
00001000
00001000
,
00100000
00000000
00000000
10000000
00000000
00000000
00100000
00000000
,
00010000
10000000
00010000
00010000
,
00100000
00000000
00010000
00000000
10000000
00100000
01000000
00000000
,
00100000
00001000
00010000
00010000
,
00000100
00001000
00000010
00000000
00000100
00000000
00000000
00000000
,
00000001
00001000
00000001
00000001
,
00000010
00000000
00001000
00000000
00000001
00000100
00000010
00000000
,
00000100
00010000
00001000
00001000
,
01000000
00000000
00000000
10000000
00000000
00000000
01000000
00000000
,
00010000
10000000
00010000
00010000
,
01000000
00000000
00010000
00000000
10000000
01000000
00100000
00000000
,
00001000
00010000
00001000
00010000
00001000
00010000
00001000
00000000
,
00022000
00000000
00000000
00000000
,
00033000
00000000
00000000
00000000
;

//--------------- dance-double - ----------------
#NOTES:
     dance-double:
     :
     Hard:
     15:
     0,0,0,0,0:
00000000
00000000
00000000
00000000
,
00000000
00000000
00000000
00000000
,
00000000
00000000
00000000
00000000
,
10010000
00000000
00000000
00000000
,
00000000
00000000
00000000
00000000
,
00000000
00000000
00000000
00000000
,
00000000
00000000
00000000
00000000
,
00001001
00000000
00000000
00000000
,
00000000
00000000
00000000
00000000
,
10010000
00000000
00000000
00000000
,
00001001
00000000
00000000
00000000
00001000
00000100
00010000
00001000
,
00100000
00000000
00000000
00000000
,
00001000
00000000
00000000
00000000
00001000
00010000
00000100
00001000
,
00000010
00000000
00000000
00010000
,
00011000
00000000
00010000
00001000
00000000
00001000
00010000
00000000
,
00011000
00000000
00000000
00000000
,
01000000
00000000
11000000
00000000
10000000
00100000
01000000
00010000
,
00100000
00000000
00011000
00000000
,
00000100
00010000
00001000
00000000
00010000
00001000
01000000
00000000
,
00100000
00100000
10000000
10000000
,
00010000
00000000
00100000
00000000
00001000
00010000
00001000
00010000
,
00001000
00010000
00000100
00000010
,
00000100
00000000
00010000
00001000
00000000
00001000
00010000
00000000
,
01000000
01000000
00100000
00010000
,
10010000
00000000
00010000
00000000
10000000
00100000
01000000
00010000
,
00100000
00000000
00001000
00010000
00001000
00000000
00010000
00000000
,
00022000
00000000
00033000
00000000
,
10000000
00010000
10000000
10000000
,
00100000
00000000
10010000
00000000
10000000
01000000
00100000
00010000
,
00100000
00001000
00010000
00010000
,
00000100
00000000
00001000
00000100
00000000
00000001
00000100
00000000
,
00001000
00000001
00001000
00001000
,
00000100
00000000
00001001
00000000
00000001
00000100
00000010
00001000
,
00000100
00010000
00001000
00001000
,
00100000
00010000
01000000
00000000
00100000
10000000
01000000
00000000
,
10000000
00010000
10000000
10000000
,
01000000
00000000
10010000
00000000
10000000
00100000
01000000
00010000
,
00100000
00001000
00010000
00010000
,
00000010
00000000
00001000
00000010
00000000
00000001
00000010
00000000
,
00001000
00000001
00001000
00001000
,
00000010
00000000
00001001
00000000
00000001
00000010
00000100
00001000
,
00000100
00000000
00010000
00001000
00010000
00000000
00001000
00000000
,
00022000
00000000
00033000
00000000
,
00100000
00010000
01000000
00000000
00010000
00100000
00001000
00000000
,
00010000
00000100
00001000
00000000
00000010
00001000
00000100
00000000
,
00100000
00010000
01000000
00000000
00010000
00100000
00001000
00000000
,
00010000
00000100
00001000
00000100
00000000
00000100
00010000
00000000
,
00000010
00001000
00000100
00000000
00001000
00000010
00010000
00000000
,
00001000
01000000
00010000
00000000
00100000
00010000
01000000
00000000
,
00000010
00001000
00000100
00000000
00001000
00000010
00010000
00000000
,
00001000
00010000
00001000
00010000
00001000
00000000
00011000
00000000
,
00100000
00001000
00010000
00000000
00000010
00010000
00001000
00000000
,
01000000
00001000
00010000
00000000
00000100
00010000
00001000
00000000
,
00010000
00001000
01000000
00000000
00000010
00001000
00000001
00001000
,
00000100
00000000
00000010
00000100
00000000
00000100
00000010
00000000
,
00000100
00010000
00001000
00000000
01000000
00001000
00010000
00000000
,
00000010
00010000
00001000
00000000
00100000
00001000
00010000
00000000
,
00000010
00010000
00000100
00100000
00010000
00000000
01100000
00000000
,
20020000
00000000
00000000
30030000
,
00110000
00000000
00010000
00000000
10000000
01000000
00100000
00001000
,
00010000
00000000
00000100
00001000
00000000
00001000
00000001
00000000
,
00000010
00000000
00000011
00000000
00000001
00000010
00000100
00001000
,
00000100
00000000
00010000
00001000
01000000
00000000
00100000
00000000
,
11000000
00000000
00010000
00000000
10000000
00100000
01000000
00001000
,
00010000
00000000
00001000
00000010
00000000
00000010
00000001
00000000
,
00000010
00000000
00000011
00000000
00000001
00000100
00000010
00001000
,
00000010
00000000
00010000
00001000
01000000
00000000
00100000
00000000
,
01100000
00000000
01100000
00000000
10000000
00100000
01000000
00001000
,
00010000
00000000
00000010
00001000
00000000
00001000
00000001
00000000
,
00000011
00000000
00000110
00000000
00000010
00001000
00010000
00100000
,
00010000
00000000
00001000
00100000
01000000
00000000
10000000
00000000
,
01100000
00000000
01100000
00000000
10000000
01000000
00100000
00001000
,
00010000
00000000
00001000
00000100
00000000
00000100
00000001
00000000
,
00000101
00000000
00000110
00000000
00000100
00001000
00010000
01000000
,
00010000
00000000
00001000
01000000
00100000
00000000
10000000
00000000
,
20020000
00000000
00000000
00000000
,
00000000
00000000
00000000
00000000
,
30030000
00000000
00000000
00000000
,
00000000
00000000
00000000
00000000
,
00000011
00000000
00000000
00000000
,
10100000
00000000
00000000
00000000
,
00010010
00000000
00011000
00000000
,
00101000
00000000
00011000
00000000
00001000
00010000
00000010
00000100
,
00000001
00000000
00000011
00000000
00000001
00000100
00000010
00001000
,
00000100
00000000
00010000
00000100
00000000
00000100
00010000
00000000
,
00100000
01000000
00100000
00000000
10000000
00000000
01000000
00000000
,
10000000
10010000
00010000
10010000
,
10000000
00000000
11000000
00000000
10000000
00100000
01000000
00010000
,
00100000
00000000
00001000
00100000
00000000
00100000
00001000
00000000
,
00000100
00000010
00000100
00000000
00000001
00000000
00000010
00000000
,
00000001
00001001
00001000
00001001
,
00000100
00001000
00000010
00000000
00001000
00000100
00010000
00000000
,
00001000
00100000
00010000
00000000
01000000
00010000
00100000
00000000
,
00000100
00001000
00000010
00000000
00001000
00000100
00010000
00000000
,
00001000
00100000
00010000
00100000
00000000
00100000
00001000
00000000
,
01000000
00010000
00100000
00000000
00010000
01000000
00001000
00000000
,
00010000
00000010
00001000
00000000
00000100
00001000
00000010
00000000
,
01000000
00010000
00100000
00000000
00010000
01000000
00001000
00000000
,
00010000
00001000
00010000
00001000
00010000
00000000
00011000
00000000
,
00000100
00010000
00001000
00000000
01000000
00001000
00010000
00000000
,
00000010
00010000
00001000
00000000
00100000
00001000
00010000
00000000
,
00001000
00010000
00000010
00000000
01000000
00010000
10000000
00010000
,
00100000
00000000
01000000
00100000
00000000
00100000
01000000
00000000
,
00100000
00001000
00010000
00000000
00000010
00010000
00001000
00000000
,
01000000
00001000
00010000
00000000
00000100
00010000
00001000
00000000
,
01000000
00001000
00100000
00000000
00000010
00010000
00000100
00000000
,
00001000
00000100
00010000
00001000
00100000
00000000
00011000
00000000
,
00000001
00001000
00000001
00000001
,
00000100
00000000
00001001
00000000
00000001
00000100
00001000
00000100
,
00000010
00010000
00001000
00001000
,
00100000
00000000
00010000
00100000
00000000
10000000
00100000
00000000
,
00010000
10000000
00010000
00010000
,
00100000
00000000
10010000
00000000
10000000
00100000
00010000
00100000
,
01000000
00001000
00010000
00010000
,
00000100
00001000
00000010
00000000
00000100
00000001
00000010
00000000
,
00000001
00001000
00000001
00000001
,
00000010
00000000
00001001
00000000
00000001
00000100
00001000
00000100
,
00000010
00010000
00001000
00001000
,
01000000
00000000
00010000
01000000
00000000
10000000
01000000
00000000
,
00010000
10000000
00010000
00010000
,
01000000
00000000
10010000
00000000
10000000
01000000
00010000
01000000
,
00100000
00001000
00010000
00001000
00010000
00001000
00010000
00000000
,
00022000
00000000
00000000
00000000
,
00033000
00000000
00000000
00000000
;
