#TITLE:PARANOiA EViL -52 DECLiNE-;
#SUBTITLE:;
#ARTIST:DJ Sapphire REMiXed.tpa;
#TITLETRANSLIT:;
#SUBTITLETRANSLIT:;
#ARTISTTRANSLIT:;
#GENRE:;
#CREDIT:;
#MUSIC:PARANOiA EViL -52 DECLiNE-.ogg;
#BANNER:PARANOiA EViL -52 DECLiNE-.png;
#BACKGROUND:PARANOiA EViL -52 DECLiNE--bg.png;
#CDTITLE:;
#SAMPLESTART:11.602;
#SAMPLELENGTH:15.000;
#SELECTABLE:YES;
#OFFSET:-0.020;
#BPMS:0.000=228.000;
#STOPS:;
#BGCHANGES:;
#FGCHANGES:;

//--------------- dance-single - ----------------
#NOTES:
     dance-single:
     :
     Beginner:
     5:
     0.226603,0.372056,0.107963,0.01661,0,191,178,13,2,0,0,0.226603,0.372056,0.107963,0.01661,0,191,178,13,2,0,0:
0000
0000
0000
0000
,
0000
0000
0000
0000
,
0000
0000
0000
0000
,
0000
0000
0000
0000
,
0000
0000
0000
0000
,
0000
0000
0000
0000
,
0000
0000
0000
0000
,
0000
0000
0000
0000
,
0000
0000
0000
0000
,
0000
0000
0000
0000
,
0000
0000
0000
0000
,
1000
0000
0000
0000
,
0100
0000
0000
0000
,
1000
0000
0010
0000
,
1000
0000
1001
0000
,
1000
0000
0000
0000
,
0010
0000
0000
0000
,
1000
0000
0100
0000
,
1000
0000
1001
0000
,
0001
0000
0000
0000
,
0010
0000
0000
0000
,
0001
0000
0100
0000
,
0001
0000
1001
0000
,
0001
0000
0000
0000
,
0100
0000
0000
0000
,
0001
0000
0010
0000
,
0001
0000
1001
0000
,
1000
1000
0000
0000
,
0001
0001
0000
0000
,
1000
1000
0000
0000
,
0001
0001
0000
0000
,
1000
1000
0000
0000
,
0001
0001
0000
0000
,
1000
1000
0000
0000
,
0001
0001
0000
0000
,
1000
0000
0100
0000
,
0100
0000
1000
0000
,
0001
0000
0000
0000
,
0001
0000
0000
0000
,
1000
0000
0010
0000
,
0010
0000
1000
0000
,
0001
0000
0000
0000
,
0001
0000
0000
0000
,
0001
0000
0010
0000
,
0010
0000
0001
0000
,
1000
0000
0000
0000
,
1000
0000
0000
0000
,
0001
0000
0100
0000
,
0100
0000
0001
0000
,
1000
0000
0000
0000
,
1000
0000
0000
0000
,
1000
1000
0000
0000
,
1000
1000
0000
0000
,
1000
1000
0000
0000
,
1000
0000
1000
0000
,
0001
0001
0000
0000
,
0001
0001
0000
0000
,
0001
0001
0000
0000
,
0001
0000
0001
0000
,
1000
0000
0010
0000
,
1000
0000
0100
0000
,
0100
0000
0010
0000
,
0100
0000
0010
0000
,
0001
0000
0100
0000
,
0001
0000
0010
0000
,
0010
0000
0100
0000
,
0010
0000
0100
0000
,
1001
0000
0000
0000
,
1000
0000
0000
0001
,
0001
0000
0010
0010
,
0010
0000
0000
1000
,
1000
0000
1000
0000
,
0001
0000
0000
1000
,
1000
0000
0100
0100
,
0100
0000
0000
0001
,
0001
0000
1001
0000
,
0001
0000
0100
0000
,
0010
0000
0001
0000
,
1000
0000
0000
0000
,
1000
0000
0000
0000
,
0001
0000
0100
0000
,
0100
0000
0001
0000
,
1000
0000
0000
0000
,
1000
0000
0000
0000
,
1000
0000
0010
0000
,
0100
0000
1000
0000
,
0001
0000
0000
0000
,
0001
0000
0000
0000
,
1000
0000
0010
0000
,
0010
0000
1000
0000
,
0001
0000
0000
0000
,
0001
0000
0000
0000
,
0001
0001
0000
0000
,
0001
0000
0110
0000
,
1000
1000
0000
0000
,
1000
0000
0110
0000
,
0001
0001
0000
0000
,
0001
0000
0110
0000
,
1000
1000
0000
0000
,
1000
0000
0110
0000
,
1000
0000
0001
0000
,
1000
0000
0001
0000
,
1000
0000
0001
0000
,
1000
0000
0001
0000
,
0001
0000
1000
0000
,
0001
0000
1000
0000
,
0001
0000
1000
0000
,
0001
0000
1000
0000
,
1000
0000
1000
0000
,
0010
0000
0100
0000
,
1001
0000
1001
0000
,
2002
0000
0000
0000
,
3003
0000
0000
0000
;

//--------------- dance-single - ----------------
#NOTES:
     dance-single:
     :
     Easy:
     11:
     0.531509,0.651098,0.48168,0.166096,0,448,390,58,20,0,0,0.531509,0.651098,0.48168,0.166096,0,448,390,58,20,0,0:
0000
0000
0000
0000
,
0000
0000
0000
0000
,
0000
0000
0000
0000
,
0000
0000
0000
0000
,
0000
0000
0000
0000
,
0000
0000
0000
0000
,
0000
0000
0000
0000
,
0000
0000
0000
0000
,
0000
0000
0000
0000
,
0000
0000
0000
0000
,
0000
0000
0000
0000
,
1000
1000
0001
0001
,
0100
0100
0010
0010
,
1000
0100
0010
0001
,
1000
0011
1000
1001
,
1000
1000
0001
0001
,
0010
0010
0100
0100
,
1000
0010
0100
0001
,
1000
0101
1000
1001
,
0001
0001
1000
1000
,
0010
0010
0100
0100
,
0001
0010
0100
1000
,
0001
1100
0001
1001
,
0001
0001
1000
1000
,
0100
0100
0010
0010
,
0001
0100
0010
1000
,
0001
1010
0001
1001
,
1000
1000
1000
2000
,
0001
0001
0001
3002
,
1000
1000
1000
2003
,
0001
0001
0001
3002
,
1000
1003
1100
2000
,
0001
3001
0101
0002
,
1000
1003
1010
2000
,
0001
3001
0011
0001
,
1000
0000
0100
1000
0000
1000
0000
0000
,
0100
0100
0100
0011
,
0001
1000
1000
0001
,
0001
1000
0001
1001
,
1000
0000
0010
0100
0000
0100
0000
0000
,
0010
0010
0010
0101
,
0001
1000
1000
0001
,
0001
1000
0001
1001
,
0001
0000
0010
0001
0000
0001
0000
0000
,
0010
0010
0010
1100
,
1000
0001
0001
1000
,
1000
0001
1000
1001
,
0001
0000
0100
0010
0000
0010
0000
0000
,
0100
0100
0100
1010
,
1000
0001
0001
1000
,
1000
0001
1000
1001
,
1000
1000
0001
0001
,
1000
1000
0001
0001
,
1000
1000
0001
0001
,
1000
0100
0000
0000
1000
0000
1001
0000
,
0001
0001
1000
1000
,
0001
0001
1000
1000
,
0001
0001
1000
1000
,
0001
0010
0000
0000
0001
0000
1001
0000
,
1000
0100
0010
0100
,
1000
0010
0100
0001
,
0100
0001
0010
0001
,
0100
0001
0010
0001
,
0001
0010
0100
1000
,
0001
0100
0010
1000
,
0010
1000
0100
1000
,
0010
1000
0100
0010
,
2002
0000
0000
3003
,
1000
0000
0000
2000
0000
0000
0001
0000
,
3002
0000
0013
0110
,
0010
0000
0000
0020
0000
0000
1000
0000
,
2030
3000
1000
1001
,
0001
0000
0000
0002
0000
0000
1000
0000
,
2003
0000
3100
0110
,
0100
0000
0000
0200
0000
0000
0001
0000
,
0001
0301
2002
3003
,
0001
0000
0100
0001
0000
0001
0000
0000
,
0010
0010
0010
1100
,
1000
0001
0001
1000
,
1000
0001
1000
1001
,
0001
0000
0100
0010
0000
0010
0000
0000
,
0100
0100
0100
1010
,
1000
0001
0001
1000
,
1000
0001
1000
1001
,
1000
0000
0010
1000
0000
1000
0000
0000
,
0100
0100
0100
0011
,
0001
1000
1000
0001
,
0001
1000
0001
1001
,
1000
0000
0010
0100
0000
0100
0000
0000
,
0010
0010
0010
0101
,
0001
1000
1000
0001
,
0001
1000
0001
1001
,
0001
0001
1000
1000
,
0001
0100
0110
0100
,
1000
1000
0001
0001
,
1000
0010
0110
0010
,
0001
0001
1000
1000
,
0001
0010
0110
0010
,
1000
1000
0001
0001
,
1000
0100
0110
0100
,
1000
0010
0001
0010
,
1000
0011
0001
0010
,
1000
0100
0001
0100
,
1000
0101
0001
0100
,
0001
0010
1000
0010
,
0001
1100
1000
0100
,
0001
1000
1000
0001
,
0001
1000
1000
1001
,
1000
0011
1000
0101
,
0010
1100
0100
1010
,
1001
1000
1001
0001
,
2002
0000
0000
0000
,
3003
0000
0000
0000
;

//--------------- dance-single - ----------------
#NOTES:
     dance-single:
     :
     Medium:
     13:
     0.680995,0.744112,0.406936,0.049829,0,574,525,49,6,0,0,0.680995,0.744112,0.406936,0.049829,0,574,525,49,6,0,0:
0000
0000
0000
0000
,
0000
0000
0000
0000
,
0000
0000
0000
0000
,
0000
0000
0000
0000
,
0000
0000
0000
0000
,
0000
0000
0000
0000
,
0000
0000
0000
0000
,
0000
0000
0000
0000
,
0000
0000
0000
0000
,
0000
0000
0000
0000
,
0000
0000
0000
0000
,
1000
0100
1000
0000
0001
0000
0001
0000
,
0100
1000
0100
0000
0010
0000
0010
0000
,
1000
0001
0100
0000
0010
0100
0001
0000
,
1000
0011
1000
1001
,
1000
0010
1000
0000
0001
0000
0001
0000
,
0010
1000
0010
0000
0100
0000
0100
0000
,
1000
0001
0010
0000
0100
0010
0001
0000
,
1000
0101
1000
1001
,
0001
0010
0001
0000
1000
0000
1000
0000
,
0010
0001
0010
0000
0100
0000
0100
0000
,
0001
1000
0010
0000
0100
0010
1000
0000
,
0001
1100
0001
1001
,
0001
0100
0001
0000
1000
0000
1000
0000
,
0100
0001
0100
0000
0010
0000
0010
0000
,
0001
1000
0100
0000
0010
0100
1000
0000
,
0001
1010
0001
1001
,
1000
0100
1000
0000
1000
0000
1000
0000
,
0001
0100
0001
0000
0001
0000
0001
0000
,
1000
0010
1000
0000
1000
0000
1000
0000
,
0001
0100
0001
0000
0001
0000
0001
0000
,
1000
0010
1000
0000
1100
0000
1000
0000
,
0001
0010
0001
0000
0101
0000
0001
0000
,
1000
0100
1000
0000
1010
0000
1000
0000
,
0001
0100
0001
0000
0011
0000
0001
0000
,
1000
0010
0100
0001
0000
0001
0000
0010
,
0100
0100
0100
0011
,
0001
0100
1000
0000
1000
0100
0001
0000
,
0001
1000
0001
1001
,
1000
0100
0010
0001
0000
0001
0000
0100
,
0010
0010
0010
0101
,
0001
0010
1000
0000
1000
0010
0001
0000
,
0001
1000
0001
1001
,
0001
0100
0010
1000
0000
1000
0000
0100
,
0010
0010
0010
1100
,
1000
0010
0001
0000
0001
0010
1000
0000
,
1000
0001
1000
1001
,
0001
0010
0100
1000
0000
1000
0000
0010
,
0100
0100
0100
1010
,
1000
0100
0001
0000
0001
0100
1000
0000
,
1000
0001
1000
1001
,
1000
0100
1000
0000
0001
0100
0001
0000
,
1000
0010
1000
0000
0001
0010
0001
0000
,
1000
0100
1000
0000
0001
0100
0001
0000
,
1000
0100
0000
0100
1000
0000
1001
0000
,
0001
0010
0001
0000
1000
0010
1000
0000
,
0001
0100
0001
0000
1000
0100
1000
0000
,
0001
0010
0001
0000
1000
0010
1000
0000
,
0001
0010
0000
0010
0001
0000
1001
0000
,
1000
0000
0100
0001
0000
0001
0000
0100
,
1000
0000
0010
0001
0000
0001
0000
0010
,
0100
0000
0001
1000
0000
1000
0000
1000
,
0100
0000
0001
0100
0000
0100
0000
0010
,
0001
0000
0010
1000
0000
1000
0000
0010
,
0001
0000
0100
1000
0000
1000
0000
0100
,
0010
0000
1000
0001
0000
1001
0000
0001
,
0010
0100
1000
0000
0100
0001
0010
0000
,
2002
0000
0000
3003
,
1000
0100
1000
0100
0000
0010
0001
0010
,
0001
0010
0000
0000
0010
0000
0110
0000
,
0010
0100
0010
0100
0000
0100
1000
0100
,
1000
0100
0000
0000
1000
0000
1001
0000
,
0001
0010
0001
0010
0000
0100
1000
0100
,
1000
0100
0000
0000
0100
0000
0110
0000
,
0100
0010
0100
0010
0000
0010
0001
0010
,
0001
0001
2002
3003
,
0001
1000
0100
1000
0000
1100
0000
0100
,
0010
0010
0010
1100
,
1000
0100
0001
0000
0001
0100
1000
0000
,
1000
0001
1000
1001
,
0001
1000
0100
1000
0000
1010
0000
0010
,
0100
0100
0100
1010
,
1000
0010
0001
0000
0001
0010
1000
0000
,
1000
0001
1000
1001
,
1000
0001
0010
0001
0000
0011
0000
0010
,
0100
0100
0100
0011
,
0001
0010
1000
0000
1000
0010
0001
0000
,
0001
1000
0001
1001
,
1000
0001
0010
0001
0000
0101
0000
0100
,
0010
0010
0010
0101
,
0001
0100
1000
0000
1000
0100
0001
0000
,
0001
1000
0001
1001
,
0001
0010
0001
0000
1000
0010
1000
0000
,
0001
0000
0100
0010
0000
0010
0100
0000
,
1000
0100
1000
0000
0001
0100
0001
0000
,
1000
0000
0010
0100
0000
0100
0010
0000
,
0001
0100
0001
0000
1000
0100
1000
0000
,
0001
0000
0010
0100
0000
0100
0010
0000
,
1000
0010
1000
0000
0001
0010
0001
0000
,
1000
0000
0100
0010
0000
0010
0100
0000
,
1000
0100
0010
0000
0001
0100
0010
0000
,
1000
0100
0010
0000
0001
0100
0010
0000
,
1000
0010
0100
0000
0001
0010
0100
0000
,
1000
0010
0100
0000
0001
0010
0100
0000
,
0001
1000
0010
0000
1000
0001
0010
0000
,
0001
1000
0100
0000
1000
0001
0100
0000
,
0001
0100
1000
0000
1000
0100
0001
0000
,
0001
0010
1000
0000
1000
0010
0001
0000
,
1000
0100
0010
0100
1000
0010
0100
0000
,
0010
1000
0100
0010
0100
1000
0010
0000
,
1000
0001
1000
0001
1000
0001
1000
0000
,
2002
0000
0000
0000
,
3003
0000
0000
0000
;

//--------------- dance-single - ----------------
#NOTES:
     dance-single:
     :
     Hard:
     15:
     0.842346,0.837126,0.664386,0.116267,0,710,630,80,14,0,0,0.842346,0.837126,0.664386,0.116267,0,710,630,80,14,0,0:
0000
0000
0000
0000
,
0000
0000
0000
0000
,
0000
0000
0000
0000
,
0000
0000
0000
0000
,
0000
0000
0000
0000
,
0000
0000
0000
0000
,
0000
0000
0000
0000
,
0000
0000
0000
0000
,
0000
0000
0000
0000
,
0000
0000
0000
0000
,
0000
0000
0000
0000
,
1000
0100
1000
0000
0001
0100
0001
0000
,
0100
1000
0100
0000
0010
1000
0010
0000
,
1000
0001
0100
0001
0010
0100
0001
0100
,
1000
0011
1000
1001
,
1000
0010
1000
0000
0001
0010
0001
0000
,
0010
1000
0010
0000
0100
1000
0100
0000
,
1000
0001
0010
0001
0100
0010
0001
0010
,
1000
0101
1000
1001
,
0001
0010
0001
0000
1000
0010
1000
0000
,
0010
0001
0010
0000
0100
0001
0100
0000
,
0001
1000
0010
1000
0100
0010
1000
0010
,
0001
1100
0001
1001
,
0001
0100
0001
0000
1000
0100
1000
0000
,
0100
0001
0100
0000
0010
0001
0010
0000
,
0001
1000
0100
1000
0010
0100
1000
0100
,
0001
1010
0001
1001
,
1000
0100
1000
0100
1000
0100
1000
1000
,
0001
0100
0001
0100
0001
0100
0001
0001
,
1000
0010
1000
0010
1000
0010
1000
1000
,
0001
0100
0001
0100
0001
0100
0001
0001
,
1000
0010
1010
0000
1100
0000
1000
1000
,
0001
0010
0011
0000
0101
0000
0001
0001
,
1000
0100
1100
0000
1010
0000
1000
1000
,
0001
0100
0101
0000
0011
0000
0001
0001
,
1000
0010
0100
0001
0000
0011
0000
0010
,
0100
1000
0100
0010
0100
0000
0011
0000
,
0001
0100
1000
0000
1000
0010
0001
0000
,
0001
0100
1000
0010
0001
0000
1001
0000
,
1000
0100
0010
0001
0000
0101
0000
0100
,
0010
1000
0010
0100
0010
0000
0101
0000
,
0001
0010
1000
0000
1000
0100
0001
0000
,
0001
0010
1000
0100
0001
0000
1001
0000
,
0001
0100
0010
1000
0000
1100
0000
0100
,
0010
0001
0010
0100
0010
0000
1100
0000
,
1000
0010
0001
0000
0001
0100
1000
0000
,
1000
0010
0001
0100
1000
0000
1001
0000
,
0001
0010
0100
1000
0000
1010
0000
0010
,
0100
0001
0100
0010
0100
0000
1010
0000
,
1000
0100
0001
0000
0001
0010
1000
0000
,
1000
0100
0001
0010
1000
0000
1001
0000
,
1000
0100
1000
0100
0001
0100
0001
0100
,
1000
0010
1000
0010
0001
0010
0001
0010
,
1000
0100
1000
0100
0001
0100
0001
0100
,
1000
0100
0000
0100
0100
1000
0010
0100
,
0001
0010
0001
0010
1000
0010
1000
0010
,
0001
0100
0001
0100
1000
0100
1000
0100
,
0001
0010
0001
0010
1000
0010
1000
0010
,
0001
0010
0000
0010
0010
0001
0100
0010
,
1000
1000
0100
0001
0000
0101
0000
0100
,
1000
1000
0010
0001
0000
0011
0000
0010
,
0100
0100
0001
1000
0000
1001
0000
1000
,
0100
0100
0001
0100
0000
0110
0000
0010
,
0001
0001
0010
1000
0000
1010
0000
0010
,
0001
0001
0100
1000
0000
1100
0000
0100
,
0010
0010
1000
0001
0000
1001
0000
0001
,
0010
0100
1000
0010
0100
0001
0010
0100
,
2002
0000
0000
3003
,
1000
1000
1000
2000
0000
0001
0001
0001
,
0001
0002
3000
0000
0010
0010
0010
0010
,
0010
0010
0010
0023
0000
0100
0100
0100
,
0100
0230
0000
0000
1000
1000
1300
2000
,
0001
0001
0001
3002
0000
1000
1000
1000
,
1000
2000
0003
0000
0100
0100
0100
0100
,
0100
0100
0100
3200
0000
0010
0010
0010
,
0310
0001
2002
3003
,
0001
1000
1000
0100
0000
1100
0000
0100
,
0010
0001
0010
0100
0010
0000
1100
0000
,
1000
1000
0001
0000
0001
0100
0100
0000
,
1000
0010
0001
0100
1000
0000
1001
0000
,
0001
1000
1000
0100
0000
1010
0000
0010
,
0100
0001
0100
0010
0100
0000
1010
0000
,
1000
0001
0001
0000
0001
0010
0010
0000
,
1000
0100
0001
0010
1000
0000
1001
0000
,
1000
0001
0001
0100
0000
0011
0000
0010
,
0100
1000
0100
0010
0100
0000
0011
0000
,
0001
1000
1000
0000
1000
0010
0010
0000
,
0001
0100
1000
0010
0001
0000
1001
0000
,
1000
0001
0001
0010
0000
0101
0000
0100
,
0010
1000
0010
0100
0010
0000
0101
0000
,
0001
1000
1000
0000
1000
0100
0100
0000
,
0001
0010
1000
0100
0001
0000
1001
0000
,
0001
0010
0001
0010
1000
0010
1000
0010
,
0001
0000
0100
0010
0000
0010
0110
0000
,
1000
0100
1000
0100
0001
0100
0001
0100
,
1000
0000
0010
0100
0000
0100
0110
0000
,
0001
0100
0001
0100
1000
0100
1000
0100
,
0001
0000
0010
0100
0000
0100
0110
0000
,
1000
0010
1000
0010
0001
0010
0001
0010
,
1000
0000
0100
0010
0000
0010
0110
0000
,
1000
0100
0110
0000
0001
0100
0110
0000
,
1000
0100
0110
0000
0001
0100
0110
0000
,
1000
0010
0101
0000
0001
0010
1100
0000
,
1000
0010
0101
0000
0001
0010
1100
0000
,
0001
1000
0110
0000
1000
0001
0110
0000
,
0001
1000
0110
0000
1000
0001
0110
0000
,
0001
0100
1100
0000
1000
0100
0101
0000
,
0001
0100
1100
0000
1000
0100
0101
0000
,
1000
0100
0001
0100
1000
0010
0001
0001
,
0010
1000
0100
0001
0100
1000
0010
0010
,
0100
0100
0100
0100
0100
0100
0100
0000
,
2002
0000
0000
0000
,
3003
0000
0000
0000
;
