#TITLE:PARANOiA DEATH;
#SUBTITLE:;
#ARTIST:dj fuRRocious;
#TITLETRANSLIT:;
#SUBTITLETRANSLIT:;
#ARTISTTRANSLIT:;
#GENRE:;
#CREDIT:;
#MUSIC:PARANOiA DEATH.ogg;
#BANNER:PARANOiA DEATH.png;
#BACKGROUND:PARANOiA DEATH-bg.png;
#CDTITLE:;
#SAMPLESTART:70.286;
#SAMPLELENGTH:15.000;
#SELECTABLE:YES;
#OFFSET:0.000;
#BPMS:0.000=250.000
,100.000=255.000
,104.000=265.000
,108.000=275.000
,112.000=285.000
,116.000=295.000
,120.000=300.000
,132.000=120.000
,148.000=80.000
,164.000=300.000
,196.000=150.000
,212.000=200.000
,228.500=800.000
,237.750=300.000
,238.625=200.000
,239.125=100.000
,239.625=50.000
,240.000=500.000
,241.000=250.000
,273.000=300.000
,321.000=200.000
,329.000=300.000
,335.000=100.000
;
#STOPS:240.000=1.780;
#DISPLAYBPM:80.000:300.000;
#BGCHANGES:;
#FGCHANGES:;

//--------------- dance-single - ----------------
#NOTES:
     dance-single:
     :
     Beginner:
     7:
     0,0,0,0,0:
0000
0000
0000
0000
,
0000
0000
0000
0000
,
0000
0000
0000
0000
,
0000
0000
0000
0000
,
0000
0000
0000
0000
,
0100
0000
0100
0000
,
0100
0000
0100
0000
,
0100
0000
0100
0000
,
0100
0000
0010
0000
,
0010
0010
0000
0000
,
0010
0010
0000
0000
,
0010
0010
0000
0000
,
0010
0010
0000
0000
,
1000
0000
0000
0000
,
0001
0000
0000
0000
,
1000
0000
0000
0000
,
0001
0000
0000
0000
,
0000
1000
0000
1000
,
0000
0100
0000
0100
,
0000
0001
0000
0001
,
0000
0100
0000
0000
,
0010
0000
0000
0000
,
0001
0000
0000
0000
,
1000
0000
0000
0000
,
0100
0000
0000
0000
,
0100
0000
0000
0000
,
0100
0000
0000
0000
,
0100
0000
0000
0000
,
0100
0000
0000
0000
,
0010
0000
0010
0000
,
0001
0000
0100
0000
,
1000
0000
0010
0000
,
0001
0000
0100
0000
,
1000
0000
0001
0001
,
0000
0110
0000
0110
,
0000
0100
0000
0001
,
0000
1000
0000
0000
,
0010
0000
1000
0000
,
0010
0000
0001
0000
,
0010
0010
0010
0010
,
0010
0010
0010
0000
,
0001
0000
0001
0000
,
0001
0001
0001
0001
,
0000
1000
0000
0001
,
0000
0001
0000
0001
,
0000
0100
0000
0010
,
0000
0100
0000
0100
,
0000
0100
0000
0010
,
0000
0100
0000
0000
,
0100
0000
0001
0001
,
0000
1000
1000
1000
,
0000
0001
0001
0001
,
0000
1000
1000
0000
,
0001
0001
0001
0000
,
0100
0100
0100
0000
,
1000
0000
1000
0000
,
0001
0000
0001
0000
,
1001
0000
0000
0000
,
0000
0000
0000
0000
,
0000
0000
0000
0000
,
0000
0001
0000
0000
,
0000
0001
0000
0000
,
0000
1000
0000
0000
,
0000
1000
0000
0000
,
0000
0110
0000
0000
,
0000
0100
0000
0000
,
0000
0100
0000
0000
,
0000
0010
0000
0000
,
0000
1001
0000
0000
,
0000
0100
0000
0010
,
0000
0100
0000
0000
,
0000
0100
0000
0010
,
0000
1000
0000
0000
,
0000
1000
0000
0001
,
0000
0001
0000
0000
,
0000
0001
0000
1000
,
0000
0100
0000
0000
,
0000
0100
0000
0001
,
0000
0010
0000
0000
,
0000
0010
0000
1000
,
0000
0100
0000
0000
,
0000
0001
0000
1000
,
0000
0100
0000
0100
,
0000
0100
0000
0100
,
0000
1001
0000
0000
;

//--------------- dance-single - ----------------
#NOTES:
     dance-single:
     :
     Easy:
     11:
     0,0,0,0,0:
0000
0000
0000
0000
,
0000
0000
0000
0000
,
0000
0000
0000
0000
,
0000
0000
0000
0000
,
0000
0000
0000
0000
,
0100
0001
0100
1000
,
0100
0001
0100
0001
,
0010
1000
0100
0001
,
0100
1000
0100
0001
,
0011
0001
0010
0100
,
1100
1000
0100
0010
,
0011
0001
0010
0100
,
1100
1000
0100
0010
,
0010
0001
0010
0010
,
0100
1000
0100
0100
,
0000
0010
0001
0010
,
0000
0010
1000
0100
,
1000
0100
1000
0010
,
0100
0010
0100
0000
,
0001
0100
0001
0010
,
0100
0010
0100
0000
,
0010
1000
0010
0000
,
0001
0000
0100
0000
,
1000
0000
0010
0000
,
0001
0000
0100
0000
,
0001
0000
0100
0000
,
0001
0000
0100
0000
,
0001
0000
0100
0000
,
0001
0000
0100
0000
,
1000
0100
0001
0100
,
1000
0010
0100
0001
,
0100
0010
1000
0001
,
0100
0000
0001
0000
0000
1000
0100
0000
,
1000
0010
0100
0000
0001
0000
0001
0000
,
1001
0110
1001
0110
,
1000
0010
0100
0000
0001
0000
0001
0000
,
1001
1100
0101
0000
,
1001
0100
0001
0100
1001
0100
1000
1000
,
0001
0100
0010
1000
0010
0100
0010
0100
,
1000
0001
0010
0100
1001
1000
0001
1000
,
0110
0001
0110
1000
0100
0100
0110
0000
,
0001
1000
0001
1000
,
0001
0001
0001
0001
,
1000
1000
0001
0001
,
1000
0001
1000
0001
,
1000
0100
0001
0010
,
1000
0100
1000
0100
,
1000
0100
1000
0010
,
0001
0100
1000
0100
,
0100
0001
0001
0000
0001
0000
0001
0000
,
0100
1000
1000
0000
1000
0000
1000
0000
,
0100
0001
0001
0000
0001
0001
0001
0000
,
0100
1000
1000
0000
1000
1000
1000
0000
,
0001
0001
0001
1000
,
0100
0100
0100
0010
,
1000
0010
1000
0010
,
0001
1000
0001
1000
,
2002
0000
0000
0000
,
0000
0000
0000
0000
,
0000
0000
0000
0000
,
3003
0001
0100
0001
,
0000
1000
0000
1000
,
0000
0100
0000
0100
,
0010
0001
0000
1000
,
0001
1000
0000
0010
,
0000
0010
0000
0100
,
0000
0001
0100
0001
,
0000
1000
0000
0001
,
1000
1000
0100
0000
,
0001
0000
0001
0000
,
1000
0001
0100
0000
,
1000
0000
1000
0000
,
0001
1000
0010
0000
,
0001
0000
0001
0000
,
1000
0001
0010
0000
,
1000
0000
1000
0000
,
0001
1000
0100
0000
,
0001
0000
0001
0000
,
1000
0001
0100
0000
,
1000
0000
1000
0000
,
0001
1000
0010
0000
,
0001
0000
0001
0000
,
1000
0000
0010
0000
0000
0010
0000
0000
,
0100
0000
0000
0100
0000
0000
0001
0000
,
0000
0000
1000
1000
0000
0000
0100
0100
,
0000
0000
0010
0010
0000
0000
0001
0001
;

//--------------- dance-single - ----------------
#NOTES:
     dance-single:
     :
     Medium:
     13:
     0,0,0,0,0:
0000
0000
0000
0000
,
0000
0000
0000
0000
,
0000
0000
0000
0000
,
0000
0000
0000
0000
,
0000
0000
0000
0000
,
0010
0001
0010
1000
,
0010
0001
0010
1000
,
0010
0001
0010
0001
,
0100
1000
0010
0001
,
0011
1001
0010
0100
,
1100
1001
0100
0010
,
0011
1001
0010
0100
,
1100
1001
0100
0010
,
0010
0000
0001
0000
0010
0001
0010
0000
,
0100
0000
1000
0000
0100
1000
0100
0000
,
0000
0010
1001
0010
,
0000
0010
1001
0100
,
1100
0001
0100
1000
,
0010
0100
0010
0100
,
0101
1000
0100
0001
,
0010
0100
0010
0100
,
1000
0100
0001
0100
,
1000
0010
0100
0001
,
0100
0010
1000
0001
,
0100
0000
0001
0000
0000
1000
0100
0000
,
0100
0000
0001
0000
0000
1000
0100
0000
,
0100
0000
0001
0000
0000
1000
0100
0000
,
0100
0000
0001
0000
0000
1000
0100
0000
,
0100
0000
0001
0000
0000
1000
0100
0000
,
1000
0100
1000
0000
0010
0000
0010
0000
,
1000
0100
1000
0001
0010
0000
0010
0000
,
0001
0100
0010
1000
0100
0000
0001
0000
,
1000
0000
0100
0000
1000
0001
0010
0000
,
1000
0100
1000
0000
0001
0100
0001
0000
,
1001
1010
1100
1000
,
1000
0100
1000
0000
0001
0100
0001
0000
,
1001
1100
0101
0000
,
1000
0000
0100
0000
0010
0010
0010
0000
0001
0000
0100
0000
0010
0010
0010
0000
,
0010
1000
0001
0001
0010
0001
1000
1000
,
1000
0000
0100
0010
0001
0100
0010
0000
1000
0000
0100
0010
0001
0100
0010
0000
,
1000
0000
0100
0010
0001
0100
0010
0000
1000
0000
0100
0000
0001
0000
0100
0000
,
1000
1100
0001
0101
,
0010
0100
1000
1001
,
0001
0101
0100
1100
,
0010
0100
0001
1001
,
1000
0001
1000
0110
,
0001
1000
0001
1001
,
0010
1100
0001
0101
,
0100
0010
1001
0100
,
0100
0001
0001
0000
0001
0001
0001
0000
,
0100
1000
1000
0000
1000
1000
1000
0000
,
0100
0001
0001
0001
0001
0001
0001
0000
,
0100
1000
1000
1000
1000
1000
1000
0000
,
0101
1100
1001
1001
,
0110
1001
1001
1001
,
0010
1000
0010
1000
,
0100
0010
0001
0000
,
2002
0000
0000
0000
,
0000
0000
0000
0000
,
0000
0000
0000
0000
,
3003
0001
0100
1000
,
0100
0001
0100
1000
,
0100
0000
0001
0000
0010
0000
0000
0001
,
1000
0100
0100
1000
,
0010
0000
1000
0000
0000
0001
0000
0100
,
0000
0000
0010
0000
0000
0100
0000
0000
,
0001
0000
1000
0100
1000
0000
1000
0001
,
1000
0010
0000
0000
,
1001
0000
1000
0100
0000
0000
0010
0000
,
0010
0001
0100
0001
,
1000
0000
0001
0100
0000
0000
0010
0000
,
0010
1000
0100
1000
,
0001
0000
1000
0010
0000
0000
0100
0000
,
0100
0001
0010
0001
,
1000
0000
0001
0010
0000
0000
0100
0000
,
0100
1000
0010
1000
,
0001
0000
1000
0100
0000
0000
0010
0000
,
0010
0001
0100
1000
,
0100
0000
0001
0100
0000
0000
0010
0000
,
0010
1000
0100
0001
,
0100
0000
1000
0010
0000
0000
0100
0000
,
0100
0001
0010
1000
,
0010
0000
0001
0000
0000
0001
0000
0000
,
1000
0000
0000
1000
0000
0000
0010
0000
,
0100
0000
1000
0100
1000
1000
0100
0100
,
1000
0000
0001
0010
0001
0001
0010
0010
,
0001
0000
0000
0000
;

//--------------- dance-single - ----------------
#NOTES:
     dance-single:
     :
     Hard:
     15:
     0.735322,1.321885,0.272502,0.050463,0.136251,510,483,27,5,0,0,0.735322,1.321885,0.272502,0.050463,0.136251,510,483,27,5,0,0:
0000
0000
0000
0000
,
0000
0000
0000
0000
,
0000
0000
0000
0000
,
0000
0000
0000
0000
,
0000
0000
0000
0000
,
0001
0010
1000
0100
,
0001
0010
1000
0100
,
0001
0010
0001
0010
,
1000
0100
0001
0010
,
0010
0001
0100
0000
0010
1000
0100
0000
,
1000
0100
0010
0000
0001
0100
1000
0000
,
0010
0001
0100
0000
0010
1000
0100
0000
,
1000
0100
0010
0000
0001
0100
1000
0000
,
0010
0000
0001
0000
0010
0001
0010
0000
,
0100
0000
1000
0000
0100
1000
0100
0000
,
0010
0000
0010
1000
0100
1000
0100
0000
,
0010
0000
0010
0001
0100
0001
0100
0000
,
1100
0000
0001
0000
0100
0001
1000
0000
,
0010
0000
0100
1000
0001
0100
1000
0000
,
0101
0000
1000
0000
0100
1000
0001
0000
,
0010
0000
0100
0001
1000
0100
0001
0000
,
1000
0100
1000
0000
0010
0000
0010
0000
,
1000
0100
1000
0001
0010
0000
0010
0000
,
0001
0100
0010
1000
0100
0000
0001
0000
,
1000
0000
0100
0000
1000
0001
0010
0000
,
1000
0000
0100
0000
1000
0001
0010
0000
,
1000
0000
0100
0000
1000
0001
0010
0000
,
1000
0000
0100
0000
1000
0001
0010
0000
,
1000
0000
0100
0000
1000
0001
0010
0000
,
0100
0010
0100
0001
0100
0010
1000
0000
,
0100
0010
0100
1000
0100
0010
0001
0000
,
0010
0100
0010
1000
0010
0100
0010
0001
,
0100
0010
1000
0000
0001
0010
0100
0000
,
1000
0100
1000
0100
0001
0100
0001
0100
,
1000
0001
1000
0001
1000
0100
1000
0100
,
0010
0001
1000
0100
0010
0001
0010
1000
,
0010
0001
0100
0001
0010
1000
0001
0010
,
1000
0100
1000
0001
0100
0010
0100
0000
0001
0010
0001
0100
0010
1000
0100
0000
,
0010
1000
0010
0100
0010
0001
0010
0100
0010
1000
0010
0100
0010
0001
0010
0000
,
1000
0001
0100
0010
1000
0001
0100
0010
1000
0001
0100
0010
1000
0001
0100
0000
,
0001
0001
1000
0001
0001
0001
1000
0001
0001
0001
1000
0001
1000
1000
0001
0000
,
1000
1000
0001
0001
,
1000
1000
0001
0001
,
0100
0110
0110
0110
,
1010
0001
1100
0101
,
0001
1000
0101
0101
,
1010
0101
0101
0000
,
1000
0001
1100
1100
,
0011
1100
1100
0000
,
0010
0001
0001
0001
0010
0001
0001
0000
,
0010
1000
1000
1000
0010
1000
1000
0000
,
0100
1000
0100
1000
1000
1000
1000
0000
,
0100
0001
0100
0001
0001
0001
0001
0000
,
1000
0100
0000
0001
0000
0000
0100
0000
,
0010
1000
0000
0100
0000
0000
0000
0000
,
0100
0001
0100
0010
0100
0001
0100
1000
,
0100
0010
0100
1000
0100
0001
0100
0000
,
2002
0000
0000
0000
,
0000
0000
0000
0000
,
0000
0000
0000
0000
,
3003
0000
1000
0100
1000
0000
0001
0000
,
0001
0000
0001
0100
0001
0000
1000
0100
,
1000
0000
0001
0010
0001
0000
0000
1000
,
0010
1100
0011
0100
,
0110
0000
0010
0001
0000
0001
1000
0000
,
1000
0100
0000
0100
0010
0000
0001
0000
,
1000
1100
0110
0011
,
1001
0200
0010
0010
,
0310
0000
1000
0100
1000
0100
0001
0100
,
0001
0100
0010
0001
1000
0100
0000
1000
,
0010
0100
0001
0100
0001
0100
1000
0100
,
1000
0100
0010
1000
0100
0010
0001
1000
,
0001
0000
1000
0010
1000
0010
0001
0010
,
0001
0010
0100
0001
1000
0010
0000
1000
,
0100
0010
0001
0010
0001
0010
1000
0010
,
1000
0010
0100
1000
0010
0100
0001
1000
,
0001
0000
0001
0100
0010
0100
1000
0100
,
0010
0100
0001
1000
0010
0100
0000
0001
,
0010
0100
1000
0100
0010
0100
0001
0100
,
0010
0100
1000
0001
0100
0010
1000
0001
,
1000
0000
0001
0010
0001
0100
0010
1000
,
0010
0100
0001
1000
0001
0010
0100
1000
,
0100
0010
0001
0100
0000
1000
0100
0000
,
0001
0010
0000
1000
0010
0000
0001
0100
,
0010
1000
0010
0010
0010
0010
0010
0010
,
0010
0000
0100
0100
0100
0100
0100
0100
,
0100
0000
0000
0000
;

//--------------- dance-double - ----------------
#NOTES:
     dance-double:
     :
     Easy:
     12:
     0,0,0,0,0:
00000000
00000000
00000000
00000000
,
00000000
00000000
00000000
00000000
,
00000000
00000000
00000000
00000000
,
00000000
00000000
00000000
00000000
,
00000000
00000000
00000000
00000000
,
00000101
00001000
00010000
10100000
,
00110000
01000000
00010000
01000000
,
00010000
01000000
00010000
01000000
,
00100000
00100000
00100000
10010000
,
00110000
00100000
10000000
01000000
,
00010000
00010000
00010000
00010000
,
00001010
00000010
00000001
00000100
,
00001000
00001000
00001000
00001000
,
00011000
00000000
00110000
00000000
,
10000000
01000000
10000000
01000000
,
01010000
00000000
00011000
00000000
,
00000010
00000001
00000010
00000001
,
00011000
00100000
00010000
00100000
,
00010000
00100000
00010000
00100000
,
00010000
00000010
00001000
00000010
,
00001000
00000010
00001000
00000010
,
00100000
01000000
00010000
00000000
,
10000000
00000000
01000000
00000000
,
00010000
00000000
00001000
00000000
,
00000010
00000000
00000001
00001000
,
00000010
00000000
00000001
00001000
,
00000010
00000000
00000001
00001000
,
00000010
00000000
00000001
00001000
,
00000010
00000000
00000001
00001000
,
00000100
00000001
00000010
00001000
,
00010000
00001000
00000100
00000001
,
00000010
00000100
00010000
00001000
,
00010000
00000000
01000000
00000000
00000000
10000000
00010000
00000000
,
10000000
01000000
00010000
00000000
00001000
00000000
00000100
00000000
,
00000011
00001100
00000001
00000100
,
00000010
00001000
00010000
00000000
01000000
00000000
10000000
00000000
,
10010000
01100000
00010000
10000000
,
10000000
00100000
00010000
00000000
00001000
00000000
00000010
00000000
00000001
00000000
00000001
00000000
00000010
00000000
00000010
00000000
,
00000001
00000010
00001000
00000000
00010000
00000000
00100000
00000000
10000000
00000000
10000000
00000000
00100000
00000000
00010000
00000000
,
00100000
00010000
00001000
00000000
00000010
00000000
00000001
00000000
00000010
00001000
00010000
00000000
00100000
00000000
10000000
00000000
,
00100000
00010000
00001000
00000000
00000010
00000000
00000001
00000000
00000010
00001000
00010000
00000000
00100000
00000000
10000000
00000000
,
01000000
00100000
10010000
00100000
,
10000000
00100000
00010000
00100000
,
11000000
01010000
11000000
00110000
,
01000000
00010000
00001000
00000100
,
00000101
00000100
00000100
00000110
,
00001000
00000100
00000001
00000100
,
00000110
00001001
00000110
00001001
,
00000100
00001000
00010000
01000000
,
10100000
01000000
00010000
00011000
,
00000001
00000010
00000010
00000010
,
00000011
00000000
00000000
00001001
,
00000010
00000100
00001000
00010000
,
00000001
00000001
00000100
00000100
,
00001000
00001000
00000100
00000000
,
00010000
00010000
00001000
00001000
,
00100000
01000000
10000000
00000000
,
00022000
00000000
00000000
00000000
,
00000000
00000000
00000000
00000000
,
00000000
00000000
00000000
00000000
,
00033000
01000000
00100000
00001000
,
00000000
00010000
00000000
00000100
,
00000000
00000010
00000000
00000001
,
00000100
00000001
00000000
00000100
,
00000010
00000100
00000000
00000010
,
00000000
00010000
00000000
00001000
,
00000000
01000000
00100000
01000000
,
00000000
00100000
00000000
00000000
,
10000000
00100000
01000000
00000000
,
00010000
00000000
10000000
00000000
,
01000000
00100000
00001000
00000000
,
00010000
00000000
00001000
00000000
,
01000000
00100000
10000000
00000000
,
01000000
00000000
00010000
00000000
,
00001000
00000010
00000001
00000000
,
00001000
00000000
00000010
00000000
,
00010000
00001000
01000000
00000000
,
00100000
00000000
10000000
00000000
,
00010000
10000000
01000000
00000000
,
00010000
00000000
00001000
00000000
,
00000010
00000100
00010000
00000000
,
00001000
00000000
01000000
00000000
,
00100000
00000000
00001000
00000000
00000000
00010000
00000000
00000000
,
00001000
00000000
00000000
00000010
00000000
00000000
00000000
00000000
,
00000001
00000000
00000001
00000001
00000000
00000000
00000010
00000010
,
00000000
00000000
00010000
00010000
00000000
00000000
00100000
00100000
;

//--------------- dance-double - ----------------
#NOTES:
     dance-double:
     :
     Medium:
     14:
     0,0,0,0,0:
00000000
00000000
00000000
00000000
,
00000000
00000000
00000000
00000000
,
00000000
00000000
00000000
00000000
,
00000000
00000000
00000000
00000000
,
00000000
00000000
00000000
00000000
,
00011000
01000000
00011000
00000010
,
00011000
00100000
00011000
00000100
,
00100000
10000000
01000000
00010000
,
00000010
00001000
00000100
00001001
,
00010000
00010000
00001000
00000000
00000010
00000000
00000100
00000000
,
00001000
00001000
00000010
00000000
00000001
00000000
00000100
00000000
,
00001000
00001000
00010000
00000000
00100000
00000000
01000000
00000000
,
00010000
00010000
00100000
00000000
10000000
00000000
01000000
00000000
,
00100000
00010000
00100000
00010000
,
00001000
00010000
00001000
00010000
,
00000010
00001000
00000010
00001000
,
00010000
00001000
00010000
00001000
,
00011000
00000000
00100000
00000000
00010000
00010000
00010000
00000000
,
00010000
00000000
01000000
00000000
00010000
00010000
00010000
00000000
,
00010000
00000000
00001000
00000000
00000100
00000100
00000100
00000000
,
00000100
00000000
00001000
00000000
00001000
00001000
00001000
00000000
,
00100000
10000000
01000000
00010000
,
00001000
00010000
00100000
10000000
,
01000000
00100000
00001000
00010000
,
00001000
00000000
00000010
00000000
00000000
00000001
00001000
00000000
,
00001000
00000000
00000010
00000000
00000000
00000001
00001000
00000000
,
00001000
00000000
00000010
00000000
00000000
00000001
00001000
00000000
,
00001000
00000000
00000010
00000000
00000000
00000001
00001000
00000000
,
00001000
00000000
00000010
00000000
00000000
00000001
00001000
00000000
,
00000001
00000010
00000100
00000000
00010000
00000000
00001000
00000000
,
00010000
00000010
00000100
00000000
00000001
00000000
00000010
00000000
,
00000100
00010000
00001000
00100000
01000000
00000000
10000000
00000000
,
00100000
00000000
00010000
00000000
00001000
00010000
00001000
00000000
,
10000000
01000000
00010000
00000000
00001000
00000100
00000001
00000000
,
00000001
00001000
00000100
00000000
00000010
00001000
00000100
00000000
,
00000001
00000100
00001000
00000000
00010000
01000000
10000000
00000000
,
10000000
00010000
01000000
00000000
00100000
00010000
01000000
00000000
,
00010000
00001000
00000100
00000000
00000110
00000000
00000001
00000000
00001000
00000000
00001100
00000000
00000001
00000000
00000101
00000000
,
00001000
00010000
01000000
00000000
01100000
00000000
10000000
00000000
00010000
00000000
01010000
00000000
10000000
00000000
11000000
00000000
,
00010000
00001000
00000100
00000000
00000110
00000000
00000001
00000000
00001000
00010000
01000000
00000000
01100000
00000000
10000000
00000000
,
00010000
00001000
00000100
00000000
00000110
00000000
00000001
00000000
00001000
00010000
01000000
00000000
01100000
00000000
10000000
00000000
,
01100000
01010000
01100000
11000000
,
01100000
10010000
01100000
10010000
,
11000000
11000000
01000000
00010000
,
00001000
00000100
00000101
00001010
,
00000011
00000101
00001000
00000001
,
00001000
00000100
00000001
00000100
,
00000001
00000010
00001000
00010000
,
00100000
10000000
11000000
01010000
,
00011000
01001000
00011000
00010100
,
00011000
01001000
00011000
00010100
,
00000100
00000100
00000100
00000100
00000100
00000100
00000100
00000000
,
01000000
01000000
01000000
01000000
01000000
01000000
01000000
00000000
,
00011000
00001100
00001001
00000100
,
00001000
00000001
00000100
00000000
,
00010000
00010000
00001000
00001000
,
00100000
00010000
01000000
00000000
,
00022000
00000000
00000000
00000000
,
00000000
00000000
00000000
00000000
,
00000000
00000000
00000000
00000000
,
00033000
00000010
00000001
00000010
,
00000100
00000010
00000001
00000100
,
00001000
00000000
00010000
00000000
00100000
00000000
00000000
10000000
,
00010000
01000000
00100000
10000000
,
01000000
00000000
00010000
00000000
00000000
00001000
00000000
00010000
,
00000000
00000000
00000100
00000000
00000000
00000010
00000000
00000000
,
00000001
00000100
00000010
00010000
,
00001000
01000000
00000000
00000000
,
10010000
00000000
00100000
00001000
00000000
00000000
00010000
00000000
,
00010000
00001000
00000100
00000001
,
00000010
00000000
00000100
00010000
00000000
00000000
00001000
00000000
,
00001000
00010000
01000000
10000000
,
00010000
00000000
00100000
00001000
00000000
00000000
00010000
00000000
,
00010000
00001000
00000100
00000001
,
00000010
00000000
00000100
00010000
00000000
00000000
00001000
00000000
,
00001000
00010000
01000000
10000000
,
00010000
00000000
01000000
00001000
00000000
00000000
00010000
00000000
,
00010000
00001000
00000010
00000001
,
00000100
00000000
00000010
00010000
00000000
00000000
00001000
00000000
,
00001000
00010000
00100000
10000000
,
00010000
00000000
01000000
00001000
00000000
00000000
00010000
00000000
,
00010000
00000000
00001000
00000000
00010000
00000010
00000000
00000000
,
00000100
00000000
00000001
00000000
00000000
00000100
00000000
00000000
,
00000010
00000000
00000000
00010000
00000000
00000000
00001000
00000000
,
00100000
00000000
00000100
00001000
00000000
00000000
00000100
00000001
,
00000000
00000000
00010000
01000000
00000000
00000000
10000000
01000000
;

//--------------- dance-double - ----------------
#NOTES:
     dance-double:
     :
     Hard:
     14:
     0,0,0,0,0:
00000000
00000000
00000000
00000000
,
00000000
00000000
00000000
00000000
,
00000000
00000000
00000000
00000000
,
00000000
00000000
00000000
00000000
,
00000000
00000000
00000000
00000000
,
00001000
00010000
00000100
00000000
00001000
00000001
00000100
00000000
,
00000010
00001000
00000100
00010000
00001000
01000000
00100000
00000000
,
10000000
01000000
00100000
00000000
00001000
00010000
00000100
00000000
,
00001000
00000001
00000100
00000000
00000000
00000010
00000000
00000010
,
00100000
00010000
01000000
00000000
00001000
00010000
00000010
00000000
,
00001000
00000001
00000100
00000000
00000010
00001000
00000100
00000000
,
00010000
00001000
00100000
00000000
00010000
10000000
01000000
00000000
,
00100000
00001000
00010000
00000000
00000010
00001000
00000001
00000000
,
00000010
00000000
00000100
00000000
00010000
00001000
00100000
00000000
,
00010000
00000000
10000000
00000000
00100000
01000000
00010000
00000000
,
00100000
00000000
00001000
00010000
00000010
00001000
00000001
00000000
,
00000010
00000000
00000100
00010000
00001000
00100000
00010000
00000000
,
00100000
01000000
00010000
01000000
00001000
00010000
00001000
00000000
,
00010000
00000100
00000010
00000001
00000100
00000010
00001000
00000000
,
00000100
00010000
00001000
00100000
00010000
10000000
01000000
00000000
,
00100000
00001000
01000000
00010000
10000000
01000000
00100000
00010000
,
10000000
01000000
00100000
00000000
00001000
00000000
00010000
00000000
,
00001000
01000000
00100000
00000000
10000000
00000000
01000000
00000000
,
00100000
00001000
00010000
00000100
00000010
00000000
00000001
00000000
,
00000100
00000000
00001000
00000000
00010000
00001000
00010000
00000000
,
00000100
00000000
00001000
00000000
00010000
00001000
00010000
00000000
,
00000100
00000000
00001000
00000000
00010000
00001000
00010000
00000000
,
00000100
00000000
00001000
00000000
00010000
00001000
00010000
00000000
,
00000100
00000000
00001000
00000000
00010000
00001000
00010000
00000000
,
01000000
00100000
01000000
00010000
00001000
00000100
00000010
00000000
,
00000001
00000100
00000010
00001000
00000100
00010000
00001000
00000000
,
00100000
01000000
00100000
00001000
00100000
00010000
01000000
00001000
,
00010000
00000100
00000010
00000000
00000001
00000100
00000010
00000000
,
00100000
01000000
00000000
00001000
00010000
00000100
00000000
00000010
,
00000000
00000001
00000001
00000000
00001100
00000000
00011000
00000000
,
00100000
01000000
00000000
10000000
00010000
01000000
00000000
00001000
,
00000000
00000000
00001001
00000110
,
00000010
00000001
00000100
00000000
00000010
00001000
00010000
00000000
00001000
00010000
01000000
00000000
10000000
00010000
01000000
00000000
,
00100000
01000000
10000000
00000000
00010000
00100000
10000000
00000000
00010000
01000000
00100000
00000000
00010000
00001000
00000100
00000000
,
00000010
00001000
00000100
00000000
00000100
00010000
00001000
00000000
00010000
01000000
10000000
00000000
00100000
00010000
00001000
00000000
,
00010000
01000000
10000000
00000000
00100000
00001000
00010000
00000000
00010000
00001000
00000100
00000000
00000010
00001000
00000100
00000000
,
00000000
01010000
00000000
00000000
00100000
00001000
00010000
00000000
,
00000010
00010000
00001000
00000000
01000000
00010000
00100000
00000000
,
00000000
00011000
00000000
00000000
00000100
00001000
00000010
00000000
,
00010000
00001000
01000000
00000000
00010000
00100000
00001000
00000000
,
00000000
00010100
00000000
00000000
00001000
00000001
00000100
00000000
,
00000010
00010000
00001000
00000000
00100000
00010000
01000000
00000000
,
00000000
11000000
00000000
00000000
00100000
00001000
00010000
00000000
,
00001010
00000101
00001100
00000000
,
00010000
00000000
00000100
00000000
00000010
00000001
00000100
00000000
,
00000010
00000000
00001000
00000000
00000100
00010000
00001000
00000000
,
00100000
00010000
01000000
00000000
00100000
10000000
01000000
00000000
,
00100000
00001000
00010000
00000100
00000010
00000001
00000100
00000000
,
00000000
00000010
00000000
00000010
00000000
00000000
00001000
00000000
,
00000000
01000000
00000000
01000000
00000000
00000000
00000000
00000000
,
00010000
00010000
00001000
00001000
,
00100000
00001000
00010000
00000000
00011000
00000000
00000000
00000000
,
00022000
00000000
00000000
00000000
,
00000000
00000000
00000000
00000000
,
00000000
00000000
00000000
00000000
,
00033000
00000000
00001000
01000000
00010000
00000000
00100000
00000000
,
01000000
00000000
00100000
00001000
00100000
00000000
00001000
00010000
,
00001000
00000000
00010000
00000100
00010000
00000000
00000000
00000010
,
00000100
00000001
00000100
00001000
,
00010000
00000000
00001000
00000000
00010000
00001000
01000000
00000000
,
00100000
10000000
01000000
00100000
00000000
00001000
00010000
00000000
,
00001000
01000000
00100000
10000000
,
01000000
10000000
00000000
00000000
,
00010000
00000000
00010000
00001000
00010000
00000000
00100000
10000000
,
00100000
00000000
10000000
00000000
01000000
00010000
00000000
00001000
,
01000000
00000000
00100000
10000000
00100000
00000000
10000000
01000000
,
10000000
00000000
01000000
00000000
00010000
00001000
00010000
00000000
,
00000100
00000000
00000010
00000001
00000010
00000000
00000001
00000100
,
00000001
00000000
00000100
00000000
00001000
00010000
00000000
00001000
,
00010000
00000000
00100000
10000000
00100000
00000000
10000000
01000000
,
10000000
00000000
01000000
00000000
00010000
00000000
00000000
00001000
,
00010000
00000000
00001000
01000000
00001000
00000000
00000010
00000001
,
00001000
00000000
00000001
00000000
00000100
00001000
00000000
00010000
,
00001000
00000000
00010000
00100000
00010000
00000000
00001000
00010000
,
00001000
00000000
01000000
00000000
00100000
10000000
00010000
00000000
,
10000000
00000000
01000000
00010000
01000000
00000000
00010000
00001000
,
00010000
00000000
00001000
00000000
00000010
00000001
00000000
00001000
,
00000100
00000000
00000010
00000001
00000000
00000001
00000100
00000000
,
00000100
00001000
00000000
00001000
00010000
00000000
00100000
10000000
,
01000000
00010000
10000000
01000000
00010000
01000000
00010000
00001000
,
00000100
00000000
00000001
00000010
00001000
00000010
00001000
00010000
,
00100000
00000000
00000000
00000000
;
