#TITLE:PARANOiA Cueca MAXX;
#SUBTITLE:;
#ARTIST:320;
#TITLETRANSLIT:;
#SUBTITLETRANSLIT:;
#ARTISTTRANSLIT:;
#GENRE:;
#CREDIT:;
#MUSIC:PARANOiA Cueca MAXX.ogg;
#BANNER:PARANOiA Cueca MAXX.png;
#BACKGROUND:PARANOiA Cueca MAXX-bg.png;
#CDTITLE:;
#SAMPLESTART:36.188;
#SAMPLELENGTH:15.000;
#SELECTABLE:YES;
#OFFSET:0.000;
#BPMS:0.000=320.000;
#STOPS:;
#BGCHANGES:;
#FGCHANGES:;

//--------------- dance-single - ----------------
#NOTES:
     dance-single:
     :
     Beginner:
     4:
     0,0,0,0,0:
0000
0000
0000
0000
,
0000
0000
0000
0000
,
0000
0000
0000
0000
,
0000
0000
0000
0000
,
1001
0000
0000
0000
,
0000
0000
0000
0000
,
0000
0000
0000
0000
,
0000
0000
0000
0000
,
0000
0000
0000
0000
,
0000
0000
0000
0000
,
0000
0000
0000
0000
,
0000
0000
0000
0000
,
1001
0000
0000
0000
,
0000
0000
0001
0000
,
0000
0000
0000
0000
,
1001
0000
0000
0000
,
0000
0000
1000
0000
,
0000
0000
0000
0000
,
1000
0000
0000
0000
,
0010
0000
0100
0000
,
0000
0000
0100
0000
,
1000
0000
0000
0000
,
0001
0000
1000
0000
,
0000
0000
0100
0000
,
0100
0000
0000
0000
,
0010
0000
0100
0000
,
0000
0000
1000
0000
,
1000
0000
0000
0000
,
0100
0000
1000
0000
,
0000
0000
0001
0000
,
1000
0000
0000
0000
,
1000
0000
0010
0000
,
0000
0000
0001
0000
,
1000
0000
0000
0000
,
0000
0000
0010
0000
,
0010
0000
0000
0000
,
1000
0000
0000
0000
,
0000
0000
0010
0000
,
0000
0000
0000
0000
,
0010
0000
0000
0000
,
0000
0000
0010
0000
,
0000
0000
0000
0000
,
0001
0000
0000
0000
,
0000
0000
0100
0000
,
0000
0000
0000
0000
,
0100
0000
0000
0000
,
0000
0000
1001
0000
,
0000
0000
0000
0000
,
0000
1000
0000
0000
,
0000
0001
0000
0010
,
0000
0000
0000
1000
,
0000
0010
0000
0000
,
0000
0100
0000
1000
,
0000
0000
0000
0010
,
0000
0100
0000
0000
,
0000
0010
0000
0001
,
0000
0000
0000
1000
,
0000
1000
0000
0000
,
0000
0010
0000
0001
,
0000
0000
0000
0100
,
0000
1000
0000
0000
,
0000
1000
0000
1000
,
0000
0000
0001
0000
,
1000
0000
0000
0000
,
0100
0000
0100
0000
,
0000
0000
1000
0000
,
0001
0000
0000
0000
,
0100
0000
0100
0000
,
0000
0000
0001
0000
,
1000
0000
0010
0000
,
0000
0000
0000
0000
,
0000
0000
0100
0000
,
0001
0000
0100
0000
,
0000
0000
0000
0000
,
0000
0000
1000
0000
,
1000
0000
0000
0000
,
1000
0000
0010
0000
,
0000
0000
0100
0000
,
0100
0000
0000
0000
,
1000
0000
0001
0000
,
0000
0000
1000
0000
,
1000
0000
0000
0000
,
1000
0000
1000
0000
,
0000
0000
0010
0000
,
0010
0000
0000
0000
,
0100
0000
0100
0000
,
0000
0000
1000
0000
,
1000
0000
0000
0000
,
0010
0000
0100
0000
,
0000
0000
0100
0000
,
0100
0000
0000
0000
,
1000
0000
1000
0000
,
0000
0000
1000
0000
,
1000
0000
0000
0000
,
0100
0000
0100
0000
,
0000
0000
1000
0000
,
1000
0000
0000
0000
,
0010
0000
0010
0000
,
0000
0000
1000
0000
,
1000
0000
0000
0000
,
0001
0000
0001
0000
,
0000
0000
1000
0000
,
1000
0000
0000
0000
,
0001
0000
0001
0000
,
0000
0000
1000
0000
,
0000
0000
0100
0000
,
0010
0000
1000
0000
,
0000
0000
0100
0000
,
0000
0000
0001
0000
,
0100
0000
0010
0000
,
0000
0000
1000
0000
,
0000
0000
1000
0000
,
0001
0000
0010
0000
,
0000
0000
0010
0000
,
0000
0000
0010
0000
,
1000
0000
1000
0000
,
0000
0000
1000
0000
,
0100
0000
0010
0000
,
0001
0000
0000
1001
,
0000
0000
0000
0001
,
0000
0010
0000
0100
,
0000
1000
0000
0000
,
1001
0000
0000
1001
;

//--------------- dance-single - ----------------
#NOTES:
     dance-single:
     :
     Easy:
     9:
     0,0,0,0,0:
0000
0000
0000
0000
,
0000
0000
0000
0000
,
0000
0000
0000
0000
,
0000
0000
0000
0000
,
2002
0000
0000
0000
,
0000
0000
0000
0000
,
3003
0000
0000
0000
,
0000
0000
0000
0000
,
0000
0000
0000
0000
,
0000
0000
0000
0000
,
0000
0000
0000
0000
,
0000
0000
0000
0000
,
1010
0000
0000
0100
,
0000
0000
0001
0000
,
0000
0100
0000
0000
,
1000
0000
0000
1000
,
0000
0000
0001
0000
,
0000
0010
0000
0000
,
1000
0000
1000
0000
,
0010
0000
0100
0000
,
0100
0000
0100
0000
,
1000
0000
1000
0000
,
0001
0000
1000
0000
,
0100
0000
0100
0000
,
0100
0000
1000
0000
,
0010
0000
0100
0000
,
0100
0000
1000
0000
,
1000
0000
0100
0000
,
0100
0000
1000
0000
,
1000
0000
0001
0000
,
1000
0000
1000
0000
,
1000
0000
0010
0000
,
0010
0000
0001
0000
,
1000
0000
1000
0000
,
0001
0000
0010
0000
,
0010
0000
0010
0000
,
2000
0000
3020
0000
,
0230
0000
0320
0000
,
2030
0000
3200
0000
,
0320
0000
0032
0000
,
0203
0000
0320
0000
,
2030
0000
0000
0000
,
3002
0000
0203
0000
,
0320
0000
0230
0000
,
0302
0000
0023
0000
,
0230
0000
0320
0000
,
0032
0000
2000
0000
,
0000
3003
0000
0000
,
0000
1000
0000
0001
,
0000
0001
0000
0010
,
0000
1000
0000
1000
,
0000
0010
0000
0010
,
0000
0100
0000
1000
,
0000
0010
0000
0010
,
0000
0100
0000
0100
,
0000
0010
0000
0001
,
0000
0010
0000
1000
,
0000
1000
0000
0001
,
0000
0010
0000
0001
,
0000
0100
0000
0100
,
0000
1000
0000
0100
,
0000
1000
0000
1000
,
0000
0000
0001
0000
,
1000
0000
0001
0000
,
0100
0000
0100
0000
,
0100
0000
1000
0000
,
0001
0000
1000
0000
,
0100
0000
0100
0000
,
0001
0000
0001
0000
,
1000
0000
0020
0000
,
0000
0000
0000
0030
,
0000
0000
0100
0000
,
0001
0000
0200
0000
,
0000
0000
0000
0300
,
0000
0000
1000
0000
,
1000
0000
0001
0000
,
1000
0000
0010
0000
,
0010
0000
0100
0000
,
0100
0000
0100
0000
,
1000
0000
0001
0000
,
1000
0000
1000
0000
,
1000
0100
0000
0100
,
1000
0000
1000
0001
,
0000
0001
0010
0000
,
0010
0001
0000
0001
,
0100
0000
0100
0001
,
0000
0001
1000
0000
,
1000
0010
0000
0100
,
0010
0000
0100
0001
,
0000
0001
0100
0000
,
0100
0001
0000
0010
,
1000
0000
1000
0010
,
0000
0010
1000
0000
,
1000
0001
0000
0001
,
0100
0000
0100
0010
,
0000
0010
1000
0000
,
1000
0001
0000
0001
,
0010
0000
0010
0100
,
0000
0100
1000
0000
,
1000
0100
0000
1000
,
0001
0000
0001
0100
,
0000
0001
1000
0000
,
1000
0010
0000
1000
,
0001
0000
0001
0010
,
0000
0001
1000
0001
,
0010
0010
0000
0100
,
0010
1000
1000
0100
,
0000
0100
0100
0010
,
0001
0001
0000
0001
,
0100
0010
0010
0100
,
0000
1000
1000
1000
,
0100
0001
0000
0001
,
0100
0010
0010
0100
,
0000
0010
0010
0010
,
1000
0100
0000
1000
,
0001
1000
1000
0001
,
0000
1000
1000
0100
,
0010
0000
0100
0010
,
0001
0000
0000
0001
0000
0000
1000
0000
,
0000
1000
0000
0000
1001
0000
0001
0000
,
0010
0100
0000
0010
,
0100
0000
1000
0000
0000
1000
0000
0000
,
0001
0000
0000
0001
0000
0000
2002
0000
,
0000
0000
0000
0000
,
0000
0000
0000
3003
;

//--------------- dance-single - ----------------
#NOTES:
     dance-single:
     :
     Medium:
     13:
     0.687335,0.974376,0.239526,0.49988,0,462,439,23,48,0,0,0.687335,0.974376,0.239526,0.49988,0,462,439,23,48,0,0:
0000
0000
0000
0000
,
0000
0000
0000
0000
,
0000
0000
0000
0000
,
0000
0000
0000
0000
,
2002
0000
0000
0000
,
0000
0000
0000
0000
,
3003
0000
0000
0000
,
0000
0000
0000
0000
,
0000
0000
0000
0000
,
0000
0000
0000
0000
,
0000
0000
0000
0000
,
0000
0000
0000
0000
,
1010
0000
1000
0100
,
0000
0010
0011
0000
,
0001
0100
0000
0010
,
1010
0000
1000
1000
,
0000
0001
0001
0000
,
0100
0000
0000
0000
0010
0000
0000
0000
0000
0100
0000
0000
0010
0000
0000
0000
,
1000
0000
0000
0100
1000
0000
0100
0000
,
0010
0000
0001
0000
0100
0000
0000
0001
,
0100
0010
0100
0001
,
1000
0000
0000
0100
1000
0000
0100
0000
,
0001
0000
0100
0000
1000
0000
0000
0001
,
0100
0001
0100
1000
,
0100
0000
0000
0010
1000
0000
0100
0000
,
0010
0000
0001
0000
0100
0000
0000
0001
,
0100
0010
1000
0001
,
1000
0000
0000
0001
0100
0000
1000
0000
,
0100
0000
0001
0000
1000
0000
0000
0001
,
1000
0010
0001
0010
,
1000
0000
0000
0100
1000
0000
0100
0000
,
1000
0000
0001
0000
0010
0000
0000
0001
,
0010
0000
0001
0010
0000
0100
1000
0001
,
1000
1000
1000
1000
,
0000
1000
0001
0000
0010
0000
0001
0000
,
0010
0100
0010
0100
,
2000
3200
0320
0032
,
0000
0203
2300
3200
,
0320
2030
3020
0230
,
0320
2030
3020
0032
,
0000
0023
2030
3200
,
0320
2030
3020
0032
,
0023
0230
2300
3020
,
0000
0032
0023
0230
,
0302
0203
0320
0230
,
0302
0203
2300
3200
,
0000
0302
0023
0230
,
2300
3002
2003
3200
,
0000
0000
1300
0000
0000
1000
0001
0000
,
0010
0000
0001
0000
0010
0001
0010
0000
,
0000
0100
1000
0000
0100
0000
1000
0000
,
1000
0000
0010
0000
0000
0100
0010
0000
,
1000
0000
0100
0000
1000
0001
1000
0000
,
0000
0001
0010
0000
0001
0000
0010
0000
,
0010
0000
0100
0000
0000
1000
0100
0000
,
0010
0000
0010
0000
0001
0100
0001
0000
,
0000
0100
0010
0000
1000
0000
1000
0000
,
0100
0000
1000
0000
0000
1000
0001
0000
,
0001
0000
0011
0000
0000
0010
0001
0000
,
0100
0000
0100
0000
0100
0010
0100
0000
,
0000
0010
1000
0000
0100
0000
0100
0000
,
0100
0000
1000
0000
0000
0001
1000
0000
,
0001
0000
0100
0000
0001
0000
0000
0100
,
1000
0000
0100
0000
0001
0000
0100
0010
,
0100
0000
0000
0001
0100
0000
1000
0000
,
0100
0000
0010
0000
1000
0000
0000
0100
,
0001
0000
0100
0000
1000
0000
0100
1000
,
0100
0000
0000
0001
0100
0000
0010
0000
,
0001
0000
1000
0000
0001
0000
0000
0010
,
1000
0010
0010
0020
,
0000
0000
0000
0030
,
0000
0000
0000
0000
0100
0000
0000
0010
,
0001
0100
0100
0200
,
0000
0000
0000
0300
,
0000
0000
0000
0000
1000
0000
0000
0100
,
1000
0010
0001
0010
,
1000
0000
0000
0001
0010
0000
1000
0000
,
0010
0000
0001
0000
0100
0000
0000
0001
,
0100
1000
0100
0001
,
1000
0000
0000
0010
0001
0000
0010
0000
,
1000
0001
1000
0100
,
1000
0100
1000
0100
,
1000
0001
1000
0001
,
1000
0001
0010
0001
,
0010
0001
0010
0001
,
0100
0001
0100
0001
,
0100
0001
1000
0100
,
1000
0010
1000
0100
,
0010
0001
0100
0001
,
0010
0001
0100
0010
,
0100
0001
0100
0010
,
1000
0100
1000
0010
,
0100
0010
1000
1000
,
1000
0001
0001
0001
,
0100
0100
0100
0010
,
0010
0010
1000
1000
,
1000
0001
0001
0001
,
0010
0010
0010
0100
,
0100
0100
1000
1000
,
1000
1100
1100
1100
,
0001
0001
0001
0101
,
0101
0101
1000
1000
,
1000
1010
1010
1010
,
0001
0001
0001
0011
,
0011
0011
1000
0001
,
0010
0001
0010
0000
0001
0000
0100
0000
,
0010
0000
1000
0100
1000
0000
0100
0000
,
1000
0000
0100
1000
0100
0000
0010
0000
,
0001
0010
0001
0000
0100
0000
0001
0000
,
0100
0000
0010
1000
0010
0000
0100
0000
,
0001
0000
1000
0001
1000
0001
1000
0001
,
0000
1000
0001
0000
1000
0000
0001
0000
,
0100
0000
0010
0100
0010
0000
0100
0010
,
0100
0000
0010
0100
0010
0100
0010
0100
,
0000
0010
0100
0000
0010
0000
1000
0000
,
0001
0000
1000
0001
1000
0000
0001
1000
,
0001
0000
1000
0001
1000
0000
0100
0000
,
0010
0001
1000
0100
,
0010
0000
0000
0011
0000
0000
0001
0000
,
0000
1001
0000
0000
1000
0000
0110
0000
,
0001
0010
0100
1000
,
0001
0000
0010
0000
0000
1100
0000
0000
,
1000
0000
0000
0110
0000
0000
2002
0000
,
0000
0000
0000
0000
,
0000
0000
0000
3003
;

//--------------- dance-single - ----------------
#NOTES:
     dance-single:
     :
     Hard:
     16:
     0.333253,0.47801,0.364496,0.520709,0,224,189,35,50,0,0,0.333253,0.47801,0.364496,0.520709,0,224,189,35,50,0,0:
0000
0000
0000
0000
,
0000
0000
0000
0000
,
0000
0000
0000
0000
,
0000
0000
0000
0000
,
2002
0000
0000
0000
,
0000
0000
0000
0000
,
3003
0000
0000
0000
,
0000
0000
0000
0000
,
0000
0000
0000
0000
,
0000
0000
0000
0000
,
0000
0000
0000
0000
,
0000
0000
0000
0000
,
1010
0000
0000
0100
1000
0000
0100
0000
,
1000
0000
0010
0000
0011
0000
0000
0010
,
0001
0100
0001
0010
,
1010
0000
0000
0100
1000
0000
1000
0000
,
0010
0000
0001
0000
0101
0000
0000
0010
,
0100
0000
0000
0000
0010
0000
0000
0000
0000
0110
0000
0000
0010
0000
0000
0000
,
1100
0000
0010
0100
1000
0000
0100
0000
,
0010
0000
0001
0000
0101
0000
0010
0001
,
0100
0010
0100
0001
,
1100
0000
0010
0100
1000
0000
0100
0000
,
0001
0000
0100
0000
1100
0000
1000
0001
,
0100
1001
0110
1001
,
1100
0000
0010
0100
1000
0000
0100
0000
,
0010
0000
0001
0000
0101
0000
0010
0001
,
0100
0010
1000
0001
,
1100
0000
1000
0001
0100
0000
1000
0000
,
0100
0000
0001
0000
1001
0000
0010
0001
,
1000
0110
1001
0110
,
1100
0000
0010
0100
1000
0000
1100
0000
,
1001
0000
0101
0000
0010
0000
0100
0001
,
0010
0000
0001
0010
0000
0100
1000
0001
,
1000
1010
1001
1100
,
0100
1000
0001
0000
0011
0000
1001
0000
,
0011
0110
0011
1100
,
2000
3200
0320
0032
,
0023
0230
2300
3200
,
0320
2030
3020
0230
,
0320
2030
3020
0032
,
0023
0230
2300
3200
,
0320
2030
3020
0032
,
0023
0230
2300
3200
,
0320
0032
0023
0230
,
0302
0203
0320
0230
,
0302
0203
2300
3200
,
0320
0032
0023
0230
,
2300
3002
2003
3200
,
0000
0000
1300
0000
0010
1000
0001
0000
,
0010
0000
0001
0000
0010
0001
0010
0000
,
0010
0100
1000
0000
0100
0000
1000
0000
,
1100
0000
0010
0000
1000
0100
0010
0000
,
1000
0000
0100
0000
1000
0001
1000
0000
,
1000
0001
0010
0000
0001
0000
0010
0000
,
0011
0000
0100
0000
0010
1000
0100
0000
,
0010
0000
0011
0000
0001
0100
0001
0000
,
0001
0100
0010
0000
1000
0000
1100
0000
,
0100
0000
1000
0000
0010
1000
0001
0000
,
0001
0000
0011
0000
0100
0010
0001
0000
,
0100
0000
0100
0000
0100
0010
0100
0000
,
1000
0010
1000
0000
0100
0000
0100
0000
,
0100
0000
1000
0000
0010
0001
1000
0000
,
0101
0000
0100
0000
0101
0000
0001
0100
,
1000
0000
0100
0000
0101
0000
0100
0010
,
0100
0000
0100
0001
0100
0000
1000
0000
,
1100
0000
0110
0000
1000
0000
1000
0100
,
0001
0000
0100
0000
1100
0000
0100
1000
,
0100
0000
1000
0001
0100
0000
0010
0000
,
0101
0000
1001
0000
0001
0100
0000
0010
,
1000
0011
1010
0020
,
0000
0000
0000
0030
,
0000
0000
0000
0000
0100
1000
0000
0010
,
0001
0101
1100
0200
,
0000
0000
0000
0300
,
0000
0000
0000
0000
1000
0000
0100
0100
,
1000
0010
0101
0010
,
1000
0000
0001
0001
0010
0000
1000
0000
,
0110
0000
0001
0000
0100
0000
0001
0001
,
0100
1000
0110
0001
,
1000
0000
0010
0010
0001
0000
0010
0000
,
1100
0001
1000
0100
,
1000
1100
1001
1100
,
1000
0001
1000
0011
,
1001
0001
0010
0001
,
0011
1001
0011
0001
,
0100
0001
0100
0101
,
0110
0101
1000
0100
,
1000
1010
1001
1100
,
0010
0001
0100
0011
,
0110
0011
0100
0010
,
0100
0101
0110
1010
,
1000
0100
1000
1010
,
0110
1010
1002
1000
,
2003
0001
0001
3002
,
0100
0100
0203
0010
,
0010
0320
1000
1000
,
2030
0001
0001
3002
,
0010
0010
0023
0100
,
0100
0130
1000
1000
,
0200
1000
0010
1300
,
0001
0001
0020
0001
,
0100
0031
1100
1100
,
1100
1010
1010
1010
,
0101
0101
0101
0011
,
0011
0000
0011
0000
1000
0001
0100
0000
,
0010
0001
0010
0000
0001
0000
0110
0000
,
0010
0001
1000
0100
1000
0000
0100
1000
,
0001
0000
0100
1000
0100
1000
0010
0000
,
0001
0010
0001
0000
0100
0000
0011
0000
,
0100
1000
0010
1000
0010
0000
0100
1000
,
0001
0000
1000
0100
0001
0100
1000
0001
,
0000
0100
1000
0000
0100
0000
0001
0000
,
0110
0000
0010
1000
0010
0000
0100
0001
,
0100
0000
0010
0001
0010
1000
0010
0100
,
0000
0010
0100
0000
0010
0000
1001
0000
,
0001
1000
0100
0001
0100
0000
1000
0100
,
0001
0000
0001
0100
1000
0100
0010
0001
,
1000
0010
0100
0001
1000
0100
0010
0000
,
0110
0000
0000
0011
0000
0000
0101
0000
,
0000
1001
0000
0000
1010
0000
0001
0010
,
0100
1000
0001
0100
0010
1000
0001
0010
,
0100
0000
0110
0000
0000
1100
0000
0000
,
1010
0000
0000
0110
0000
0000
2002
0000
,
0000
0000
0000
0000
,
0000
0000
0000
3003
;
