#TITLE:PARANOiA CHEAP;
#SUBTITLE:;
#ARTIST:HIoNEtOhUNDRED;
#TITLETRANSLIT:;
#SUBTITLETRANSLIT:;
#ARTISTTRANSLIT:;
#GENRE:;
#CREDIT:;
#MUSIC:PARANOiA CHEAP.ogg;
#BANNER:PARANOiA CHEAP.png;
#BACKGROUND:PARANOiA CHEAP-bg.png;
#CDTITLE:;
#SAMPLESTART:1.188;
#SAMPLELENGTH:15.000;
#SELECTABLE:YES;
#OFFSET:0.000;
#BPMS:0.000=200.000;
#STOPS:;
#BGCHANGES:;
#FGCHANGES:;

//--------------- dance-single - ----------------
#NOTES:
     dance-single:
     :
     Beginner:
     4:
     0,0,0,0,0:
0000
0000
0000
0000
,
0000
0000
0000
0000
,
0000
0000
0000
0000
,
0000
0000
0000
0000
,
0000
0000
0000
0000
,
1000
0000
0000
0000
,
0001
0000
0000
0000
,
1000
0000
0001
0000
,
1000
0000
0000
0000
,
0000
1000
0000
0100
,
0000
0010
0000
0000
,
0000
1000
0000
0010
,
0000
1001
1001
0000
,
0001
0000
0010
0000
,
1000
0000
0000
0000
,
0001
0000
0100
0100
,
0000
0110
0110
0000
,
0000
0001
0000
0010
,
0000
0100
0000
0000
,
0000
0001
0000
0010
,
0000
1001
1001
0000
,
1000
0000
0100
0000
,
0001
0000
0000
0000
,
1000
0000
0001
0000
,
0100
0000
0000
0000
,
0000
0000
0100
0100
,
0000
0001
0000
0001
,
0000
0000
0010
0010
,
0010
0000
0110
0000
,
0000
0000
0010
0010
,
0000
0100
0000
0010
,
0000
0000
1000
0000
,
1000
0000
1001
0000
,
0100
0100
0100
0100
,
0100
0100
0100
0100
,
0000
0001
0000
0000
,
1000
0000
0000
0000
,
0010
0010
0010
0010
,
0010
0010
0010
0010
,
0000
0001
0001
0000
,
1000
0000
0000
0000
,
0010
0010
0010
0010
,
0010
0010
0010
0010
,
0000
1000
0000
0000
,
0001
0000
0000
0000
,
0100
0100
0100
0100
,
0100
0100
0100
0100
,
0000
0001
0000
0000
,
0010
0000
0000
0000
,
0001
0000
0100
0000
,
1000
0000
0010
0000
,
0001
0000
0010
0000
,
0001
0001
0001
0000
,
0000
0001
0000
1000
,
0000
1000
0000
0110
,
0000
0001
0000
1001
,
0000
0010
0010
0000
,
0000
1000
0000
0001
,
0000
0001
0000
0110
,
0000
1000
0000
1001
,
0000
0100
0100
0000
,
0000
0010
0000
0010
,
0000
1000
0000
1001
,
0000
0100
0000
1001
,
0000
0000
0000
0000
,
0100
0000
0100
0000
,
1000
0000
1001
0000
,
0001
0000
0100
0000
,
0001
0000
0000
0000
,
1000
0000
0001
0000
,
0010
0000
1001
0000
,
0001
0000
1000
0000
,
0100
0000
0000
0000
,
0100
0000
0010
0000
,
1000
0000
0010
0000
,
0100
0000
0010
0000
,
1000
0000
0010
0000
,
0100
0000
0010
0000
,
1000
0000
0010
0000
,
0100
0000
0010
0000
,
1000
0000
0010
0000
,
0100
0000
0000
0000
,
0010
0010
0000
0010
,
0010
0000
0000
0000
,
0100
0100
0000
0001
,
0001
0000
0000
0100
,
0000
0000
0001
0000
,
1000
0000
0000
0010
,
0000
0000
1000
0000
,
0001
0000
0010
0000
,
1000
1000
1000
0000
;

//--------------- dance-single - ----------------
#NOTES:
     dance-single:
     :
     Easy:
     9:
     0,0,0,0,0:
0000
0000
0000
0000
,
0000
0000
0000
0000
,
0000
0000
0000
0000
,
0000
0000
0000
0000
,
0000
0000
0000
0000
,
1000
1000
1000
1000
,
0001
0001
0001
0001
,
1000
1000
0001
0001
,
1000
1000
1001
0000
,
1000
1000
0001
0100
,
0010
0010
1000
0000
,
1000
1000
0010
0010
,
1000
1001
1001
0000
,
0001
0001
0010
0010
,
1000
1000
0001
0000
,
0001
0010
0100
0100
,
0010
0110
0110
0000
,
0001
0001
1000
0010
,
0100
0100
0001
0000
,
0001
0001
0010
0010
,
0001
1001
1001
0000
,
1000
1000
0100
0001
,
0001
0001
0100
0000
,
1000
0010
0001
0010
,
0100
0110
1001
0000
,
0000
1100
0000
0100
0000
0000
0100
0000
,
0010
0011
0001
0000
,
0000
0110
0000
0000
0010
0000
0010
0000
,
0010
0000
0110
0000
,
0000
0101
0000
0000
0010
0000
0010
0000
,
1000
0100
0001
0000
,
0000
1001
0000
0000
1000
0000
0001
0000
,
1000
0010
1001
0000
,
0100
0100
0100
0100
,
0100
0100
0100
0100
,
0001
0001
1010
0000
,
1000
1001
0001
1001
,
0010
0010
0010
0010
,
0010
0010
0010
0010
,
0100
0000
0001
1001
,
1000
1000
1001
0000
,
0010
0010
0010
0010
,
0010
0010
0010
0010
,
0000
1000
0011
0000
,
0001
1001
1000
1001
,
0100
0100
0100
0100
,
0100
0100
0100
0100
,
0000
0001
0100
1001
,
0010
0010
0100
1001
,
0002
0010
0100
1003
,
2000
0100
0010
3001
,
0001
0000
0010
0000
,
0001
0001
1001
0000
,
0001
0001
1000
1000
,
0001
1000
0110
0000
,
0001
0001
1000
1001
,
0010
0010
0010
0010
,
1000
1000
0001
0001
,
1000
0001
0110
0000
,
1000
1000
0001
1001
,
0100
0100
0100
0100
,
0001
0010
1000
0010
,
0001
1000
1001
0000
,
0100
0100
0010
1001
,
0010
0010
1001
0000
,
0100
0010
0100
0010
,
1000
1000
1001
0000
,
0001
1000
0100
0100
,
0001
0001
1001
0000
,
1000
0001
0001
1000
,
0010
0010
1001
0000
,
0001
0001
1000
1000
,
0100
0100
1001
0000
,
0100
1001
0010
1001
,
1000
0101
0010
0000
,
0100
1001
0010
1001
,
1000
0101
0010
0000
,
0100
1001
0010
1001
,
1000
0101
0010
0000
,
0100
1001
0010
1001
,
1000
0101
0010
0000
,
0200
0001
0010
0001
,
0010
0010
0301
0000
,
0020
1000
0100
1000
,
0100
0100
1030
0000
,
0001
0000
0000
0001
1000
0000
0100
0000
,
0000
0100
0010
0000
0001
0000
1001
0000
,
1000
0000
0000
1000
0001
0000
0010
0000
,
0000
0010
0100
0000
1000
0000
1001
0000
,
0001
0010
0100
0000
0010
0100
1000
0000
,
0001
1000
2002
0000
,
3003
0000
0000
0000
;

//--------------- dance-single - ----------------
#NOTES:
     dance-single:
     :
     Medium:
     11:
     0,0,0,0,0:
0000
0000
0000
0000
,
0000
0000
0000
0000
,
0000
0000
0000
0000
,
0000
0000
0000
0000
,
0000
0000
0000
0000
,
1000
1000
1000
1000
,
0001
0001
0001
0001
,
1000
1000
0001
0001
,
1000
1000
1001
1001
,
1000
1000
0001
0100
,
0010
0000
0010
0000
1000
0100
0000
0100
,
1000
0000
1000
0010
0000
0010
0000
0000
,
1000
1001
0001
1001
,
0001
0001
0010
0010
,
1000
0000
1000
0000
0001
0010
0000
0010
,
0001
0000
0010
0100
0000
0100
0000
0000
,
0010
0010
0110
1001
,
0001
0001
1000
0010
,
0100
0000
0100
0000
0001
0100
0000
0100
,
0001
0000
0001
0010
0000
0010
0000
0000
,
0001
1001
1000
1001
,
1000
1000
0100
0001
,
0001
0001
0100
0100
,
1000
0010
0001
0010
,
0100
0100
0110
1001
,
0000
1100
0000
0100
0000
0000
0100
0000
,
0010
0011
0001
0001
,
0000
0110
0000
0000
0010
0000
0010
0000
,
0010
1000
0100
1001
,
0000
0101
0000
0000
0010
0000
0010
0000
,
1000
0100
0001
0010
,
0000
1001
0000
0000
1000
0000
0001
0000
,
1000
0010
1000
1001
,
0100
0100
0100
0100
,
0100
0100
0100
0100
,
0001
0010
0001
0000
0010
0100
0010
0000
,
1000
1001
0001
1001
,
0010
0010
0010
0010
,
0010
0010
0010
0010
,
0100
0001
0000
1000
0001
0000
1001
0000
,
1000
0001
1000
0001
1000
0000
1001
0000
,
0010
0010
0010
0010
,
0010
0010
0010
0010
,
0000
0100
1000
0000
0001
0010
0001
0010
,
0001
1001
1000
1001
,
0100
0100
0100
0100
,
0100
0100
0100
0100
,
0000
0010
0001
0000
0100
0000
1001
0000
,
0010
0010
0100
1001
,
0002
0010
0100
1003
,
2000
0100
0010
3001
,
0001
0100
0010
1000
,
0001
1000
0001
1000
0001
0000
1001
0000
,
0001
0001
1000
1000
,
0001
1000
0010
0110
,
0001
0001
1000
1001
,
0010
0100
0010
0100
0010
0100
0010
0000
,
1000
1000
0001
0001
,
1000
0001
0100
0110
,
1000
1000
0001
1001
,
0100
0010
0100
0010
0100
0010
0100
0000
,
0001
0010
1000
0010
,
0001
1000
0001
1001
,
0100
0100
0010
1001
,
0010
0001
0010
0001
0100
0000
1001
0000
,
0100
0010
0100
0010
,
1000
1000
0001
1001
,
0001
1000
0100
0100
,
0001
0001
1000
1001
,
1000
0001
0001
1000
,
0010
0010
0100
1001
,
0001
0001
1000
1000
,
0100
0100
0001
0010
,
0100
1001
0010
1001
,
1000
0101
0010
1001
,
0100
1001
0010
1001
,
1000
0101
0010
1001
,
0100
1001
0010
1001
,
1000
0101
0010
1001
,
0100
1001
0010
1001
,
1000
0101
0010
1001
,
0200
0001
0010
0001
,
0010
0010
0010
0000
0301
0000
1001
0000
,
0020
1000
0100
1000
,
0100
0100
0100
0000
1030
0000
1001
0000
,
0001
1000
0000
0001
1000
0000
0100
0010
,
0000
0100
0010
0000
0001
0000
1001
0000
,
1000
0001
0000
1000
0001
0000
0010
0100
,
0000
0010
0100
0000
1000
0000
1001
0000
,
0001
0010
0100
1000
0001
0010
0100
1000
,
0001
1000
2002
0000
,
3003
0000
0000
0000
;

//--------------- dance-single - ----------------
#NOTES:
     dance-single:
     :
     Hard:
     13:
     0.740824,0.743808,0.708389,0.063573,0,571,493,78,7,0,0,0.740824,0.743808,0.708389,0.063573,0,571,493,78,7,0,0:
0000
0000
0000
0000
,
0000
0000
0000
0000
,
0000
0000
0000
0000
,
0000
0000
0000
0000
,
0000
0000
0000
0000
,
1000
1000
1000
1000
,
0001
0001
0001
0001
,
1000
1000
0001
0001
,
1000
1000
1001
1001
,
1000
0100
1000
0000
0001
0000
0100
0000
,
0010
0001
0010
0000
1000
0100
0000
0100
,
1000
0010
1000
0010
0000
0010
0000
0010
,
1000
1001
0001
1001
,
0001
0100
0001
0000
0010
0000
0010
0000
,
1000
0100
1000
0000
0001
0010
0000
0010
,
0001
0100
0010
0100
0010
0100
0001
0000
,
0010
0010
0110
1001
,
0001
0100
0001
0000
1000
0100
1000
0000
,
0100
0000
0100
1000
0001
0100
0000
0100
,
0001
0010
0001
0010
0000
0010
0000
0010
,
0001
0000
1001
0000
1000
0001
1000
0001
,
1000
0010
1000
0010
0001
0010
0001
0010
,
1000
0010
1000
0010
0100
0010
0100
0010
,
1000
0010
0010
0000
0001
0010
0010
0000
,
0100
0010
0100
0000
0110
0000
1001
0000
,
0000
1100
0000
0100
0000
0100
0100
0000
,
0010
0000
0011
0000
0001
1000
0001
1000
,
0000
0100
1000
0000
0010
0100
0010
0100
,
0010
0000
1000
1000
0100
0000
1001
0000
,
0000
0101
0000
0000
0010
0010
0010
0000
,
1100
0100
0011
0010
,
0000
1001
0000
0000
1000
0000
0001
0000
,
1000
0100
0010
0001
1000
0000
1001
0000
,
0100
0001
0100
0001
0100
0001
0100
0001
,
0100
0001
0100
0001
0100
0001
0100
0000
,
0001
0010
0001
0000
0010
0100
0010
0000
,
1000
0100
0010
0001
1000
0000
1001
0000
,
0000
1000
0010
1000
0010
1000
0010
1000
,
0010
1000
0010
1000
0010
1000
0010
0000
,
0100
0001
0000
1000
0001
1000
0001
0000
,
1000
0001
1000
0001
1000
0000
1001
0000
,
0010
1000
0010
1000
0010
1000
0010
1000
,
0010
1000
0010
1000
0010
1000
0010
1000
,
0000
0100
1000
0000
0001
0010
0001
0010
,
0001
0100
0001
0000
1000
0100
1000
0000
,
0100
0001
0100
0001
0100
0001
0100
0001
,
0100
0001
0100
0001
0100
0001
0100
0000
,
0000
0010
0001
0100
0010
1000
0100
1000
,
0010
0010
0100
1001
,
0002
0010
0100
1003
,
2000
0100
0010
0001
,
3001
0010
0100
0000
0010
0100
1000
0000
,
0001
0010
1000
0010
0001
0010
1000
0010
,
0001
0100
0001
0100
1000
0100
1000
0100
,
0001
0100
0001
0100
0010
0000
0110
0000
,
0001
0001
1000
1001
,
0010
0100
0010
0100
0010
0100
0010
0100
,
1000
0010
1000
0010
0001
0010
0001
0010
,
1000
0010
1000
0010
0100
0000
0110
0000
,
1000
1000
0001
1001
,
0100
0010
0100
0010
0100
0010
0100
0010
,
0001
0100
0010
1000
1000
0100
0010
0001
,
0001
0100
1000
0100
0001
0000
1001
0000
,
0100
0100
0010
1001
,
0010
0001
0010
0001
0100
0000
1001
0000
,
0100
0001
0010
0000
0100
1000
0010
0000
,
1000
0100
1000
0000
0001
0000
1001
0000
,
0001
0010
1000
0000
0100
0100
0100
0000
,
0001
0100
0001
0000
1000
0000
1001
0000
,
1000
0010
0001
0000
0001
0100
1000
0000
,
0010
0001
0010
0000
0100
0000
1001
0000
,
0001
0001
0001
0000
1000
1000
1000
0000
,
0100
1000
0100
0000
0001
0000
0010
0000
,
0110
1001
0110
1001
,
1100
0101
0011
1001
,
0110
1001
0110
1001
,
1100
0101
0011
1001
,
0110
1001
0110
1001
,
1100
0101
0011
1001
,
0110
1001
0110
1001
,
1100
0101
0011
1001
,
0200
0001
1000
0001
,
0010
0001
0010
0000
0301
0000
1001
0000
,
0020
1000
0001
1000
,
0100
1000
0100
0000
1030
0000
1001
0000
,
0100
1000
0000
0100
0001
0000
0010
0001
,
0000
0010
1000
0000
0001
0000
1001
0000
,
0010
0001
0000
0010
1000
0000
0100
1000
,
0000
0100
0001
0000
1000
0000
1001
0000
,
0001
0010
0100
1000
0001
0100
1000
0100
,
0001
1000
2002
0000
,
3003
0000
0000
0000
;
