#TITLE:PARANOiA (FROM NONSTOP MEGAMIX);
#SUBTITLE:;
#ARTIST:180;
#TITLETRANSLIT:;
#SUBTITLETRANSLIT:;
#ARTISTTRANSLIT:;
#GENRE:;
#CREDIT:;
#MUSIC:PARANOiA (FROM NONSTOP MEGAMIX).ogg;
#BANNER:PARANOiA (FROM NONSTOP MEGAMIX).png;
#BACKGROUND:PARANOiA (FROM NONSTOP MEGAMIX)-bg.png;
#CDTITLE:;
#SAMPLESTART:3.148;
#SAMPLELENGTH:15.000;
#SELECTABLE:YES;
#OFFSET:0.000;
#BPMS:0.000=190.000;
#STOPS:;
#BGCHANGES:;
#FGCHANGES:;

//--------------- dance-single - ----------------
#NOTES:
     dance-single:
     :
     Beginner:
     3:
     0,0,0,0,0:
0000
0000
0000
0000
,
0000
0000
0000
0000
,
0000
0000
1000
0000
,
0000
0000
0000
0000
,
0000
0000
0001
0000
,
0000
0000
0000
0000
,
0000
0000
0100
0000
,
0000
0000
0001
0000
,
1001
0000
1000
0000
,
0000
0000
0010
0000
,
0110
0000
0001
0000
,
0001
0000
0001
0000
,
0010
0000
1000
0000
,
1000
0000
0100
0000
,
0010
0000
0000
0000
,
0100
0000
0001
0000
,
0001
0000
1000
0000
,
1000
0000
0010
0010
,
0010
0000
0000
0000
,
0100
0000
1000
0000
,
1000
0000
0100
0000
,
0001
0000
0010
0000
,
0100
0000
0100
0100
,
0100
0000
0100
0100
,
0100
0000
0010
0000
,
0100
0000
0010
0010
,
0010
0000
1000
0000
,
0001
0000
0100
0000
,
0000
0001
0001
0000
,
0010
0000
0100
0000
,
1001
0000
0001
0000
,
1000
0000
0010
0000
,
0000
0100
0100
0000
,
0100
0000
0010
0000
,
1001
0000
0100
0000
,
1000
0000
0100
0000
,
0000
0010
0010
0000
,
0010
0000
0010
0000
,
1001
0000
0010
0000
,
0001
0000
0010
0000
,
0000
0010
0010
0010
,
0010
0000
0010
0000
,
1001
0000
0000
0000
;

//--------------- dance-single - ----------------
#NOTES:
     dance-single:
     :
     Easy:
     7:
     0,0,0,0,0:
0000
0000
0000
0000
,
0000
0000
0000
0000
,
0000
0000
0000
0000
1100
0000
0000
0100
,
0000
0000
0000
0000
,
0000
0000
0000
0000
0000
0010
0000
0101
,
0000
0000
0000
0000
,
0000
0000
0000
0000
0110
0000
0000
1000
,
0000
0100
0001
0010
,
1001
0000
0110
0000
0000
1000
0000
1100
,
0000
1000
0010
0100
,
0110
0000
0001
0100
,
0001
0100
0001
0100
,
0010
0000
0000
0000
1000
0100
0010
0000
,
1000
0010
0100
0100
,
0010
0000
0000
0100
0000
1001
0000
0000
,
0100
0000
0001
0000
0001
0100
0010
0000
,
0001
0000
1000
0100
,
1000
0100
0010
0010
,
0010
0000
0000
0100
0000
0110
0000
0000
,
0100
0000
0100
0000
1000
0010
0100
0000
,
1000
0000
0100
0010
,
0001
0100
0010
0010
,
0100
0000
0100
0100
,
0100
0100
0100
0100
,
0100
0000
0100
0000
0010
1000
0100
0000
,
0100
0000
0010
1001
,
0100
0000
0000
0000
1000
0100
0000
0000
,
0001
0000
0010
0000
0100
0000
0000
0100
,
0000
0000
0001
0000
0010
0001
0000
0000
,
0010
0010
0100
0001
,
1001
0000
0000
0000
0001
0010
0000
0000
,
1000
0000
0100
0000
0010
0000
0000
0010
,
0000
0000
1000
0000
0100
1000
0000
0000
,
0100
0100
0010
1000
,
1001
0000
0000
0000
0100
0001
0000
0000
,
1000
0000
0010
0000
0100
0000
0000
0100
,
0000
0000
1000
0000
0010
1000
0000
0000
,
0010
0100
0010
1000
,
1001
0000
0000
0000
0010
1000
0000
0000
,
0001
0000
0100
0000
0010
0000
0000
0010
,
0000
0001
0010
1010
,
0010
0011
0010
1001
,
0000
0101
0000
0000
0000
0000
0000
0000
;

//--------------- dance-single - ----------------
#NOTES:
     dance-single:
     :
     Medium:
     10:
     0,0,0,0,0:
0000
0000
0000
0000
,
0000
0000
0000
0000
,
0000
0000
0000
0000
1100
0000
1000
0100
,
0000
0000
0000
0000
,
0000
0000
0000
0000
0000
0011
0000
0101
,
0000
0000
0000
0000
,
0000
0000
0000
0000
0110
0000
0010
1000
,
0000
1000
0100
0000
0001
0100
0010
0000
,
1001
0000
0110
0000
0001
1000
0000
1100
,
0000
0100
1000
0000
0010
0001
0100
0010
,
0100
0000
0000
0000
0001
0010
0100
1000
,
0001
0000
0100
0000
0001
1000
0100
0100
,
0010
0000
1000
0000
1000
0100
0010
0001
,
1000
0000
0010
0000
0100
0010
0100
0000
,
0010
0100
0010
0100
0000
1001
0000
1000
,
0100
0000
0001
0000
0001
0100
0010
0100
,
0001
0000
1001
0000
1000
0010
0100
0001
,
1000
0100
0010
0010
,
0010
0001
0010
0100
0000
0110
0000
1000
,
0100
0000
0100
0000
1000
0010
0100
0010
,
1000
0000
0001
0000
0100
1000
0010
0100
,
0001
0000
0100
0000
0010
0100
0010
1000
,
0100
0000
0001
0000
0100
1000
0100
0010
,
0100
0000
0100
0000
0100
1000
0100
0010
,
0100
0000
0100
0000
0010
1000
0100
0000
,
0100
1000
0010
0000
0010
0000
1001
0000
,
0100
0000
0000
0000
1000
0100
0000
0010
,
0001
0000
0010
0000
0100
0000
0010
0100
,
0000
0001
0001
0000
0010
0001
0000
0001
,
0010
0000
0010
0000
0100
1000
0001
0000
,
0001
0010
1000
0000
0001
0010
0000
0100
,
1000
0000
0100
0000
0010
0000
0100
0010
,
0000
1000
1000
0000
0100
1000
0000
1000
,
0100
0000
0100
0000
0010
0001
1000
0000
,
1000
0100
0001
0000
0100
0001
0000
0010
,
1000
0000
0010
0000
0100
0000
0010
0100
,
0000
1000
1000
0000
0010
1000
0000
1000
,
0010
0000
0100
0000
0010
0001
1000
0000
,
1000
0100
0001
0000
0010
1000
0000
0100
,
0001
0000
0100
0000
0010
0000
0100
0010
,
0000
0001
0001
0000
0010
0100
0010
0100
,
0010
0100
0010
0000
0010
0000
1001
0000
,
1000
0101
0000
0000
0000
0000
0000
0000
;

//--------------- dance-single - ----------------
#NOTES:
     dance-single:
     :
     Hard:
     12:
     0.687998,0.719141,0.503163,0,0,268,240,28,0,0,0,0.687998,0.719141,0.503163,0,0,268,240,28,0,0,0:
0000
0000
0000
0000
,
0000
0000
0000
0000
,
0000
0000
0000
0000
1100
0000
1100
1100
,
0000
0000
0000
0000
,
0000
0000
0000
0000
0000
0011
0000
0101
,
0000
0000
0000
0000
,
0000
0000
0000
0000
0110
0000
0010
1000
,
0000
1000
0100
0010
0001
0100
0010
0100
,
1000
0100
0010
0100
0001
1000
0000
1100
,
0000
0100
1000
0100
0010
0001
0100
0010
,
0100
0000
0000
0000
0001
0010
0100
1000
,
0001
0010
0100
1000
0001
0001
0100
0100
,
0010
0010
1000
0000
1000
0100
0010
0001
,
1000
0100
0010
0001
0100
0010
0100
0000
,
0010
0100
0010
0100
0000
1001
0000
1000
,
0100
0010
0001
0000
0001
0100
1000
0100
,
0001
0000
1001
0000
1000
0010
0100
0001
,
1000
0010
0100
0001
0010
0000
0010
0000
,
0010
0001
0010
0100
0000
0110
0000
1000
,
0100
0010
0100
0000
1000
0010
0001
0010
,
1000
0100
0001
0000
0100
1000
0010
0100
,
0001
0010
0100
1000
0010
0100
0010
1000
,
0100
0010
0001
0000
0100
1000
0100
0001
,
0100
1000
0100
0001
0100
1000
0100
0001
,
0100
1000
0100
0000
0010
1000
0100
0100
,
0100
1000
0010
0010
0010
0000
1001
0000
,
0100
0000
0000
0000
1100
1100
0000
0010
,
0001
0001
0010
0000
0100
1000
0010
0100
,
0000
0001
0001
0000
0010
0001
0010
0001
,
0010
0001
0010
0000
0100
1000
1001
1000
,
0001
0010
1001
0000
0011
0011
0000
0100
,
1000
1000
0100
0000
0010
0001
0100
0010
,
0000
1000
1000
0000
0100
1000
0100
1000
,
0100
1000
0100
0000
0010
0001
1001
0001
,
1000
0100
1001
0000
0101
0101
0000
0010
,
1000
1000
0010
0000
0100
0001
0010
0100
,
0000
1000
1000
0000
0010
1000
0100
1000
,
0010
1000
0100
0000
0010
0001
1001
0001
,
1000
0100
1001
0000
1010
1010
0000
0100
,
0001
0001
0100
0000
0010
1000
0100
0010
,
0000
0001
0001
0000
0010
0100
0010
0100
,
0010
0100
0010
0100
0010
0000
1001
0000
,
1100
0101
0000
0000
0000
0000
0000
0000
;
