#TITLE:PARANOIA EVOLUTION;
#SUBTITLE:;
#ARTIST:izzard;
#TITLETRANSLIT:;
#SUBTITLETRANSLIT:;
#ARTISTTRANSLIT:;
#GENRE:;
#CREDIT:;
#MUSIC:PARANOIA EVOLUTION (izzard).ogg;
#BANNER:PARANOIA EVOLUTION (izzard).png;
#BACKGROUND:PARANOIA EVOLUTION (izzard)-bg.png;
#CDTITLE:;
#SAMPLESTART:1.208;
#SAMPLELENGTH:15.000;
#SELECTABLE:YES;
#OFFSET:0.000;
#BPMS:0.000=200.000;
#STOPS:;
#BGCHANGES:;
#FGCHANGES:;

//--------------- dance-single - ----------------
#NOTES:
     dance-single:
     :
     Beginner:
     4:
     0,0,0,0,0:
0000
0000
0000
0000
,
0000
0000
0000
0000
,
0000
0000
0000
0000
,
0000
0000
0000
0000
,
0000
0000
0000
0000
,
0000
0000
0000
0000
,
0000
0000
0000
0000
,
0000
0010
0000
0010
,
0000
0000
0000
0000
,
0010
0000
0000
0000
,
0100
0000
0000
0000
,
0001
0000
0010
0000
,
0010
0000
1000
0000
,
0100
0000
0000
0000
,
0010
0000
0000
0000
,
0010
0000
0100
0000
,
0100
0000
0110
0000
,
0010
0000
0000
0000
,
0100
0000
0000
0000
,
0110
0000
0001
0000
,
1000
0000
0001
0000
,
0100
0000
0000
0000
,
0010
0000
0000
0000
,
1000
0000
0010
0000
,
0001
0000
0110
0000
,
1001
0000
0000
0001
,
0000
0000
0000
0000
,
0100
0100
0100
0100
,
0000
0000
0000
0000
,
1001
0000
0000
1000
,
0000
0000
0000
0000
,
0001
0001
0001
0001
,
0000
0000
0000
0000
,
0100
0100
0100
0000
,
0100
0100
0000
0000
,
0000
1000
0000
0000
,
0001
0000
0000
0000
,
0010
0010
0010
0000
,
0010
0010
0000
0000
,
0000
0001
0000
0000
,
1000
0000
0000
0000
,
0000
0000
0010
0010
,
0000
0010
0010
0000
,
0010
0000
0000
0000
,
1000
0000
1000
0000
,
1000
0000
0100
0000
,
1000
0000
1000
0000
,
1000
0000
0000
0000
,
1000
0000
0010
0000
,
1000
0000
1000
0000
,
1000
0000
1000
0000
,
1000
0000
0000
0000
,
1000
0000
0000
0000
,
1000
0000
0000
0000
,
0110
0000
0001
0000
,
0001
0000
1000
0000
,
0001
0000
0000
0000
,
0001
0000
0000
0000
,
1001
0000
0001
0000
,
0110
0000
0110
0000
,
0001
0000
0000
0000
,
0100
0000
0000
0001
,
0001
0000
0000
0000
,
1000
0000
1001
0000
,
1000
0000
0000
0000
,
0001
0000
0000
1000
,
1000
0000
0000
0000
,
0001
0000
1001
0000
,
1000
0000
0001
0000
,
1000
0000
0001
0000
,
1000
0000
1001
0000
,
1001
0000
0001
0000
,
0001
0001
0000
0010
,
0010
0000
0100
0000
,
1001
1001
0000
0000
,
1001
1001
1001
0000
;

//--------------- dance-single - ----------------
#NOTES:
     dance-single:
     :
     Easy:
     9:
     0.517233,0.635716,0.842008,0,0,344,264,80,0,0,0,0.517233,0.635716,0.842008,0,0,344,264,80,0,0,0:
0000
0000
0000
0000
,
0000
0000
0000
0000
,
0000
0000
0000
0000
,
0000
0000
0000
0000
,
0000
0000
0000
0000
,
0000
0000
0000
0000
,
0000
0000
0000
0000
,
0000
0010
0000
0010
,
0010
0000
0000
0010
0000
0000
0000
0000
,
0010
1000
0001
0100
,
0100
0001
1000
0000
,
0001
0100
0010
1000
,
0010
0010
1001
0000
,
0100
0001
1000
0010
,
0010
1000
0001
0000
,
0010
1000
0100
0001
,
0100
0100
0110
0000
,
0010
0011
0010
0010
,
0100
0100
0010
0000
,
0110
0001
0001
0100
,
1000
0010
0001
0000
,
0100
0101
0100
0100
,
0010
0010
0100
0000
,
1100
1000
0010
0010
,
0001
0100
0110
0000
,
1001
0000
0000
0100
0000
0000
0001
0000
,
0000
0010
0000
1000
0000
0000
0000
0000
,
0100
0100
0100
0100
,
0000
1000
0000
0100
0000
0110
0000
0000
,
1001
0000
0000
0100
0000
0000
1000
0000
,
0000
0010
0000
0010
0000
0000
0000
0000
,
0001
0001
0001
0001
,
0010
0010
0110
0000
,
0100
0100
0100
0000
,
0100
0100
0000
0000
,
1010
0000
1000
0000
0000
0100
0000
0000
,
0001
0010
1001
0000
,
0010
0010
0010
0000
,
0010
0010
0000
0000
,
1001
0000
0001
0000
0000
0100
0000
0000
,
1000
0000
0010
0000
1001
0000
0000
1001
,
0000
0000
0001
1100
,
0000
0010
0011
1000
,
0110
1000
0101
1001
,
1000
0010
1000
1000
,
1000
1000
0100
0100
,
1000
0001
1000
0001
,
1000
0010
0110
0000
,
1000
0010
0010
0100
,
1000
0010
1000
0100
,
1000
0001
1000
0001
,
1000
0010
0110
0000
,
1000
0001
0001
1000
,
1000
0001
1000
0000
,
0110
0110
0001
0110
,
0001
1001
1001
0000
,
0001
1000
1000
0001
,
0001
0100
1000
0000
,
1001
1001
0001
1001
,
0110
0100
0110
0000
,
0001
0000
0000
0100
0000
0000
1000
0000
,
0100
0000
0000
0010
0000
0000
0001
0000
,
0001
0100
0100
0100
,
1000
0001
0011
0000
,
1000
0000
0000
0100
0000
0000
0001
0000
,
0010
0000
0000
0100
0000
0000
1000
0000
,
1000
0010
0010
0010
,
0001
1000
1001
0000
,
1000
0100
0001
0100
,
1000
0010
0001
0110
,
1000
0001
1001
0001
,
1001
1000
0001
1001
,
0001
0001
0010
0010
,
0010
1000
0100
0110
,
1001
1000
0101
1000
,
0110
0101
1001
0000
;

//--------------- dance-single - ----------------
#NOTES:
     dance-single:
     :
     Medium:
     11:
     0.545801,0.675448,0.589405,0,0,363,307,56,0,0,0,0.545801,0.675448,0.589405,0,0,363,307,56,0,0,0:
0000
0000
0000
0000
,
0000
0000
0000
0000
,
0000
0000
0000
0000
,
0000
0000
0000
0000
,
0000
0000
0000
0000
,
0000
0000
0000
0000
,
0000
0000
0000
0000
,
0000
0010
0000
0010
,
0010
0000
0000
0010
0000
0010
0000
0000
,
0010
1000
0001
0100
,
0100
0000
0001
0000
1000
0001
0000
0101
,
0000
0100
0010
0001
,
0010
0010
1000
1001
,
0100
0010
0001
0000
1000
0000
0010
0000
,
0010
0000
1000
0000
0001
1000
0000
1010
,
0000
1000
0000
0000
0100
0000
0001
0000
,
0100
0100
0010
1001
,
0010
0011
0010
0010
,
0100
0000
0100
0000
0010
0100
0000
0110
,
0000
0001
0001
0100
,
1000
0010
0001
0110
,
0100
0000
0101
0000
0100
0001
0100
0000
,
0010
0000
0010
0000
0100
0001
0000
1100
,
0000
1000
0010
0010
,
0001
0100
1000
0110
,
1001
0000
1000
0100
0000
0000
0001
0000
,
0000
0010
0000
1000
0000
0000
0000
0000
,
0100
0100
0100
0100
,
0000
1000
0100
0000
0000
0110
0000
0000
,
1001
0000
0001
0100
0000
0000
1000
0000
,
0000
0010
0000
0010
0000
0000
0000
0000
,
0001
1000
0001
1000
0001
1000
0001
0000
,
0010
0010
0110
1001
,
0100
0010
0100
0010
0100
0010
0000
0010
,
0100
0010
0100
0010
0000
0000
0000
0000
,
1010
0000
1000
0000
0000
0100
0000
0000
,
0001
0010
1001
0000
,
0010
0100
0010
0100
0010
0000
0000
0100
,
0010
0100
0010
0100
0000
0000
0000
0000
,
1001
0000
0001
0000
0000
0100
0000
0000
,
1000
0000
0010
0000
1001
0000
0000
1001
,
0000
0000
0001
1100
,
0000
0010
0011
1000
,
0110
1000
0101
1001
,
1000
0100
0010
0000
1000
0100
1000
0000
,
1000
1000
0100
0100
,
1000
0100
0001
0000
1000
0100
0001
0000
,
1000
0010
0100
0001
,
1000
0100
0010
0000
0010
0001
0100
0000
,
1000
0010
1000
0100
,
1000
0100
0001
0000
1000
0010
0001
0000
,
1000
0010
0100
0001
,
1000
0001
0001
1000
,
1000
0010
0001
0000
1000
0100
0000
0110
,
0000
0110
0001
0110
,
0001
0001
1000
1001
,
0001
1000
1000
0001
,
0001
0100
0100
0000
1000
0001
0000
1001
,
0000
1001
0001
1001
,
0010
0100
0110
1000
,
0001
0100
0000
0100
0000
0010
1000
0000
,
0100
0000
0000
0010
0000
0100
0001
0000
,
0001
0010
0100
0000
0100
1000
0100
0000
,
1000
1001
0001
0011
,
1000
0000
0000
0100
0000
0010
0001
0000
,
0010
0000
0000
0100
0000
0010
1000
0000
,
1000
0100
0010
0000
0010
0001
0010
0000
,
0001
1001
1000
0000
,
1000
0000
0100
0000
0001
0010
0100
0000
,
1000
0100
0010
0000
0001
0000
0110
0000
,
1000
0100
0001
0000
1000
0000
0001
0000
,
0001
0100
1000
0000
0001
0000
1001
0000
,
0001
0000
0001
0000
0010
1000
0010
1000
,
0010
1000
0100
0110
,
0001
0010
1000
0000
0001
0100
1000
0000
,
0010
0100
1001
0000
;

//--------------- dance-single - ----------------
#NOTES:
     dance-single:
     :
     Hard:
     13:
     0.699167,0.874109,0.452579,0,0.031575,465,422,43,0,0,0,0.699167,0.874109,0.452579,0,0.031575,465,422,43,0,0,0:
0000
0000
0000
0000
,
0000
0000
0000
0000
,
0000
0000
0000
0000
,
0000
0000
0000
0000
,
0000
0000
0000
0000
,
0000
0000
0000
0000
,
0000
0000
0000
0000
,
0000
0010
0000
0010
,
0010
0000
0000
0010
0000
0010
1000
0001
,
0010
0100
1000
0000
0001
1000
0100
0000
,
0100
0010
0001
0000
1000
0001
0000
0101
,
0000
0000
0100
0000
0010
0100
0001
0000
,
0010
0001
0010
0100
1000
0000
1001
0000
,
0100
0010
0001
0000
1000
0001
0010
0000
,
0010
0100
1000
0000
0001
1000
0000
1010
,
0000
1010
0000
0000
0100
0010
0001
0000
,
0100
0100
0010
1001
,
0010
0000
0011
0000
0010
1000
0010
0001
,
0100
1000
0100
0001
0010
0100
1000
0000
,
0011
0000
0001
0100
0000
1000
0100
0000
,
1000
0010
0000
0010
0001
0000
0110
0000
,
0100
0000
1100
0000
0100
0001
0100
1000
,
0010
0001
0010
1000
0100
0010
0001
0000
,
1100
0000
1000
0010
0000
0001
0010
0000
,
0001
0100
0000
0100
1000
0000
0110
0000
,
1001
0000
1000
0100
0000
0000
0110
0000
,
0001
0010
0000
0010
0000
0000
0000
0000
,
0110
0110
0110
0110
,
0100
1000
0100
0000
0100
0010
0000
0000
,
1001
0000
0001
0100
0000
0100
1000
0000
,
1000
0010
0000
0010
0000
0000
0000
0000
,
0001
1000
0001
1000
0001
1000
0001
1000
0001
1000
0001
1000
0001
0000
0000
0000
,
0011
1010
0110
1001
,
0100
0100
0100
0100
0100
0100
0100
0100
,
0100
0100
0100
0100
0000
0000
0000
0000
,
1010
0000
1000
1000
0000
0100
0100
0000
,
0001
0001
0010
0000
1001
0000
0000
0000
,
0010
0010
0010
0010
0010
0010
0010
0010
,
0010
0010
0010
0010
0000
0000
0000
0000
,
1001
0000
0001
0001
0000
0100
0100
0000
,
1000
1000
0010
0000
0110
0000
0000
1001
,
0000
0000
0101
1100
,
0000
1010
0011
1001
,
0110
1100
0101
1001
,
1000
0100
0010
0100
1000
0100
1000
0010
,
1000
0001
1000
0010
0100
0010
0100
0001
,
1000
0100
0001
0100
1000
0100
0001
0100
,
1000
0100
0010
0001
0100
0010
0001
0010
,
1000
0100
0010
0100
0010
0001
0100
0010
,
1000
0100
0010
0100
1000
0010
0100
0001
,
1000
0100
0001
0100
1000
0010
0001
0010
,
1000
0100
0010
0001
0100
0000
1001
0000
,
1000
0100
0001
0000
0001
0010
1000
0000
,
1000
0010
0001
0010
1000
0000
0101
0000
,
1000
0100
0110
0000
0001
0100
0110
0000
,
0001
1001
1000
1001
,
0001
0100
1000
0000
1000
0010
0001
0000
,
0001
0100
0100
0010
1000
0000
1010
0000
,
1000
1001
0001
1001
,
1010
0101
0110
1000
,
0001
0100
0010
0000
0100
0010
1000
0000
,
0100
0010
0001
0010
0000
0100
0001
0000
,
0001
0010
0100
0000
0100
0100
0100
0000
,
1000
0100
1001
0010
0001
0000
0011
0000
,
1000
0010
0100
0000
0010
0100
0001
0000
,
0010
0100
1000
0100
0000
0010
1000
0000
,
1000
0100
0010
0000
0010
0010
0010
0000
,
0001
0100
1001
0010
1000
0000
0000
0000
,
1000
0100
0100
0000
0001
0100
0100
0000
,
1000
0010
0010
0000
0001
0010
0010
0000
,
1000
0100
0001
0010
1000
0000
1001
0000
,
0001
0100
1000
0010
0001
0000
1001
0000
,
0001
0010
0001
0001
0010
1000
0010
1000
,
0010
0100
1000
1000
0100
1000
0100
1000
,
0001
0010
1000
1000
0001
0100
1000
1000
,
0010
0100
1001
0000
;
