#TITLE:未来コネクション;
#SUBTITLE:;
#ARTIST:ЯeaL;
#TITLETRANSLIT:Mirai konekushon;
#SUBTITLETRANSLIT:;
#ARTISTTRANSLIT:Real;
#GENRE:;
#CREDIT:;
#BANNER:Mirai konekushon.png;
#BACKGROUND:Mirai konekushon-bg.png;
#LYRICSPATH:;
#CDTITLE:;
#MUSIC:Mirai konekushon.ogg;
#OFFSET:-1.663161;
#SAMPLESTART:43.619972;
#SAMPLELENGTH:14.999994;
#SELECTABLE:YES;
#BPMS:0.000000=143.000000
;
#STOPS:
;
#BGCHANGES:-0.900=Mirai Konekushon.avi=1.000=0=0=1=StretchNormal====,
99999=-nosongbg-=1.000=0=0=0 // don't automatically add -songbackground-
;
#KEYSOUNDS:;
#ATTACKS:;

//---------------dance-single - ----------------
#NOTES:
     dance-single:
     :
     Hard:
     10:
     0.409144,0.421178,0.280785,0.134777,0.005616,255.000000,230.000000,25.000000,12.000000,0.000000,0.000000,0.409144,0.421178,0.280785,0.134777,0.005616,255.000000,230.000000,25.000000,12.000000,0.000000,0.000000:
// measure 0
0000
0000
0000
0000
,  // measure 1
0000
0000
0000
0000
,  // measure 2
1000
0100
1000
0000
0001
0100
0001
0000
,  // measure 3
1000
0010
0100
0000
0001
0100
0010
0000
,  // measure 4
1000
0010
1000
0000
0001
0010
0001
0000
,  // measure 5
1000
0100
0010
0000
0001
0010
0100
0000
,  // measure 6
1001
0000
0000
0110
0000
0000
1010
0000
,  // measure 7
2002
0000
0000
3000
,  // measure 8
1003
0000
0001
0100
0010
0000
1000
0100
,  // measure 9
0000
0010
0000
0001
0000
0100
0010
1000
,  // measure 10
0100
0000
1000
0010
0000
0010
0000
0110
,  // measure 11
0000
0101
0100
1001
,  // measure 12
0001
0000
1000
0100
0010
0100
1000
0010
,  // measure 13
0000
0010
0000
0110
0000
1000
0000
0001
,  // measure 14
0100
1010
1000
1001
,  // measure 15
0001
0010
0210
0000
,  // measure 16
1300
0000
0010
0100
0001
0000
0010
0100
,  // measure 17
0000
1000
0000
0010
0000
0100
0010
0000
,  // measure 18
1010
0000
1000
0001
0010
0100
1000
0010
,  // measure 19
0000
0010
0000
0110
0000
0000
0010
0100
,  // measure 20
0010
0000
0010
0000
1010
0000
0100
0010
,  // measure 21
0100
0000
0010
0000
0011
0000
1000
0100
,  // measure 22
1000
0000
0001
0000
1000
0100
0001
0200
,  // measure 23
0000
0000
0000
0000
0000
0000
0000
1300
,  // measure 24
0001
0000
0000
0000
,  // measure 25
1000
0000
1000
0000
0001
0000
0001
0100
,  // measure 26
0010
0000
0100
0010
0000
0010
1000
0100
,  // measure 27
0000
0100
1000
0010
0000
0010
0100
0001
,  // measure 28
0000
0001
0100
0010
0000
0010
1000
0000
,  // measure 29
0010
0000
1001
0000
1002
0000
0000
0100
,  // measure 30
0203
0000
0000
0000
0000
0000
0000
0310
,  // measure 31
1000
0100
0010
0001
0010
0001
0100
0010
,  // measure 32
1000
0000
0010
1000
0000
0010
1000
0000
,  // measure 33
0001
0000
0001
0000
1000
0000
1000
0010
,  // measure 34
0100
0000
0010
0100
0000
0100
0001
0010
,  // measure 35
0000
0010
0001
0100
0000
0100
0010
1000
,  // measure 36
0000
1000
0010
0100
0000
0100
0001
0000
,  // measure 37
0100
0000
1001
0000
2001
0000
0000
0010
,  // measure 38
3020
0000
0000
0000
0000
0000
0000
0130
,  // measure 39
0001
0010
0100
1000
0100
1000
0010
0100
,  // measure 40
0001
0000
0100
0001
0000
0100
0001
0000
,  // measure 41
1001
0000
0000
0110
0000
0000
2002
0000
,  // measure 42
0000
0000
0000
0000
3003
0000
0000
1000
,  // measure 43
0001
0010
0100
1000
0100
0010
0001
0100
,  // measure 44
0010
0000
0100
0010
0000
1000
0100
0000
,  // measure 45
1000
0010
1000
0000
0010
0100
0010
0000
,  // measure 46
0100
0001
0010
0000
0100
1000
0010
0000
,  // measure 47
0100
0001
0100
0000
0001
0010
0001
0000
,  // measure 48
1000
0001
0010
0000
0100
1000
0001
0000
,  // measure 49
1001
0000
0000
0110
0000
0000
2002
0000
0000
0000
0000
0000
0000
0000
0000
0000
,  // measure 50
3003
0000
0000
0000
;

//---------------dance-single - ----------------
#NOTES:
     dance-single:
     :
     Medium:
     7:
     0.349778,0.393099,0.314480,0.134777,0.005616,218.000000,190.000000,28.000000,12.000000,0.000000,0.000000,0.349778,0.393099,0.314480,0.134777,0.005616,218.000000,190.000000,28.000000,12.000000,0.000000,0.000000:
0000
0000
0000
0000
,
0000
0000
0000
0000
,
1000
1000
0001
0001
,
0100
0010
0100
0000
0010
0000
1001
0000
,
0001
0001
1000
1000
,
0010
0100
0010
0000
0100
0000
1001
0000
,
0110
0000
0000
1001
0000
0000
0110
0000
,
2002
0000
0000
3000
,
1003
1000
0010
0010
,
0100
0000
0001
0000
0010
0100
1000
0000
,
0010
1010
0100
0101
,
0100
0000
0110
0000
0010
0100
0010
0000
,
1000
1000
0010
0010
,
0100
0000
0001
0000
1000
0010
0100
0000
,
0010
1010
0001
0101
,
0010
0110
1001
1000
,
0001
0000
0100
0000
0100
0000
0010
1000
,
0000
1000
0000
1100
0000
1000
0100
0000
,
1000
0000
0100
0000
0010
0000
0001
0010
,
0000
0001
0000
0011
0000
0000
0010
0000
,
0001
0000
1000
0000
0001
1000
0001
0000
,
0100
0000
0010
0000
0100
0010
0100
0000
,
0001
0000
0010
0000
0001
1000
0002
2000
,
0000
0000
0000
3003
,
0110
0000
0000
0000
,
1000
0100
0010
0001
,
0100
0000
0100
0010
0000
0000
1000
0000
,
0001
0001
1000
1000
,
0100
1100
0010
0011
,
1001
0000
0100
0000
0100
0000
0000
2000
,
0002
0000
0000
3003
,
0010
0001
0010
0000
0001
0100
0001
0000
,
0100
0000
0010
1000
0000
1000
0001
0000
,
0001
0010
0100
1000
,
0010
0000
0010
0100
0000
0000
0001
0000
,
1000
1000
0001
0001
,
0010
0011
0100
1100
,
1001
0000
0010
0000
0010
0000
0000
0002
,
2000
0000
0000
3003
,
0100
1000
0100
0000
1000
0010
1000
0000
,
0010
0000
0100
0001
0000
0001
1000
0000
,
1001
0000
0000
0110
0000
0000
2002
0000
,
0000
0000
0000
3003
,
1000
0010
1000
0000
0001
0100
0001
0000
,
1000
0000
0010
0100
0000
0100
0010
0000
,
1000
0100
0010
0001
,
1000
0010
0100
0000
0001
0000
0101
0000
,
1000
0010
0100
0001
,
0010
0001
0010
0000
0100
0000
1100
0000
,
1000
0000
0000
0001
0000
0000
2002
0000
0000
0000
0000
0000
0000
0000
0000
0000
,
3003
0000
0000
0000
;

//---------------dance-single - ----------------
#NOTES:
     dance-single:
     :
     Beginner:
     2:
     0.162053,0.194584,0.179703,0.000000,0.000000,101.000000,85.000000,16.000000,0.000000,0.000000,0.000000,0.162053,0.194584,0.179703,0.000000,0.000000,101.000000,85.000000,16.000000,0.000000,0.000000,0.000000:
0000
0000
0000
0000
,
0000
0000
0000
0000
,
1000
0000
1000
0000
,
0001
0000
0001
0000
,
1000
0000
1000
0000
,
0001
0000
0001
0000
,
0110
0000
0000
0000
,
1001
0000
0000
0000
,
1000
0000
1000
0000
,
0010
0000
0010
0000
,
0100
0000
0100
0000
,
0001
0000
0001
0000
,
0010
0000
0010
0000
,
0001
0000
0001
0000
,
0100
0000
0100
0000
,
0010
0000
1001
0000
,
1000
0000
1000
0000
,
0001
0001
0000
0000
,
0100
0000
0100
0000
,
0010
0010
0000
0000
,
1000
0000
1000
0000
,
0001
0000
0001
0000
,
0100
0000
0100
0000
,
1001
0000
0000
0000
,
0110
0000
0000
0000
,
1000
0000
1000
0000
,
0001
0000
0001
0000
,
0010
0000
0010
0000
,
0100
0000
0100
0000
,
1001
0000
0000
0000
,
0110
0000
0000
0000
,
1000
0000
0001
0000
,
0100
0000
1001
0000
,
0001
0000
0001
0000
,
1000
0000
1000
0000
,
0100
0000
0100
0000
,
0010
0000
0010
0000
,
1001
0000
0000
0000
,
0110
0000
0000
0000
,
0001
0000
1000
0000
,
0010
0000
0110
0000
,
1001
0000
0000
0000
,
0110
0000
0000
0000
,
1000
0000
0001
0000
,
1001
0000
0000
0000
,
0001
0000
0100
0000
,
0010
0000
1000
0000
,
0100
0000
0010
0000
,
0001
0000
1000
0000
,
0110
0000
1001
0000
;

//---------------dance-single - ----------------
#NOTES:
     dance-single:
     :
     Easy:
     4:
     0.223024,0.280785,0.235860,0.134777,0.000000,139.000000,118.000000,21.000000,12.000000,0.000000,0.000000,0.223024,0.280785,0.235860,0.134777,0.000000,139.000000,118.000000,21.000000,12.000000,0.000000,0.000000:
0000
0000
0000
0000
,
0000
0000
0000
0000
,
1000
0000
1000
0000
,
0001
0001
0100
0000
,
0010
0000
0010
0000
,
1000
1000
0100
0000
,
1001
0000
0110
0000
,
2002
0000
0000
3000
,
1003
0000
0010
0000
,
0100
0100
0010
0000
,
1000
0000
0001
0000
,
0010
0010
0001
0000
,
0100
0000
0010
0000
,
1000
1000
0100
0000
,
0010
0000
0001
0000
,
1000
1000
1001
0000
,
1000
0000
0010
0000
,
0100
0001
1001
0000
,
0001
0000
0010
0000
,
0001
1000
1001
0000
,
1000
1000
1000
0000
,
0001
0001
0001
0000
,
0100
0010
0100
0010
,
0220
0000
0000
0330
,
1001
0000
0000
0000
,
1000
0000
1000
0000
,
0001
0000
0001
0000
,
0100
0100
0010
0010
,
1000
0001
1001
0000
,
1002
0100
0100
0000
,
2000
0000
3003
0000
,
1000
1000
0001
0001
,
0110
0000
1001
0000
,
0001
0000
0001
0000
,
1000
0000
1000
0000
,
0010
0010
0100
0100
,
0001
1000
1001
0000
,
2001
0010
0010
0000
,
0002
0000
3003
0000
,
0001
0001
1000
1000
,
0110
0000
1001
0000
,
1000
0000
0001
0000
,
2002
0000
0000
3003
,
0100
0010
0100
0010
,
0110
0000
1001
0000
,
1000
0000
0010
0000
,
0100
0100
0001
0000
,
0010
0000
0001
0000
,
0100
0100
0010
0000
,
0110
0000
2002
0000
,
3003
0000
0000
0000
;
