#TITLE:Märchen;
#SUBTITLE:;
#ARTIST:TЁЯRA;
#TITLETRANSLIT:Marchen;
#SUBTITLETRANSLIT:;
#ARTISTTRANSLIT:TERRA;
#GENRE:;
#CREDIT:;
#BANNER:Marchen.png;
#BACKGROUND:Marchen-bg.png;
#LYRICSPATH:;
#CDTITLE:;
#MUSIC:Marchen.ogg;
#OFFSET:0.180001;
#SAMPLESTART:50.665043;
#SAMPLELENGTH:15.000000;
#SELECTABLE:YES;
#BPMS:0.000000=210.000000
;
#STOPS:
;
#BGCHANGES:;
#KEYSOUNDS:;
#ATTACKS:;

//---------------dance-single - ----------------
#NOTES:
     dance-single:
     :
     Hard:
     12:
     0.625183,0.697037,0.386142,0.752483,0.000000,442.000000,403.000000,39.000000,76.000000,0.000000,0.000000,0.625183,0.697037,0.386142,0.752483,0.000000,442.000000,403.000000,39.000000,76.000000,0.000000,0.000000:
0000
0000
0000
0000
,
0000
0000
0000
0000
,
0000
0000
0000
0000
,
0000
0000
0000
0000
,
0000
0000
0000
0000
,
0000
0000
0000
0000
,
0000
0000
0000
0000
,
0010
1000
1100
0010
,
1000
1100
0010
0100
,
0101
0000
0020
0000
0031
0100
0001
0000
,
0020
0000
0130
1000
0001
1000
0010
0000
,
1001
1001
0000
0000
,
0000
0000
1000
0100
0010
0001
1000
0100
,
0010
0001
0010
0000
0010
0000
0001
0010
,
0100
1000
0001
0010
0200
0000
1000
0000
,
0010
0000
1300
0010
0100
0001
1000
0010
,
0100
0001
0010
0000
0010
0000
0001
0100
,
0010
1000
0001
0100
0020
0000
0100
0000
,
1030
0001
2000
0000
0000
0000
3100
0000
,
0021
0100
0130
1020
,
0000
0130
0201
0000
,
0310
1000
0002
0000
0010
0000
0013
0000
,
2000
0100
3100
0002
,
0000
1003
1100
0011
,
0001
1000
0100
0000
0100
0010
0001
0000
,
0001
0000
0001
0100
0010
0000
0200
0000
,
0310
1000
0100
1000
0010
0000
0010
0100
,
0010
0000
1000
0000
1000
0100
0010
0000
,
0010
0000
0010
0001
0100
0000
0100
0000
,
0100
0000
0010
0000
0010
1000
0100
1000
,
0010
0000
1000
0001
1000
0001
1000
0001
,
1000
0200
0310
1002
,
0100
0010
1003
0110
,
0110
0000
0020
0000
1030
0001
0010
0100
,
1000
0010
1000
0100
1000
0000
2001
0000
,
3100
0000
0010
0001
0020
0000
0100
0000
,
0031
0100
0002
0000
0023
0000
0230
0000
,
0320
0032
0203
0320
,
1030
0001
1000
0100
1000
0000
0100
0000
,
1000
0001
2000
0000
0010
0000
3010
1000
,
0002
0000
0010
0000
0013
0001
2000
0000
,
0010
3001
1002
1000
,
0103
0010
1000
0000
1000
0000
1100
0000
,
0001
0001
0011
0120
,
0000
0000
0032
1003
,
1001
2000
3020
0032
,
0023
0000
1030
0000
0100
1000
0020
0000
,
0100
0000
0130
0001
2000
0000
3001
0000
,
0001
1000
0200
0000
0310
0001
0100
0001
,
0020
0000
0130
0000
0010
0100
2000
0000
,
3001
0001
0011
1010
,
1001
2000
3200
0302
,
0203
0000
0310
0001
0010
0000
0002
0000
,
0203
0000
0310
1000
0200
0000
0320
0000
,
0031
0000
1001
0000
1000
0100
0001
0100
,
1000
0000
1000
0010
0001
0010
2000
0000
,
0100
0000
3010
1000
0001
0000
1001
0000
,
0110
1002
0203
2300
,
3200
0000
0320
0000
1030
0100
1000
0000
,
0020
0000
0130
0001
0200
0000
0010
0000
,
0301
1000
0100
0000
0010
0001
0100
0001
,
0020
0000
0031
1000
0100
1000
0010
0000
,
2000
0000
3010
0100
0001
0100
1000
0100
,
0001
0100
0020
0000
2030
0000
3001
0000
,
0011
1100
1001
2000
,
3001
0010
0100
1000
0002
0000
0203
0000
,
0310
1002
0203
0310
,
0210
0000
0010
0000
0310
1000
0002
0000
,
0103
0000
0101
0000
2000
0000
3001
0010
,
0100
1000
0002
0000
0000
0000
0000
0000
,
0000
0000
0100
0100
,
2003
0001
3002
1000
,
1003
0000
0100
0000
0010
1000
0100
0010
,
0002
1000
1003
0200
,
0000
0310
1001
0110
,
1000
0001
1000
0000
1000
0100
0010
0000
,
0010
0000
0010
0001
1000
0000
0210
0000
,
1000
0000
0310
0000
0020
0000
0031
0100
,
0010
0000
2000
0000
3100
0010
0001
0010
,
0100
0000
0110
0000
1001
0000
0001
0010
,
0100
1000
0001
0010
0100
1000
0100
0000
,
0100
0000
1000
0100
0010
0001
1000
0100
,
0010
0001
0010
0000
0001
0000
0001
0100
,
0010
1000
0001
0100
0010
1000
0100
0000
,
0100
0000
1000
0010
0100
0001
1000
0010
,
0100
0100
0110
1001
,
0100
0001
0100
1000
0200
0000
0000
0000
,
0000
0000
0000
0000
,
0300
0000
0000
0000
;

//---------------dance-single - ----------------
#NOTES:
     dance-single:
     :
     Medium:
     9:
     0.461108,0.566342,0.257428,0.534659,0.000000,326.000000,300.000000,26.000000,54.000000,0.000000,0.000000,0.461108,0.566342,0.257428,0.534659,0.000000,326.000000,300.000000,26.000000,54.000000,0.000000,0.000000:
0000
0000
0000
0000
,
0000
0000
0000
0000
,
0000
0000
0000
0000
,
0000
0000
0000
0000
,
0000
0000
0000
0000
,
0000
0000
0000
0000
,
0000
0000
0000
0000
,
0010
1000
1000
0010
,
0001
0001
0010
1000
,
1000
0010
0001
0001
,
0010
1000
1000
1001
,
0110
1001
0000
0000
,
0000
0000
1000
0100
1000
0000
0001
0000
,
0010
0000
0010
0000
0011
0000
0001
0100
,
0001
1000
0020
0000
,
0031
0000
1000
0100
1000
0000
0001
0000
,
0010
0000
0010
0000
1100
0000
1000
0100
,
1000
0010
0100
0100
,
1001
2000
0000
3010
,
1000
0100
0010
0002
,
0000
0103
0002
0000
,
0013
0100
1000
0000
1000
0000
0100
0000
,
0001
0001
0100
0020
,
0000
1030
0001
0001
,
1000
0001
2000
0000
0000
3100
1000
0000
,
0001
0010
0100
2000
,
0000
3001
0010
0001
0010
0000
0100
1000
,
0100
0000
2000
0000
0000
3010
1000
0000
,
0001
0010
0100
1000
,
1000
0100
0001
0001
,
0010
1000
1000
0001
,
0011
0010
0001
1010
,
0010
0100
2002
0000
,
3003
0000
2000
0000
0000
3010
1000
0000
,
0001
0010
0100
0000
0010
0000
0002
0000
,
0000
0000
1003
0010
0200
0000
0000
0000
,
0310
1000
0001
0000
0010
0000
0001
0000
,
0100
0100
0010
2000
,
0000
3000
0001
1000
0001
0000
0010
0000
,
0010
0100
2000
0000
0000
0000
3001
0010
,
0002
0000
0000
0000
0103
0010
0100
0000
,
0100
0010
2002
0000
,
3003
0010
1000
1001
,
0010
0001
1001
2000
,
0000
0000
3010
0010
,
1001
1000
1000
0100
,
0001
0001
0110
1000
,
1000
0001
0210
0000
,
0310
1000
0100
0000
0100
0000
0010
0000
,
0002
0000
2003
0000
0000
3010
0200
0000
,
0000
0310
1000
1000
,
1001
0002
0000
0000
,
0013
0000
0100
1000
0001
0000
2000
0000
,
0000
0000
3010
1000
0100
0000
0010
0000
,
0010
0000
0001
0000
0001
1000
0100
0000
,
1000
0000
0010
1000
0001
0000
2000
0000
,
0000
0010
3001
1001
,
0110
0001
0001
0010
,
1000
1000
0110
0001
,
0001
1000
0120
0000
,
0130
0001
0020
0000
0000
0000
0031
1000
,
0002
0000
0000
0000
0103
0010
0200
0000
,
0302
0000
0000
1003
0100
0000
0100
0000
,
1001
2000
0000
0010
,
3100
0000
0010
0001
1000
0000
0002
0000
,
0000
0000
0103
0001
0020
0000
0000
0000
,
0032
2003
0000
0000
,
3002
2003
0000
3020
,
0000
0000
0200
0000
,
0330
0002
0000
0000
,
0000
0000
0100
0103
,
0010
0010
1000
1000
,
1000
0002
0000
2003
,
3200
0320
0032
2003
,
0000
0010
0002
0000
,
3003
0010
1000
1000
,
0100
0001
0001
0010
,
1000
0000
0001
0000
2000
0000
0000
3010
,
1000
0000
0200
0000
0000
0000
1300
0001
,
1000
0000
0010
0000
1001
0000
0001
0010
,
0001
1000
0100
0100
,
1100
0000
1000
0010
1000
0000
0001
0000
,
0200
0000
0000
0000
1300
0000
0001
0010
,
0001
1000
0100
0100
,
0011
0000
0001
0010
0001
0000
0100
0000
,
0010
0010
1001
2020
,
0030
0010
0002
0000
,
0000
0000
0000
0000
,
3003
0000
0000
0000
;

//---------------dance-single - ----------------
#NOTES:
     dance-single:
     :
     Easy:
     6:
     0.343709,0.435648,0.168318,0.544560,0.000000,243.000000,226.000000,17.000000,55.000000,0.000000,0.000000,0.343709,0.435648,0.168318,0.544560,0.000000,243.000000,226.000000,17.000000,55.000000,0.000000,0.000000:
0000
0000
0000
0000
,
0000
0000
0000
0000
,
0000
0000
0000
0000
,
0000
0000
0000
0000
,
0000
0000
0000
0000
,
0000
0000
0000
0000
,
0000
0000
0000
0000
,
0000
0010
0010
0000
,
0010
0010
0000
0010
,
0010
0100
0010
0010
,
0100
0000
0010
1000
,
0001
1001
0000
0000
,
0000
1000
1000
0000
,
0100
1000
1001
0001
,
0001
0000
0200
0000
,
0310
0001
0001
0000
,
0100
0001
1001
1000
,
1000
0000
0010
0100
,
1001
2000
0000
0000
,
3002
0000
0000
0023
,
0000
0000
0032
0000
,
0000
1003
1000
1000
,
0002
0000
0010
0023
,
0000
0100
0200
0000
,
0330
0020
0000
0031
,
1000
0001
0010
0002
,
0000
1000
1003
0100
,
0100
2000
0000
0001
,
3001
1000
0001
0020
,
0000
0100
0100
0100
,
0130
1000
1000
1000
,
0010
0000
1000
0001
,
0001
0010
2002
0000
,
3003
0020
0000
0130
,
0020
0000
0130
0020
,
0000
1030
0002
0000
,
0013
0002
0000
0103
,
0001
0001
1000
0200
,
0000
0010
0020
0000
,
0330
0002
0000
0103
,
0020
0000
1030
0001
,
1000
0001
2002
0000
,
3003
1000
1000
0100
,
1000
1000
1000
0002
,
0000
0000
0013
0010
,
0010
0001
1000
1000
,
0100
2000
0000
3010
,
0010
0100
0002
0000
,
0013
0200
0000
0310
,
0001
2000
0000
3020
,
0030
0010
0010
0010
,
0010
2001
0000
0000
,
3001
1000
0001
0020
,
0000
0031
0001
0100
,
0001
0010
0000
0010
,
0010
0000
0010
2002
,
0000
3003
0001
1001
,
0110
1000
0001
0001
,
0010
0002
0000
0103
,
0100
0010
2000
0000
,
3100
0020
0000
0130
,
2000
0000
3100
0100
,
0200
0000
1300
0100
,
0100
1002
0000
1000
,
1003
0001
1000
0200
,
0000
1300
1000
0010
,
1000
0002
0000
0000
,
2003
3002
0000
2003
,
0000
0000
0002
0000
,
3003
0110
0000
0000
,
0000
0000
0000
0000
,
0010
0010
0010
0000
,
1000
0001
0000
0010
,
0001
0001
0001
0020
,
0000
0031
2002
0000
,
3003
0010
0010
0000
,
0010
0010
0000
0010
,
1000
1000
0002
0000
,
1003
0200
0000
1300
,
0010
0010
1001
0001
,
0001
0000
0010
0001
,
1001
1000
1000
0000
,
0020
0000
0130
1000
,
1000
0000
0010
1000
,
1001
0001
0001
0000
,
0100
0010
1001
0020
,
0000
0000
0200
0000
,
0000
0000
0000
0000
,
0330
0000
0000
0000
;

//---------------dance-single - ----------------
#NOTES:
     dance-single:
     :
     Beginner:
     3:
     0.195193,0.299755,0.158417,0.000000,0.000000,138.000000,122.000000,16.000000,0.000000,0.000000,0.000000,0.195193,0.299755,0.158417,0.000000,0.000000,138.000000,122.000000,16.000000,0.000000,0.000000,0.000000:
// measure 0
0000
0000
0000
0000
,  // measure 1
0000
0000
0000
0000
,  // measure 2
0000
0000
0000
0000
,  // measure 3
0000
0000
0000
0000
,  // measure 4
0000
0000
0000
0000
,  // measure 5
0000
0000
0000
0000
,  // measure 6
0000
0000
0000
0000
,  // measure 7
0000
0010
0000
0000
,  // measure 8
0010
0000
0000
0010
,  // measure 9
0000
0000
0010
0000
,  // measure 10
0000
0010
0000
0000
,  // measure 11
1001
0000
0000
0000
,  // measure 12
0000
1000
0000
0000
,  // measure 13
1000
0000
0000
0001
,  // measure 14
0000
0000
0001
0000
,  // measure 15
0000
1000
0000
0000
,  // measure 16
1000
0000
0000
0001
,  // measure 17
0000
0000
1001
0000
,  // measure 18
0000
1000
0000
0000
,  // measure 19
0000
0000
0000
0001
,  // measure 20
0000
0000
0000
0000
,  // measure 21
0000
1000
0000
0000
,  // measure 22
0000
0000
0000
0001
,  // measure 23
0000
0000
0000
0000
,  // measure 24
0000
0010
0000
0000
,  // measure 25
0010
0000
0000
0010
,  // measure 26
0000
0000
0000
0000
,  // measure 27
0000
0010
0000
0000
,  // measure 28
0010
0000
0000
0010
,  // measure 29
0000
0000
0010
0000
,  // measure 30
0000
1000
0000
0000
,  // measure 31
0001
0000
0000
1000
,  // measure 32
0000
0000
1001
0000
,  // measure 33
0000
1000
0000
0000
,  // measure 34
0001
0000
0000
0010
,  // measure 35
0000
0000
1001
0000
,  // measure 36
0000
0001
0000
0000
,  // measure 37
1000
0000
0000
0010
,  // measure 38
0000
0000
1001
0000
,  // measure 39
0000
1000
0000
0000
,  // measure 40
0010
0000
0000
0010
,  // measure 41
0010
0010
0010
0000
,  // measure 42
0000
0100
0000
0000
,  // measure 43
0100
0000
0000
1001
,  // measure 44
0000
0000
0000
0000
,  // measure 45
0000
0001
0001
0000
,  // measure 46
1000
1000
0000
0010
,  // measure 47
0010
0000
1001
0000
,  // measure 48
0000
1000
1000
0000
,  // measure 49
0001
0001
0000
0010
,  // measure 50
0010
0000
1001
0000
,  // measure 51
0000
1001
0000
0000
,  // measure 52
0010
0010
0010
0010
,  // measure 53
0000
0000
0010
0000
,  // measure 54
0000
1000
1000
0000
,  // measure 55
0001
0001
0000
0010
,  // measure 56
0010
0000
1001
0000
,  // measure 57
0000
1000
1000
0000
,  // measure 58
0001
0001
0000
0100
,  // measure 59
0100
0000
1001
0000
,  // measure 60
0000
0001
0001
0000
,  // measure 61
1000
1000
0000
0100
,  // measure 62
0100
0000
1001
0000
,  // measure 63
0000
1001
0000
0000
,  // measure 64
0100
0100
0100
0100
,  // measure 65
0000
0000
0100
0000
,  // measure 66
0000
0001
0001
0000
,  // measure 67
1000
1000
0000
0010
,  // measure 68
0010
0000
1001
0000
,  // measure 69
0000
0010
0000
0000
,  // measure 70
0000
0000
0000
0010
,  // measure 71
0000
0000
0000
0000
,  // measure 72
0000
0010
0000
0000
,  // measure 73
0000
0000
0000
0010
,  // measure 74
0000
0000
0010
0000
,  // measure 75
0000
1000
0000
0000
,  // measure 76
0001
0000
0000
0010
,  // measure 77
0000
0000
0001
0000
,  // measure 78
0000
0100
0000
0000
,  // measure 79
0010
0010
0000
0001
,  // measure 80
0000
0000
0001
0000
,  // measure 81
0000
1000
0000
0000
,  // measure 82
1000
0000
0000
0001
,  // measure 83
0000
0000
0001
0000
,  // measure 84
0000
1000
0000
0000
,  // measure 85
1001
0000
0000
0010
,  // measure 86
0000
0000
1001
0000
;
