#TITLE:MAX FAILURE;
#SUBTITLE:;
#ARTIST:James Reiner;
#TITLETRANSLIT:;
#SUBTITLETRANSLIT:;
#ARTISTTRANSLIT:;
#GENRE:;
#CREDIT:;
#MUSIC:MAX FAILURE.ogg;
#BANNER:MAX FAILURE.png;
#BACKGROUND:MAX FAILURE-bg.png;
#CDTITLE:;
#SAMPLESTART:0.000;
#SAMPLELENGTH:15.000;
#SELECTABLE:YES;
#OFFSET:0.000;
#BPMS:0.000=800.000
,1.000=700.000
,2.000=600.000
,3.000=500.000
,4.000=400.000
,5.000=300.000
,6.000=290.000
,7.000=280.000
,8.000=210.000
,9.000=205.000
,10.000=200.000
,11.000=195.000
,22.000=200.000
,23.000=210.000
,24.000=220.000
,28.000=250.000
,33.000=300.000
,35.000=280.000
,37.000=300.000
,38.000=310.000
,39.000=330.000
,40.000=345.000
,41.000=380.000
,45.000=420.000
,49.000=450.000
,53.000=500.000
,54.000=540.000
,55.000=560.000
,57.000=580.000
,58.000=600.000
,59.000=620.000
,60.000=640.000
,61.000=660.000
,62.000=680.000
,63.000=700.000
,64.000=720.000
,65.000=740.000
,66.000=760.000
,67.000=780.000
,68.000=800.000
,69.000=850.000
,70.000=900.000
,71.000=950.000
,72.000=1000.000
,73.000=1100.000
,81.000=1200.000
,104.000=2000.000
,132.000=1000.000
,152.000=960.000
,156.000=900.000
,160.000=620.000
,162.000=610.000
,164.000=580.000
,166.000=560.000
,168.000=520.000
,170.000=500.000
,172.000=470.000
,174.000=450.000
,177.000=420.000
,179.000=400.000
,181.000=370.000
,184.000=350.000
,187.000=310.000
,190.000=300.000
,191.000=290.000
,193.000=270.000
,195.000=260.000
,197.000=250.000
,199.000=240.000
,201.000=210.000
,202.000=215.000
,204.000=205.000
,206.000=200.000
,207.000=190.000
,208.000=185.000
,210.000=180.000
,212.000=160.000
,213.000=170.000
,214.000=160.000
,215.000=155.000
,217.000=150.000
,219.000=140.000
,222.000=135.000
,224.000=120.000
,225.000=130.000
,226.000=125.000
,227.000=120.000
,230.000=400.000
,294.000=200.000
,296.000=400.000
,312.000=200.000
,313.000=400.000
,324.000=200.000
,325.500=400.000
,342.500=200.000
,343.500=400.000
,350.000=180.000
,413.000=141.000
,415.000=95.000
,419.000=100.000
,424.000=105.000
,428.000=110.000
,432.000=124.000
,435.000=107.000
,436.000=113.000
,438.000=115.000
,440.000=118.000
,444.000=120.000
,446.000=124.000
,450.000=129.000
,453.000=132.000
,457.000=138.000
,459.000=139.000
,461.000=142.000
,463.000=145.000
,465.000=148.000
,467.000=151.000
,469.000=153.000
,472.000=157.000
,474.000=161.000
,476.000=165.000
,478.000=167.000
,480.000=171.000
,482.000=174.000
,484.000=176.000
,486.000=182.000
,488.000=185.000
,490.000=190.000
,492.000=194.000
,494.000=198.000
,496.000=203.000
,498.000=205.000
,499.000=410.000
,501.000=420.000
,507.000=424.000
,511.000=444.000
,519.000=462.000
,523.000=476.000
,527.000=482.000
,533.000=498.000
,541.000=510.000
,545.000=532.000
,551.000=550.000
,555.000=556.000
,559.000=570.000
,565.000=582.000
,569.000=588.000
,573.000=620.000
,577.000=630.000
,581.000=640.000
,589.000=674.000
,597.000=696.000
,605.000=736.000
,611.000=754.000
,621.000=800.000
,623.000=2000.000
,1060.000=1.000
;
#STOPS:350.000=1.500;
#DISPLAYBPM:*;
#BGCHANGES:;
#FGCHANGES:;

//--------------- dance-single - ----------------
#NOTES:
     dance-single:
     :
     Beginner:
     3:
     0,0,0,0,0:
0000
0000
0000
0000
,
0000
0000
0000
0000
,
0000
0000
0000
0000
,
0000
0000
0000
0000
,
0000
1001
0000
0000
,
0000
0001
0000
0000
,
0000
0010
0000
0000
,
0000
0100
0000
0000
,
0000
1000
0000
0000
,
0000
0000
0000
0000
,
0000
1000
0000
0000
,
0000
1000
0000
0000
,
0000
0001
0000
0000
,
0000
0001
0000
0000
,
0000
0001
0000
0000
,
0000
0001
0000
0000
,
0000
2002
0000
0000
,
0000
0000
0000
0000
,
0000
0000
0000
0000
,
0000
0000
0000
0000
,
0000
0000
0000
0000
,
0000
0000
0000
0000
,
0000
0000
0000
0000
,
0000
0000
0000
0000
,
0000
0000
0000
0000
,
0000
0000
0000
0000
,
0000
0000
0000
0000
,
0000
0000
0000
0000
,
0000
0000
0000
0000
,
0000
0000
0000
0000
,
0000
0000
0000
0000
,
0000
0000
0000
0000
,
0000
0000
0000
0000
,
0000
0000
0000
0000
,
0000
0000
0000
0000
,
0000
0000
0000
0000
,
0000
0000
0000
0000
,
0000
0000
0000
0000
,
0000
0000
0000
0000
,
0000
0000
0000
0000
,
0000
0000
0000
0000
,
0000
0000
0000
0000
,
0000
0000
0000
0000
,
0000
0000
0000
0000
,
0000
0000
0000
0000
,
0000
0000
0000
3003
,
0000
0001
0000
0001
,
0000
0001
0000
0000
,
0000
0000
0000
0000
,
0000
0010
0000
0010
,
0000
0010
0000
0000
,
0000
0000
0000
0000
,
0000
1000
0000
1000
,
0000
1000
0000
0000
,
0000
0000
0000
0000
,
0000
0100
0000
0100
,
0000
0100
0000
0000
,
0000
0000
1000
0000
,
0000
0000
0001
0000
,
0000
0000
0010
0000
,
0000
0000
0100
0000
,
0000
0000
0100
0000
,
0000
0000
0100
0000
,
0000
0000
1000
0000
,
0000
0000
0001
0000
,
0000
0000
0010
0000
,
0000
0000
1000
0000
,
0000
0000
1000
0000
,
0000
0000
1000
0000
,
0000
0000
0001
0000
,
0000
0000
0010
0000
,
0000
0000
0010
0000
,
0000
0000
0100
0000
,
0000
0000
1000
0000
,
0000
0000
1000
0000
,
0000
0000
1000
0000
,
0000
0000
1000
0000
,
0000
0000
1000
0000
,
0000
0000
0001
0000
,
0000
0000
0001
0000
,
0000
0000
0001
0000
,
0000
0000
0000
1000
0000
0000
0000
0000
,
0000
0000
0000
1000
0000
0000
0000
0000
,
0000
0000
0000
1000
0000
0000
0000
0000
,
0000
0000
0000
1000
0000
0000
0000
0000
,
0000
0000
0000
0001
0000
0000
0000
0000
,
0000
0000
0000
0001
0000
0000
0000
0000
,
0000
0000
0000
0001
0000
0000
0000
0000
,
0000
0000
0010
0000
,
0000
0000
0100
0000
,
0000
0000
1000
0000
,
0000
0000
0100
0000
,
0100
0000
0100
0000
,
0000
0000
0010
0000
,
0010
0000
0010
0000
,
0000
0000
0100
0000
,
0010
0000
0100
0000
,
0000
0000
0001
0000
,
0001
0000
1000
0000
,
0000
0000
0100
0000
,
0100
0000
0001
0000
,
0001
0000
0010
0000
,
0010
0000
1000
1000
,
1000
1000
0000
0100
,
0000
0100
0000
0100
,
0000
0100
0000
0100
,
0000
0100
0000
0100
,
0000
0100
0000
0000
,
0000
0000
0000
1000
,
0000
0000
0000
0010
,
0000
0000
0000
0100
,
0000
0000
0000
0001
,
0000
0000
0000
0001
,
0000
0000
0000
0010
,
0000
0000
0000
0100
,
0000
0000
0000
1000
,
0000
0000
0000
0001
,
0000
0000
0000
1000
,
0000
0000
0000
0001
,
0000
0000
0000
1000
,
0000
0000
0000
1000
,
0000
0000
0000
0001
,
0000
0000
0000
1001
,
0000
0000
0000
0000
,
0000
0000
0000
0001
,
0000
0000
0000
1000
,
0000
0000
0000
0100
,
0000
0000
0000
0000
,
0000
0000
0000
1000
,
0000
0000
0000
0001
,
0000
0000
0000
0100
,
0000
0000
0000
0000
,
0000
0000
0000
0001
,
0000
0000
0000
1000
,
0000
0000
0000
0010
,
0000
0000
0000
1000
,
0000
0000
0000
1000
,
0000
0000
0000
0001
,
0000
0000
0000
0001
,
0000
0000
0000
0000
,
0000
0000
0000
0001
,
0000
0000
0000
0000
,
0000
0000
0000
0100
,
0000
0000
0000
1000
,
0000
0000
0000
0100
,
0000
0000
0000
0000
,
0000
0000
0000
0100
,
0000
0000
0000
1000
,
0000
0000
0000
0001
,
0000
0000
0000
1000
,
0000
0000
0000
0010
,
0000
0000
0000
1000
,
0000
0000
0000
1000
,
0000
0000
0000
0001
,
0000
0000
0000
0001
,
0000
0000
0000
2002
,
0000
0000
0000
0000
,
0000
0000
0000
0000
,
0000
0000
0000
0000
,
0000
0000
0000
0000
,
0000
0000
0000
0000
,
0000
0000
0000
0000
,
0000
0000
0000
0000
,
0000
0000
0000
0000
,
0000
0000
0000
0000
,
0000
0000
0000
0000
,
0000
0000
0000
0000
,
0000
0000
0000
0000
,
0000
0000
0000
0000
,
0000
0000
0000
0000
,
0000
0000
0000
0000
,
0000
0000
0000
0000
,
0000
0000
0000
0000
,
0000
0000
0000
0000
,
0000
0000
0000
0000
,
0000
0000
0000
0000
,
0000
0000
0000
3003
;

//--------------- dance-single - ----------------
#NOTES:
     dance-single:
     :
     Easy:
     13:
     0,0,0,0,0:
0000
0000
0000
0000
,
0000
0101
1000
0100
,
0010
1000
0100
1000
,
0100
0010
1000
0010
,
0100
1010
0100
1000
,
0100
0001
0100
0001
,
0100
0010
1000
0010
,
1000
0100
1000
0100
,
1000
1000
0001
1000
,
0001
1000
0100
0001
,
0100
1000
0100
0001
,
0100
1000
0001
0100
,
0001
1000
0000
0001
,
0000
1000
0000
0001
,
0000
1000
0000
0001
,
0000
1000
0000
0001
,
0000
1000
0000
0001
,
0000
1000
0000
0001
,
0000
1000
0000
0001
,
0000
1000
0000
0001
,
0000
1000
0000
0001
,
0000
1000
0000
0001
,
0000
1000
0000
0001
,
0000
1000
0000
0001
,
0000
0000
0000
0000
,
0000
0000
0000
0000
,
2002
0000
0000
0000
,
0000
0000
0000
0000
,
0000
0000
0000
0000
,
0000
0000
0000
0000
,
0000
0000
0000
0000
,
0000
0000
0000
0000
,
0000
0000
3003
0000
,
1000
0000
0001
0000
,
1000
0000
0001
0000
,
1000
0000
0001
0000
,
1000
0000
0001
0000
,
1000
0000
0001
0000
,
1000
0000
0001
0000
,
1000
0000
0001
0000
,
1000
0000
0001
0000
,
1000
0000
0001
0000
,
1000
0000
0001
0000
,
1000
0001
1000
0001
,
1000
0001
1000
0001
,
1000
0001
1000
0001
,
1000
2100
0000
0001
,
3000
0010
1000
0001
,
1000
0100
1000
0001
,
0100
0102
0000
1000
,
0003
0010
0001
1000
,
0001
0100
0001
1000
,
0100
2000
0001
0000
,
3010
1000
0001
1000
,
0100
0001
0010
0100
,
1000
0002
1000
0000
,
0013
0001
1000
0001
,
0100
0001
1000
0000
,
0100
0000
0001
0000
,
0100
0000
0010
0000
,
1000
0000
0100
0000
,
0010
0000
0100
0000
,
1000
0000
0100
0000
,
0010
0000
1000
0000
,
0010
0000
0001
0000
,
0100
0000
0010
0000
,
0100
0000
1000
0000
,
0001
0000
1000
0000
,
0100
0000
1000
0000
,
0010
0000
0001
0000
,
1000
0000
0010
0000
,
0100
0000
0010
0000
,
0001
0000
0100
0000
,
0001
1000
0100
1001
,
0010
0010
0000
0001
,
0001
0000
1000
1000
,
0000
0010
0010
0000
,
0001
0000
1000
0010
,
0100
0001
0001
0000
,
1000
1000
0000
0100
,
0100
0000
0010
0100
,
0001
0000
0000
0100
0000
0100
0000
0000
,
0000
1000
0000
1000
0000
0000
0000
0001
,
0000
0001
0000
0000
0000
0100
0000
0100
,
0000
0000
0000
0010
0000
0010
0000
0000
,
0000
0100
0000
0010
0000
1000
0000
0100
,
0000
0100
0000
0000
0000
1000
0000
1000
,
0000
0000
0000
0010
0000
1000
0000
1000
,
0000
0100
0000
0100
0000
0010
0000
0010
,
0000
0100
0000
0100
0010
0001
0000
0001
,
0000
0100
0000
0100
0000
0010
0000
0010
,
1000
0001
1000
0001
1000
0100
0000
0100
,
0000
1000
0000
0001
1000
0001
0000
1000
,
0000
0001
0000
1000
0010
0100
0000
0100
,
0000
0001
0000
0001
0000
0010
0000
0010
,
0000
0100
0000
0100
1000
1000
0000
0001
,
0000
1000
0000
0001
0100
0100
0000
0010
,
0000
0100
0000
0010
1000
1000
0000
0100
,
0000
0010
0000
0001
0010
0010
0000
0001
,
0000
1000
0000
0001
1001
0000
0010
0000
,
1000
0100
1001
0010
,
0001
0000
0100
0000
0010
0100
0010
0100
,
0001
1000
0001
1000
0010
0000
1010
0000
,
0101
1001
0000
1001
,
0100
1001
0010
1001
,
0100
1001
0010
1001
,
0100
1001
0010
1001
,
0100
1001
0010
1001
,
0100
0220
0330
1000
,
0100
0010
0001
1000
,
0100
0001
0100
1000
,
0001
0010
0001
1000
,
0010
0001
0010
0001
,
0100
0001
1000
0001
,
0100
1000
0100
0001
,
1000
0010
1000
0001
,
0010
1000
0010
1000
,
0100
0001
0010
1000
,
0010
0001
0010
1000
,
0001
0100
0001
1000
,
0100
0001
0100
0001
,
0010
0001
1000
0001
,
0010
1000
0010
0001
,
1000
0100
1000
0001
,
0100
1000
0100
0001
,
0000
0001
0000
1000
,
0000
0001
0000
0100
,
0000
0001
0000
1000
,
0000
0100
0000
1000
,
0000
1000
0000
0001
,
0000
1000
0000
0100
,
0000
1000
0000
0100
,
0000
0010
0000
0001
,
0000
0001
0000
1000
,
0000
0001
0000
0010
,
0000
0001
0000
1000
,
0000
0100
0000
1000
,
0000
1000
0000
0001
,
0000
1000
0000
0001
,
0000
1000
0000
0010
,
0000
0100
0000
0001
,
0000
0001
0000
1000
,
0000
0001
0000
0100
,
0000
0001
0000
1000
,
0000
0100
0000
1000
,
0000
1000
0000
0001
,
0000
1000
0000
0100
,
0000
1000
0000
0100
,
0000
0010
0000
0001
,
0000
0001
0000
1000
,
0000
0001
0000
0010
,
0000
0001
0000
1000
,
0000
0100
0000
1000
,
0000
1000
0000
0001
,
0000
1000
0000
0001
,
0000
1000
0000
2002
,
0000
0000
0000
0000
,
0000
0000
0000
0000
,
0000
0000
0000
0000
,
0000
0000
0000
0000
,
0000
0000
0000
0000
,
0000
0000
0000
0000
,
0000
0000
0000
0000
,
0000
0000
0000
0000
,
0000
0000
0000
0000
,
0000
0000
0000
0000
,
0000
0000
0000
0000
,
0000
0000
0000
0000
,
0000
0000
0000
0000
,
0000
0000
0000
0000
,
0000
0000
0000
0000
,
0000
0000
0000
0000
,
0000
0000
0000
0000
,
0000
0000
0000
0000
,
0000
0000
0000
0000
,
0000
0000
0000
0000
,
0000
0000
0000
3003
,
0000
0000
0000
0000
,
0000
0000
0000
0000
,
0000
0000
0000
0000
,
0000
0000
0000
0000
,
0000
0000
0000
0000
,
0000
0000
0000
0000
,
0000
0000
0000
0000
,
0000
0000
0000
0000
,
0000
0000
0000
0000
,
0000
0000
0000
0000
,
0000
0000
0000
0000
,
0000
0000
0000
0000
,
0000
0000
0000
0000
,
0000
0000
0000
0000
,
0000
0000
0000
0000
,
0000
0000
0000
0000
,
0000
0000
0000
0000
,
0000
0000
0000
0000
,
0000
0000
0000
0000
,
0000
0000
0000
0000
,
0000
0000
0000
0000
,
0000
0000
0000
0000
,
0000
0000
0000
0000
,
0000
0000
0000
0000
,
0000
0000
0000
0000
,
0000
0000
0000
0000
,
0000
0000
0000
0000
,
0000
0000
0000
0000
,
0000
0000
0000
0000
,
0000
0000
0000
0000
,
0000
0000
0000
0000
,
0000
0000
0000
0000
,
0000
0000
0000
0000
,
0000
0000
0000
0000
,
0000
0000
0000
0000
,
0000
0000
0000
0000
,
0000
0000
0000
0000
,
0000
0000
0000
0000
,
0000
0000
0000
0000
,
0000
0000
0000
0000
,
0000
0000
0000
0000
,
0000
0000
0000
0000
,
0000
0000
0000
0000
,
0000
0000
0000
0000
,
0000
0000
0000
0000
,
0000
0000
0000
0000
,
0000
0000
0000
0000
,
0000
0000
0000
0000
,
0000
0000
0000
0000
,
0000
0000
0000
0000
,
0000
0000
0000
0000
,
0000
0000
0000
0000
,
0000
0000
0000
0000
,
0000
0000
0000
0000
,
0000
0000
0000
0000
,
0000
0000
0000
0000
,
0000
0000
0000
0000
,
0000
0000
0000
0000
,
0000
0000
0000
0000
,
0000
0000
0000
0000
,
0000
0000
0000
0000
,
0000
0000
0000
0000
,
0000
0000
0000
0000
,
0000
0000
0000
0000
,
0000
0000
0000
0000
,
0000
0000
0000
0000
,
0000
0000
0000
0000
,
0000
0000
0000
0000
,
0000
0000
0000
0000
,
0000
0000
0000
0000
,
0000
0000
0000
0000
,
0000
0000
0000
0000
,
0000
0000
0000
0000
,
0000
0000
0000
0000
,
0000
0000
0000
0000
,
0000
0000
0000
0000
,
0000
0000
0000
0000
,
0000
0000
0000
0000
,
0000
0000
0000
0000
,
0000
0000
0000
0000
,
0000
0000
0000
0000
,
0000
0000
0000
0000
,
0000
0000
0000
0000
,
0000
0000
0000
0000
,
0000
0000
0000
0000
,
0000
0000
0000
0000
,
0000
0000
0000
0000
,
0000
0000
0000
0000
,
2002
3003
0000
0000
0000
0000
0000
0000
0000
0000
0000
0000
0000
0000
0000
0000
0000
0000
0000
0000
0000
0000
0000
0000
0000
0000
0000
0000
0000
0000
0000
0000
0000
0000
0000
0000
0000
0000
0000
0000
0000
0000
0000
0000
0000
0000
0000
0000
0000
0000
0000
0000
0000
0000
0000
0000
0000
0000
0000
0000
0000
0000
0000
0000
0000
0000
0000
0000
0000
0000
0000
0000
0000
0000
0000
0000
0000
0000
0000
0000
0000
0000
0000
0000
0000
0000
0000
0000
0000
0000
0000
0000
0000
0000
0000
0000
0000
0000
0000
0000
0000
0000
0000
0000
0000
0000
0000
0000
0000
0000
0000
0000
0000
0000
0000
0000
0000
0000
0000
0000
0000
0000
0000
0000
0000
0000
0000
0000
0000
0000
0000
0000
0000
0000
0000
0000
0000
0000
0000
0000
0000
0000
0000
0000
0000
0000
0000
0000
0000
0000
0000
0000
0000
0000
0000
0000
0000
0000
0000
0000
0000
0000
0000
0000
0000
0000
0000
0000
0000
0000
0000
0000
0000
0000
0000
0000
0000
0000
0000
0000
0000
0000
0000
0000
0000
0000
0000
0000
0000
0000
0000
0000
;

//--------------- dance-single - ----------------
#NOTES:
     dance-single:
     :
     Medium:
     14:
     0,0,0,0,0:
0000
0000
0000
0000
,
0000
0001
1000
1100
,
0010
1000
0100
1001
,
0100
0010
1000
0010
,
0100
0000
1010
0000
0001
0000
0000
0010
,
0000
1000
0000
0010
0000
0001
0000
0010
,
0000
0001
0000
0010
0000
0100
0000
1000
,
0000
0001
0100
0000
1000
0000
0010
0000
,
1000
1000
0101
0001
,
0100
1000
0100
0001
,
0100
0001
1100
1000
,
0100
1000
0001
0100
,
0001
1000
0000
0001
,
0000
1000
0000
0001
,
0000
1000
0000
0001
,
0000
1000
0000
0001
,
0000
1000
0000
0001
,
0000
1000
0000
0001
,
0000
1000
0000
0001
,
0000
1000
0000
0001
,
0000
1000
0000
0001
,
0000
1000
0000
0001
,
0000
1000
0000
0001
,
0000
1000
0000
0001
,
0000
0000
0000
0000
,
0000
0000
0000
0000
,
2002
0000
0000
0000
,
0000
0000
0000
0000
,
0000
0000
0000
0000
,
0000
0000
0000
0000
,
0000
0000
0000
0000
,
0000
0000
0000
0000
,
0000
0000
3003
0000
,
1000
0000
0001
0000
,
1000
0000
0001
0000
,
1000
0000
0001
0000
,
1000
0000
0001
0000
,
1000
0000
0001
0000
,
1000
0000
0001
0000
,
1000
0000
0001
0000
,
1000
0000
0001
0000
,
1000
0000
0001
0000
,
1000
0000
0001
0000
,
1000
0001
1000
0001
,
1000
0001
1000
0001
,
1000
0001
1000
0001
,
1000
2100
0000
3001
,
0001
0100
0001
1000
,
0100
0000
1000
0001
1000
0000
0001
0000
,
0100
0010
1000
0001
,
0001
0100
0001
0000
0001
0000
1000
0000
,
0001
0100
0001
1000
,
0100
0102
0000
1003
,
1000
0100
1000
0001
,
1000
0100
1000
0000
0001
0000
1000
0000
,
0100
0010
0001
1000
,
0001
0000
1000
0001
0010
0000
0001
0000
,
1000
0100
1000
0010
,
0100
0000
0001
1000
,
0100
0000
0010
0001
,
1000
0010
0100
0001
,
0010
0000
0100
0001
,
1000
0000
0100
1000
,
0010
0000
1000
0100
,
0010
0100
1000
0001
,
0100
0000
0010
0001
,
0100
0000
0010
1000
,
0100
0000
1000
0001
,
0100
0010
1000
0100
,
1000
0000
0101
0000
,
1010
0000
0011
0000
,
1100
0000
0010
0100
,
0001
1000
0100
0010
,
0001
1000
0100
1001
,
0010
1000
0100
0000
,
0001
0100
1000
0000
,
0001
0010
1000
0000
,
0001
0100
1000
0010
,
0100
0001
0010
0100
,
0000
1000
0001
0100
,
0000
1000
0100
1000
,
0001
0000
0000
0100
0000
0010
0000
0200
,
0000
0300
0000
0001
0000
0100
0000
0020
,
0000
0030
0000
1000
0000
0001
0000
0020
,
0000
0030
0000
0100
0000
1000
0000
0001
,
0000
0100
0000
0010
0000
1000
0000
0100
,
0000
1000
0000
0020
0000
0030
0000
1000
,
0000
0001
0000
1002
0000
1000
0000
0100
,
0000
0010
0003
0100
0020
1000
0000
0100
,
0000
1000
1030
0000
0200
0010
0000
0001
,
0000
0010
0300
0001
2000
0100
0000
3001
,
0100
0010
0100
0010
0200
0000
0010
0000
,
0000
0010
0310
0000
0002
1000
0000
0100
,
0000
0010
0013
0000
0200
0000
1000
0000
,
0010
0302
1000
0023
,
0100
0000
2030
0000
3001
0000
0010
0100
,
0010
0000
1000
0100
0010
0100
0001
0000
,
0010
0100
0001
0000
1000
0000
0010
1000
,
0100
0000
1000
0001
0100
1000
0010
0000
,
0100
0010
1000
0000
0001
0100
0010
1000
,
0001
0100
0010
1000
0001
0100
1000
0001
,
0100
0010
0001
0010
0100
0001
1000
0100
,
0001
0010
0100
1000
1100
0000
0101
0000
,
1100
0101
0000
1001
,
0100
1001
0010
1001
,
0100
1001
0010
1001
,
0100
1001
0010
1001
,
0100
1001
0010
1001
,
0100
0000
0220
0000
0330
0000
1000
0001
,
0100
0001
1000
0000
0001
0100
0001
1000
,
0000
0000
0001
1000
0100
1000
0001
0000
,
0100
0010
1000
0000
0000
0000
1000
0010
,
0100
0001
0010
0100
1000
0001
1000
0000
,
0100
0001
1000
0001
,
0100
1000
0100
0001
,
1000
0000
0010
0000
1000
0000
0001
0010
,
0100
1000
0010
0100
0001
1000
0001
0000
,
0100
0001
0010
1000
,
0010
0001
0010
1000
,
0001
0000
0100
0000
0001
0000
1000
0001
,
0010
0001
1000
0010
1000
0100
0001
0000
,
0000
0000
0000
0101
,
0000
0000
0000
1100
,
0000
0000
0000
1100
,
1100
0101
0101
0001
,
0000
0001
0000
1000
,
0100
1000
0000
0100
,
0000
0001
0000
1000
,
0000
0100
0000
1000
,
0000
1000
0000
0001
,
0100
0001
0000
0100
,
0000
1000
0000
0100
,
0000
0010
0000
0001
,
0000
0001
0000
1000
,
0100
0010
0000
0001
,
0000
0001
0000
0010
,
0001
1000
0000
0010
,
0000
0010
0000
0100
,
1000
0001
0000
0001
,
0000
1000
0000
0010
,
0000
0100
0000
0001
,
0000
0001
0000
1000
,
0001
1000
0000
0100
,
0000
0001
0000
1000
,
0000
0100
0000
0000
,
0000
0001
0000
1000
,
0100
1000
0100
0010
,
0000
0001
0000
0100
,
0000
0010
0000
0000
,
0000
0100
0000
0001
,
0100
0001
0100
0010
,
0000
1000
0000
1000
,
0000
0100
0000
1000
,
0100
1000
0100
0001
,
0100
0001
0100
0001
,
1000
0001
1000
2002
,
0000
0000
0000
0000
,
0000
0000
0000
0000
,
0000
0000
0000
0000
,
0000
0000
0000
0000
,
0000
0000
0000
0000
,
0000
0000
0000
0000
,
0000
0000
0000
0000
,
0000
0000
0000
0000
,
0000
0000
0000
0000
,
0000
0000
0000
0000
,
0000
0000
0000
0000
,
0000
0000
0000
0000
,
0000
0000
0000
0000
,
0000
0000
0000
0000
,
0000
0000
0000
0000
,
0000
0000
0000
0000
,
0000
0000
0000
0000
,
0000
0000
0000
0000
,
0000
0000
0000
0000
,
0000
0000
0000
0000
,
0000
0000
0000
3003
,
0000
0000
0000
0000
,
0000
0000
0000
0000
,
0000
0000
0000
0000
,
0000
0000
0000
0000
,
0000
0000
0000
0000
,
0000
0000
0000
0000
,
0000
0000
0000
0000
,
0000
0000
0000
0000
,
0000
0000
0000
0000
,
0000
0000
0000
0000
,
0000
0000
0000
0000
,
0000
0000
0000
0000
,
0000
0000
0000
0000
,
0000
0000
0000
0000
,
0000
0000
0000
0000
,
0000
0000
0000
0000
,
0000
0000
0000
0000
,
0000
0000
0000
0000
,
0000
0000
0000
0000
,
0000
0000
0000
0000
,
0000
0000
0000
0000
,
0000
0000
0000
0000
,
0000
0000
0000
0000
,
0000
0000
0000
0000
,
0000
0000
0000
0000
,
0000
0000
0000
0000
,
0000
0000
0000
0000
,
0000
0000
0000
0000
,
0000
0000
0000
0000
,
0000
0000
0000
0000
,
0000
0000
0000
0000
,
0000
0000
0000
0000
,
0000
0000
0000
0000
,
0000
0000
0000
0000
,
0000
0000
0000
0000
,
0000
0000
0000
0000
,
0000
0000
0000
0000
,
0000
0000
0000
0000
,
0000
0000
0000
0000
,
0000
0000
0000
0000
,
0000
0000
0000
0000
,
0000
0000
0000
0000
,
0000
0000
0000
0000
,
0000
0000
0000
0000
,
0000
0000
0000
0000
,
0000
0000
0000
0000
,
0000
0000
0000
0000
,
0000
0000
0000
0000
,
0000
0000
0000
0000
,
0000
0000
0000
0000
,
0000
0000
0000
0000
,
0000
0000
0000
0000
,
0000
0000
0000
0000
,
0000
0000
0000
0000
,
0000
0000
0000
0000
,
0000
0000
0000
0000
,
0000
0000
0000
0000
,
0000
0000
0000
0000
,
0000
0000
0000
0000
,
0000
0000
0000
0000
,
0000
0000
0000
0000
,
0000
0000
0000
0000
,
0000
0000
0000
0000
,
0000
0000
0000
0000
,
0000
0000
0000
0000
,
0000
0000
0000
0000
,
0000
0000
0000
0000
,
0000
0000
0000
0000
,
0000
0000
0000
0000
,
0000
0000
0000
0000
,
0000
0000
0000
0000
,
0000
0000
0000
0000
,
0000
0000
0000
0000
,
0000
0000
0000
0000
,
0000
0000
0000
0000
,
0000
0000
0000
0000
,
0000
0000
0000
0000
,
0000
0000
0000
0000
,
0000
0000
0000
0000
,
0000
0000
0000
0000
,
0000
0000
0000
0000
,
0000
0000
0000
0000
,
0000
0000
0000
0000
,
0000
0000
0000
0000
,
0000
0000
0000
0000
,
0000
0000
0000
0000
,
0000
0000
0000
0000
,
0000
0000
0000
0000
,
0022
0033
0000
0000
0000
0000
0000
0000
0000
0000
0000
0000
0000
0000
0000
0000
0000
0000
0000
0000
0000
0000
0000
0000
0000
0000
0000
0000
0000
0000
0000
0000
0000
0000
0000
0000
0000
0000
0000
0000
0000
0000
0000
0000
0000
0000
0000
0000
0000
0000
0000
0000
0000
0000
0000
0000
0000
0000
0000
0000
0000
0000
0000
0000
0000
0000
0000
0000
0000
0000
0000
0000
0000
0000
0000
0000
0000
0000
0000
0000
0000
0000
0000
0000
0000
0000
0000
0000
0000
0000
0000
0000
0000
0000
0000
0000
0000
0000
0000
0000
0000
0000
0000
0000
0000
0000
0000
0000
0000
0000
0000
0000
0000
0000
0000
0000
0000
0000
0000
0000
0000
0000
0000
0000
0000
0000
0000
0000
0000
0000
0000
0000
0000
0000
0000
0000
0000
0000
0000
0000
0000
0000
0000
0000
0000
0000
0000
0000
0000
0000
0000
0000
0000
0000
0000
0000
0000
0000
0000
0000
0000
0000
0000
0000
0000
0000
0000
0000
0000
0000
0000
0000
0000
0000
0000
0000
0000
0000
0000
0000
0000
0000
0000
0000
0000
0000
0000
0000
0000
0000
0000
0000
;

//--------------- dance-single - ----------------
#NOTES:
     dance-single:
     :
     Hard:
     17:
     0.763355,2.869124,0.237488,0.069849,0.048895,765,731,34,10,0,0,0.763355,2.869124,0.237488,0.069849,0.048895,765,731,34,10,0,0:
0000
0000
0000
0000
,
0000
0011
1001
1100
,
0110
1001
1100
1001
,
1100
0000
0010
0001
1000
0001
0010
0001
,
0100
0001
0010
0000
0001
0000
0000
1010
,
0000
1001
0000
1100
0000
0110
0000
1001
,
0000
1100
0000
1001
0000
1100
0000
1000
,
0000
1000
0010
1000
0001
1000
0010
1000
,
0100
0000
1000
0000
0100
0000
0010
0001
,
0000
0010
0001
0000
0100
0000
0010
1000
,
0000
0010
1000
0000
0001
0000
1000
0100
,
0000
1000
0010
1000
0001
1000
0010
1000
,
0100
0000
1000
0000
0100
0000
0010
0001
,
0000
0010
0001
0000
0100
0000
0010
1000
,
0000
0010
1000
0000
0001
0000
0010
0000
,
0001
0010
0100
1000
,
0100
1000
0100
1000
,
0010
0100
0010
0100
,
0001
1000
0001
1000
,
0001
1000
0001
1000
,
0001
1000
0001
1000
,
0001
0100
0010
0100
,
0010
0100
0010
0100
,
0010
0100
0010
0100
,
0001
0000
0000
0000
,
0000
0000
0000
0000
,
2002
0000
0000
0000
,
0000
0000
0000
0000
,
0000
0000
0000
0000
,
0000
0000
0000
0000
,
0000
0000
0000
0000
,
0000
0000
0000
0000
,
0000
0000
3003
0000
,
1000
0001
1000
0001
,
1000
0001
1000
0001
,
1000
0001
1000
0001
,
1000
0001
1000
0001
,
1000
0001
1000
0001
,
1000
0100
1000
0100
,
0010
0001
0010
0001
,
0100
0010
0100
0010
,
1000
0100
1000
0100
,
0010
0001
0010
0001
,
0100
0001
0100
0001
,
1000
0100
1000
0100
,
0010
0001
1000
0100
,
1000
2100
0000
3001
,
0001
0100
0001
1000
,
0100
0000
1000
0001
1000
0000
0001
0000
,
0100
0000
0010
1000
0001
0100
0001
1000
,
0001
0100
0001
0000
0001
0000
1000
0000
,
0001
0100
0001
1000
,
0100
0102
0000
1003
,
1000
0000
0001
1000
0100
1000
0001
0010
,
0100
1000
0001
1000
0100
1000
0001
0100
,
0001
0100
0001
0000
1000
0100
1000
0001
,
1000
0000
0001
0100
0001
0000
0010
0000
,
1000
0001
1000
0010
1000
0000
0010
0000
,
0100
0001
0100
0010
,
1000
0100
0010
0001
,
1000
0010
1000
0001
,
0100
0010
0100
1000
,
0100
0001
1000
0010
,
1000
0100
0010
0100
,
1000
0001
0010
0100
,
0001
0100
1000
0010
,
0100
0001
1000
0100
,
1000
0010
0100
0001
,
0100
1000
0100
0010
,
1000
0001
0010
0100
,
1000
0100
0001
0100
,
0010
0001
0100
0010
,
1000
0100
1000
0001
,
0100
0010
0100
1001
,
0010
0000
1000
0100
1000
0000
0001
0000
,
1000
0010
1000
0000
0100
0000
0010
0001
,
0010
0000
0100
0000
1000
0001
1000
0000
,
0010
0100
0010
0100
0001
0100
0001
0100
,
0010
0000
1000
0000
0001
0100
0001
0000
,
0010
0000
0100
1000
0100
0000
1000
0000
,
0001
0010
0001
0010
0100
1000
0100
1000
,
0001
0000
0000
0010
0000
0001
0100
0001
,
0000
1000
0000
0100
0010
0100
0000
1000
,
0000
0010
1000
0010
0000
0100
0000
0001
,
1000
0001
0000
0010
0100
0010
0100
1000
,
0100
1000
0100
0010
0001
0010
0000
0100
,
0000
0010
0100
0010
0000
0001
0000
1000
,
0010
1000
0010
0100
0001
0010
1000
0000
,
0100
0000
0001
0000
1000
0100
0001
0000
,
0100
1000
0010
0000
0010
0001
1000
0100
,
0010
0001
0010
1000
0010
0001
0100
0001
,
0010
1000
0001
0010
0100
1000
0010
0001
,
0010
1000
0100
0001
0100
1000
0100
0010
,
0001
0100
0010
0000
0001
0100
1000
0010
,
0001
0000
1010
0000
0001
0010
1000
0010
,
0100
0000
1001
0000
0010
0010
0010
0010
,
0010
0010
0010
0010
0010
0010
0010
0010
,
0010
0010
0000
0000
1000
0100
1000
0100
,
0001
0100
0001
0100
0010
0001
1000
0100
,
0000
1000
0010
0100
0100
1000
0100
0010
,
1000
0001
0010
0100
0001
0100
1000
0010
,
0100
0000
0001
0000
1000
0000
0100
0000
0001
0010
1000
0100
0010
0001
0100
1000
,
0100
0001
0010
0100
1000
0001
0010
1000
0010
0001
0100
0001
0010
1000
0010
0001
,
0100
1000
0100
0001
0010
0000
0000
0000
0000
0000
0000
0000
1001
0000
0000
0000
,
0100
1001
0010
1001
,
0100
1001
0010
1001
,
0100
1001
0010
1001
,
0100
1001
0010
1001
,
0100
0000
0220
0000
0330
0000
1000
0001
,
0100
0001
1000
0000
0001
0100
0001
1000
,
0000
0000
0001
1000
0100
1000
0001
0000
,
0100
0010
1000
0000
0000
0001
1000
0010
,
0100
0001
0000
0100
0000
0001
1000
0100
,
0000
1000
0000
1000
0001
0100
0000
0001
,
1000
0000
0010
0001
0010
0000
1000
0000
,
1000
0010
0000
0001
0100
0001
0100
0000
,
1000
0100
1000
0000
1000
0100
0000
0001
,
0000
1000
0000
0000
0001
0100
0001
0100
,
0001
0000
0001
1000
0000
1000
0010
0100
,
0001
0000
0001
0100
0001
0000
1000
0100
,
1000
0000
0100
0000
0001
1000
0001
0000
,
0000
1000
0000
0000
0010
1000
0000
0001
,
0100
0001
0000
0000
0010
0000
0100
0010
,
0100
0000
0100
0000
0001
0000
0001
0100
,
0010
1000
0001
0100
0001
0100
0001
0000
,
0100
0001
0100
0001
,
1000
0001
1000
0100
,
1000
0100
1000
0001
,
1000
0001
0100
0001
,
0100
0001
0100
0001
,
1000
0001
1000
0010
,
1000
0001
1000
0010
,
1000
0100
1000
0100
,
0010
0001
0010
0001
,
1000
0001
1000
0010
,
1000
0010
1000
0010
,
0100
0010
0100
0010
,
1000
0010
1000
0001
,
1000
0001
1000
0010
,
1000
0001
1000
0010
,
1000
0010
1000
0001
,
0010
0100
1000
0001
,
1000
0001
0100
0001
,
0010
0100
1000
0100
,
0010
0001
0100
0001
,
1000
0001
1000
0001
,
0100
0001
0100
0010
,
1000
0001
1000
0010
,
1000
0100
1000
0100
,
1000
0010
0100
0001
,
0100
0010
0100
0010
,
1000
0001
0010
0001
,
1000
0100
1000
0001
,
0100
0001
1000
0001
,
0100
0010
0100
0001
,
0100
0001
1000
2002
,
0000
0000
0000
0000
,
0000
0000
0000
0000
,
0000
0000
0000
0000
,
0000
0000
0000
0000
,
0000
0000
0000
0000
,
0000
0000
0000
0000
,
0000
0000
0000
0000
,
0000
0000
0000
0000
,
0000
0000
0000
0000
,
0000
0000
0000
0000
,
0000
0000
0000
0000
,
0000
0000
0000
0000
,
0000
0000
0000
0000
,
0000
0000
0000
0000
,
0000
0000
0000
0000
,
0000
0000
0000
0000
,
0000
0000
0000
0000
,
0000
0000
0000
0000
,
0000
0000
0000
0000
,
0000
0000
0000
0000
,
0000
0000
0000
3003
,
0000
0000
0000
0000
,
0000
0000
0000
0000
,
0000
0000
0000
0000
,
0000
0000
0000
0000
,
0000
0000
0000
0000
,
0000
0000
0000
0000
,
0000
0000
0000
0000
,
0000
0000
0000
0000
,
0000
0000
0000
0000
,
0000
0000
0000
0000
,
0000
0000
0000
0000
,
0000
0000
0000
0000
,
0000
0000
0000
0000
,
0000
0000
0000
0000
,
0000
0000
0000
0000
,
0000
0000
0000
0000
,
0000
0000
0000
0000
,
0000
0000
0000
0000
,
0000
0000
0000
0000
,
0000
0000
0000
0000
,
0000
0000
0000
0000
,
0000
0000
0000
0000
,
0000
0000
0000
0000
,
0000
0000
0000
0000
,
0000
0000
0000
0000
,
0000
0000
0000
0000
,
0000
0000
0000
0000
,
0000
0000
0000
0000
,
0000
0000
0000
0000
,
0000
0000
0000
0000
,
0000
0000
0000
0000
,
0000
0000
0000
0000
,
0000
0000
0000
0000
,
0000
0000
0000
0000
,
0000
0000
0000
0000
,
0000
0000
0000
0000
,
0000
0000
0000
0000
,
0000
0000
0000
0000
,
0000
0000
0000
0000
,
0000
0000
0000
0000
,
0000
0000
0000
0000
,
0000
0000
0000
0000
,
0000
0000
0000
0000
,
0000
0000
0000
0000
,
0000
0000
0000
0000
,
0000
0000
0000
0000
,
0000
0000
0000
0000
,
0000
0000
0000
0000
,
0000
0000
0000
0000
,
0000
0000
0000
0000
,
0000
0000
0000
0000
,
0000
0000
0000
0000
,
0000
0000
0000
0000
,
0000
0000
0000
0000
,
0000
0000
0000
0000
,
0000
0000
0000
0000
,
0000
0000
0000
0000
,
0000
0000
0000
0000
,
0000
0000
0000
0000
,
0000
0000
0000
0000
,
0000
0000
0000
0000
,
0000
0000
0000
0000
,
0000
0000
0000
0000
,
0000
0000
0000
0000
,
0000
0000
0000
0000
,
0000
0000
0000
0000
,
0000
0000
0000
0000
,
0000
0000
0000
0000
,
0000
0000
0000
0000
,
0000
0000
0000
0000
,
0000
0000
0000
0000
,
0000
0000
0000
0000
,
0000
0000
0000
0000
,
0000
0000
0000
0000
,
0000
0000
0000
0000
,
0000
0000
0000
0000
,
0000
0000
0000
0000
,
0000
0000
0000
0000
,
0000
0000
0000
0000
,
0000
0000
0000
0000
,
0000
0000
0000
0000
,
0000
0000
0000
0000
,
0000
0000
0000
0000
,
0000
0000
0000
0000
,
0000
0000
0000
0000
,
0000
0000
0000
0000
,
0000
0000
0000
0000
,
0000
0000
0000
0000
,
0022
0033
0000
0000
0000
0000
0000
0000
0000
0000
0000
0000
0000
0000
0000
0000
0000
0000
0000
0000
0000
0000
0000
0000
0000
0000
0000
0000
0000
0000
0000
0000
0000
0000
0000
0000
0000
0000
0000
0000
0000
0000
0000
0000
0000
0000
0000
0000
0000
0000
0000
0000
0000
0000
0000
0000
0000
0000
0000
0000
0000
0000
0000
0000
0000
0000
0000
0000
0000
0000
0000
0000
0000
0000
0000
0000
0000
0000
0000
0000
0000
0000
0000
0000
0000
0000
0000
0000
0000
0000
0000
0000
0000
0000
0000
0000
0000
0000
0000
0000
0000
0000
0000
0000
0000
0000
0000
0000
0000
0000
0000
0000
0000
0000
0000
0000
0000
0000
0000
0000
0000
0000
0000
0000
0000
0000
0000
0000
0000
0000
0000
0000
0000
0000
0000
0000
0000
0000
0000
0000
0000
0000
0000
0000
0000
0000
0000
0000
0000
0000
0000
0000
0000
0000
0000
0000
0000
0000
0000
0000
0000
0000
0000
0000
0000
0000
0000
0000
0000
0000
0000
0000
0000
0000
0000
0000
0000
0000
0000
0000
0000
0000
0000
0000
0000
0000
0000
0000
0000
0000
0000
0000
;

//--------------- dance-single - ----------------
#NOTES:
     dance-single:
     :
     Challenge:
     19:
     0,0,0,0,0:
0000
0000
0000
0000
,
0000
1010
1001
0011
,
1001
0110
1001
0110
,
1001
0000
0010
1000
0100
0010
0001
0100
,
0010
1000
0020
0000
1030
0000
0000
0001
,
2000
0010
3000
0010
0200
0001
0300
0001
,
2000
0100
3000
0100
0020
0001
0030
0001
,
1000
0010
0100
0001
1000
0100
0010
0001
,
1000
0001
0100
0000
0001
0000
1000
0010
,
0100
0001
1000
0000
0100
0000
1000
0010
,
0100
0001
1000
0000
0001
0000
1000
0100
,
0010
0001
1000
0001
0100
0001
0010
0100
,
1000
0010
0100
0000
0010
0000
1000
0100
,
0010
0001
1000
0000
0001
0000
1000
0100
,
0010
0001
0100
0000
0001
0000
0010
0000
,
0001
0010
0100
1000
,
0100
1000
0100
1000
,
0010
0100
0010
0100
,
0001
1000
0001
1000
,
0001
1000
0001
1000
,
0001
1000
0001
1000
,
0001
0100
0010
0100
,
0010
0100
0010
0100
,
0010
0100
0010
0100
,
0001
0000
0000
0000
,
0000
0000
0000
0000
,
2002
0000
0000
0000
,
0000
0000
0000
0000
,
0000
0000
0000
0000
,
0000
0000
0000
0000
,
0000
0000
0000
0000
,
0000
0000
0000
0000
,
0000
0000
3003
0000
,
1000
0001
1000
0001
,
1000
0001
1000
0001
,
1000
0001
1000
0001
,
1000
0001
1000
0001
,
1000
0001
1000
0001
,
1000
0100
1000
0100
,
0010
0001
0010
0001
,
0100
0010
0100
0010
,
1000
0100
1000
0100
,
0010
0001
0010
0001
,
0100
0001
0100
0001
,
1000
0100
1000
0100
,
0010
0001
1000
0100
,
1000
0011
0001
1000
,
0010
0100
1000
0001
,
0100
0000
0001
0100
1000
0000
0100
0001
,
0000
0001
1000
0010
0100
0001
0100
0010
,
1000
0100
1000
0000
1000
0000
0001
0000
,
1000
0000
0100
0000
1000
0000
0001
0010
,
0000
0010
0100
1000
0100
0000
0010
0000
,
0001
0000
1000
0100
0010
0001
0010
0100
,
1000
0001
1000
0001
0100
0001
1000
0100
,
0010
0100
1000
0000
0001
0100
0001
1000
,
0001
0000
0010
0100
1000
0010
0100
0001
,
0010
0100
1000
0010
1000
0000
0010
2000
,
0000
3100
0010
0001
0100
0000
0010
2000
,
0000
3001
0100
0001
0010
0000
0001
2000
,
0000
3010
1000
0100
0010
0000
0001
0000
,
0100
0000
0010
0100
0001
0000
1000
0200
,
0000
0310
0100
1000
0001
0000
0010
0002
,
0000
1003
0100
1000
0010
0000
0100
0002
,
0000
1003
0010
1000
0001
0000
0100
0000
,
0001
0000
0010
0001
0100
0000
0010
0200
,
0000
0301
1000
0100
0010
0000
0100
2000
,
0000
3010
0100
0001
0010
0000
0001
2000
,
0000
3100
1000
0001
0100
0000
0010
0000
,
1000
0000
0001
0010
0100
0000
1000
0020
,
0000
1030
0100
0010
0100
0000
1000
0002
,
0000
0103
0010
0100
0001
0000
0010
0002
,
0000
1003
0010
1000
0100
0000
1000
0000
,
0001
0000
0010
0100
0010
0000
1001
0000
,
0010
0000
1000
0100
1000
0000
0001
0000
,
1000
0010
1000
0000
0100
0000
0010
0001
,
0010
0000
0100
0000
1000
0001
1000
0000
,
0010
0100
0010
0100
0001
0100
0001
0100
,
0010
0000
1000
0000
0001
0100
0001
0000
,
0010
0000
0100
1000
0100
0000
1000
0000
,
0001
0010
0001
0010
0100
1000
0100
1000
,
0001
0000
0000
0100
0000
0010
0100
0001
,
0000
1000
0000
0001
0010
0100
0000
1000
,
0000
0001
1000
0010
0000
0100
0000
0010
,
1000
0100
0000
0010
0100
0010
0100
1000
,
0100
1000
0100
0010
0001
0010
0000
0100
,
0000
0010
0001
0100
0000
0001
0000
1000
,
0010
1000
0010
0100
1100
0000
0001
0000
,
0100
0001
1000
0000
0010
0000
0100
1000
,
0001
0100
1000
0000
0101
0000
1000
0000
,
0100
1000
0001
0000
0010
0000
0100
0001
,
1000
0100
0001
0000
0010
0000
0010
0000
,
1001
0000
0001
0100
0010
0000
1010
0000
,
0101
0000
0000
0000
0010
0001
0001
0001
,
0010
0001
0001
0000
0010
1000
1000
1000
,
0010
0000
1000
0000
1000
0000
0000
0000
0110
0000
1000
0010
0000
1000
0010
1000
,
0001
0000
0100
0001
0000
0100
0001
0100
0010
0000
0100
0010
0000
1000
0010
0100
,
0001
0000
1000
0001
0000
0010
0001
1000
0100
0000
0010
0100
0000
0010
0001
0100
,
0010
0000
1000
0010
0000
0100
0001
0100
1000
0000
0100
0010
0000
1000
0010
0001
,
0010
0000
0100
0010
0000
1000
0001
0100
1010
0000
1010
0000
1100
0000
1100
0000
,
0101
0101
0011
0011
0110
1010
1001
1100
,
0110
0000
0101
0000
1001
0000
0011
0000
1000
0100
0001
1000
0001
1000
0010
0001
,
0010
1000
0001
1000
0001
0100
1000
0001
0100
1000
0001
1000
0001
0010
1000
0010
,
0001
1000
0001
1000
0100
0000
0000
0000
0000
0000
0000
0000
1001
0000
0000
0000
,
0100
1001
0010
1001
,
0100
1001
0010
1001
,
0100
1001
0010
1001
,
0100
1001
0010
1001
,
0100
0000
0220
0000
0330
0000
0001
0010
,
1000
0100
0001
0000
1000
0010
0001
0100
,
1000
0000
1000
0100
0001
0010
1000
0000
,
0001
0100
1000
0010
0001
0000
0010
1000
,
0100
0010
0001
0100
0010
0001
1000
0100
,
0001
0010
1000
0000
0001
0100
1000
0010
,
0001
0000
0001
0010
1000
0100
0001
0000
,
1000
0010
0001
0100
1000
0000
0100
0010
,
1000
0100
0010
0001
0100
0010
1000
0010
,
0010
1000
0010
0000
1000
0100
0100
1000
,
0100
0000
0010
0001
0001
0010
0001
0100
,
0010
0000
1000
0100
0010
0000
0001
0100
,
0010
1000
0100
0010
0001
1000
0001
0000
,
0000
0011
0000
0000
0100
1000
0000
0001
,
0100
1000
0000
0000
0100
0000
0001
1000
,
0100
0000
0010
0000
0001
0000
1000
0100
,
0010
0001
0100
0010
0100
0010
1000
0000
,
0100
0010
0001
0100
,
0010
1000
0100
0010
,
0100
0000
0000
0010
0000
0000
0001
0000
0000
0010
0000
0100
,
0000
0010
0000
0100
0000
1000
0000
0100
0000
1000
0000
0000
,
0001
0100
0010
1000
,
0001
1000
0100
0010
,
0001
0000
0000
0100
0000
0000
0010
0000
0000
1000
0000
0010
,
0000
1000
0000
0001
0000
0100
0000
0001
0000
1000
0000
0000
,
0010
1000
0100
0010
,
0001
1000
0010
0100
,
0001
0000
0000
1000
0000
0000
0001
0000
0000
0010
0000
0100
,
0000
0010
0000
0001
0000
0100
0000
0010
0000
1000
0000
0000
,
0010
0100
0001
0100
,
0010
1000
0100
0010
,
0001
0000
0000
0100
0000
0000
0010
0000
0000
1000
0000
0001
,
0000
0010
0000
0001
0000
1000
0000
0100
0000
1000
0000
0000
,
0010
0100
0001
1000
,
0100
0010
0001
1000
,
0010
0000
0000
0100
0000
0000
0010
0000
0000
1000
0000
0001
,
0000
0100
0000
0001
0000
1000
0000
0100
0000
1000
0000
0000
,
0001
0010
0100
1000
,
0001
1000
0010
0100
,
0001
0000
0000
1000
0000
0000
0001
0000
0000
0100
0000
0010
,
0000
1000
0000
0100
0000
0010
0000
0001
0000
1000
0000
0001
,
0000
1000
0000
0001
0000
1000
0000
0001
0000
0100
0000
0010
,
0000
0100
0000
0010
0000
0100
0000
0010
0000
1000
0000
0010
,
0000
1000
0000
0010
0000
1000
0000
0010
0000
0100
0000
0001
,
0000
0100
0000
0001
0000
0100
0000
0001
0000
1000
0000
0100
,
0000
0010
0000
0001
0000
0100
0000
0010
0000
1000
0000
0100
,
0000
0010
0000
0001
0000
0100
0000
0010
0000
1000
0000
0100
,
0000
0010
0000
0001
0000
0100
0000
0010
0000
2000
0000
0000
,
0000
0000
0000
0000
,
0000
0000
0000
0000
,
0000
0000
0000
0000
,
0000
0000
0000
0000
,
0000
0000
0000
0000
,
0000
0000
0000
0000
,
0000
0000
0000
0000
,
0000
0000
0000
0000
,
0000
0000
0000
0000
,
0000
0000
0000
0000
,
0000
0000
0000
0000
,
0000
0000
0000
0000
,
0000
0000
0000
0000
,
0000
0000
0000
0000
,
0000
0000
0000
0000
,
0000
0000
0000
0000
,
0000
0000
0000
0000
,
0000
0000
0000
0000
,
0000
0000
0000
0000
,
0000
0000
0000
0000
,
0000
0000
0000
3000
,
0000
0000
0000
0000
,
0000
0000
0000
0000
,
0000
0000
0000
0000
,
0000
0000
0000
0000
,
0000
0000
0000
0000
,
0000
0000
0000
0000
,
0000
0000
0000
0000
,
0000
0000
0000
0000
,
0000
0000
0000
0000
,
0000
0000
0000
0000
,
0000
0000
0000
0000
,
0000
0000
0000
0000
,
0000
0000
0000
0000
,
0000
0000
0000
0000
,
0000
0000
0000
0000
,
0000
0000
0000
0000
,
0000
0000
0000
0000
,
0000
0000
0000
0000
,
0000
0000
0000
0000
,
0000
0000
0000
0000
,
0000
0000
0000
0000
,
0000
0000
0000
0000
,
0000
0000
0000
0000
,
0000
0000
0000
0000
,
0000
0000
0000
0000
,
0000
0000
0000
0000
,
0000
0000
0000
0000
,
0000
0000
0000
0000
,
0000
0000
0000
0000
,
0000
0000
0000
0000
,
0000
0000
0000
0000
,
0000
0000
0000
0000
,
0000
0000
0000
0000
,
0000
0000
0000
0000
,
0000
0000
0000
0000
,
0000
0000
0000
0000
,
0000
0000
0000
0000
,
0000
0000
0000
0000
,
0000
0000
0000
0000
,
0000
0000
0000
0000
,
0000
0000
0000
0000
,
0000
0000
0000
0000
,
0000
0000
0000
0000
,
0000
0000
0000
0000
,
0000
0000
0000
0000
,
0000
0000
0000
0000
,
0000
0000
0000
0000
,
0000
0000
0000
0000
,
0000
0000
0000
0000
,
0000
0000
0000
0000
,
0000
0000
0000
0000
,
0000
0000
0000
0000
,
0000
0000
0000
0000
,
0000
0000
0000
0000
,
0000
0000
0000
0000
,
0000
0000
0000
0000
,
0000
0000
0000
0000
,
0000
0000
0000
0000
,
0000
0000
0000
0000
,
0000
0000
0000
0000
,
0000
0000
0000
0000
,
0000
0000
0000
0000
,
0000
0000
0000
0000
,
0000
0000
0000
0000
,
0000
0000
0000
0000
,
0000
0000
0000
0000
,
0000
0000
0000
0000
,
0000
0000
0000
0000
,
0000
0000
0000
0000
,
0000
0000
0000
0000
,
0000
0000
0000
0000
,
0000
0000
0000
0000
,
0000
0000
0000
0000
,
0000
0000
0000
0000
,
0000
0000
0000
0000
,
0000
0000
0000
0000
,
0000
0000
0000
0000
,
0000
0000
0000
0000
,
0000
0000
0000
0000
,
0000
0000
0000
0000
,
0000
0000
0000
0000
,
0000
0000
0000
0000
,
0000
0000
0000
0000
,
0000
0000
0000
0000
,
0000
0000
0000
0000
,
0000
0000
0000
0000
,
0000
0000
0000
0000
,
0000
0000
0000
0000
,
0022
0033
0000
0000
0000
0000
0000
0000
0000
0000
0000
0000
0000
0000
0000
0000
0000
0000
0000
0000
0000
0000
0000
0000
0000
0000
0000
0000
0000
0000
0000
0000
0000
0000
0000
0000
0000
0000
0000
0000
0000
0000
0000
0000
0000
0000
0000
0000
0000
0000
0000
0000
0000
0000
0000
0000
0000
0000
0000
0000
0000
0000
0000
0000
0000
0000
0000
0000
0000
0000
0000
0000
0000
0000
0000
0000
0000
0000
0000
0000
0000
0000
0000
0000
0000
0000
0000
0000
0000
0000
0000
0000
0000
0000
0000
0000
0000
0000
0000
0000
0000
0000
0000
0000
0000
0000
0000
0000
0000
0000
0000
0000
0000
0000
0000
0000
0000
0000
0000
0000
0000
0000
0000
0000
0000
0000
0000
0000
0000
0000
0000
0000
0000
0000
0000
0000
0000
0000
0000
0000
0000
0000
0000
0000
0000
0000
0000
0000
0000
0000
0000
0000
0000
0000
0000
0000
0000
0000
0000
0000
0000
0000
0000
0000
0000
0000
0000
0000
0000
0000
0000
0000
0000
0000
0000
0000
0000
0000
0000
0000
0000
0000
0000
0000
0000
0000
0000
0000
0000
0000
0000
0000
;
