#TITLE:MAX 888 (THE ULTIMATE MIX BY DARK DASH);
#SUBTITLE:;
#ARTIST:Jenova Omega and Aya (Mixed by DJ Slash);
#TITLETRANSLIT:;
#SUBTITLETRANSLIT:;
#ARTISTTRANSLIT:;
#GENRE:;
#CREDIT:;
#MUSIC:MAX 888.ogg;
#BANNER:MAX 888.png;
#BACKGROUND:MAX 888-bg.png;
#CDTITLE:;
#SAMPLESTART:0.000;
#SAMPLELENGTH:9.457;
#SELECTABLE:YES;
#OFFSET:0.000;
#BPMS:0.000=6.080
,1.000=300.000
,5.000=303.000
,9.000=305.000
,11.000=310.000
,14.000=313.000
,17.000=315.000
,28.000=321.000
,33.000=325.000
,36.000=328.000
,40.000=331.000
,44.000=334.000
,53.000=341.000
,58.000=345.000
,66.000=350.000
,74.000=357.000
,82.000=360.000
,89.000=285.000
,90.000=370.000
,101.000=400.000
,102.000=408.000
,134.000=407.500
,168.500=285.000
,169.000=397.500
,184.000=380.000
,194.000=392.500
,219.000=525.000
,221.000=6.210
,222.000=400.000
,226.000=55.000
,227.000=392.000
,231.000=55.100
,232.000=496.000
,234.000=116.000
,235.000=480.000
,239.000=62.000
,240.000=166.000
,255.500=83.250
,263.750=67.250
,264.000=444.000
,328.000=888.000
,408.000=444.000
;
#STOPS:100.000=0.040
,100.250=0.040
,100.500=0.074
,101.000=0.036
,101.250=0.036
,101.500=0.075
,165.000=0.034
,165.250=0.038
,165.500=0.040
,165.750=0.034
,166.000=0.079
,166.250=0.036
,166.500=0.257
,166.750=0.273
,167.000=0.225
,167.250=0.275
,167.500=0.267
,167.750=0.270
,168.000=0.269
,168.250=0.238
,183.000=0.078
,183.500=0.078
,212.000=0.036
,212.250=0.036
,212.500=0.077
,232.000=0.057
,232.500=0.065
,233.000=0.063
,233.500=0.053
,255.500=0.243
;
#DISPLAYBPM:888.000;
#BGCHANGES:;
#FGCHANGES:;

//--------------- dance-single - ----------------
#NOTES:
     dance-single:
     :
     Beginner:
     6:
     0,0,0,0,0:
0000
0100
0000
0000
,
0000
0100
0000
0000
,
0000
0100
0000
0000
,
0000
0100
0000
0000
,
0000
0001
0000
0000
,
0000
0001
0000
0000
,
0000
0001
0000
0000
,
0000
0001
0000
0000
,
0000
1000
0000
0000
,
0000
1000
0000
0000
,
0000
1000
0000
0000
,
0000
1000
0000
0000
,
0000
0010
0000
0000
,
0000
0010
0000
0000
,
0000
0010
0000
0000
,
0000
0010
0000
0000
,
0000
1000
0000
0000
,
0000
0100
0000
0000
,
0000
0010
0000
0000
,
0000
0001
0000
0000
,
0000
0001
0000
0000
,
0000
0010
0000
0000
,
0000
0000
0001
0000
,
0000
0000
1000
0000
,
0010
0000
0001
0000
,
0000
0000
0100
0000
,
0000
0000
0100
0000
,
0000
0000
0100
0000
,
0100
0000
0100
0000
,
0000
0000
1001
0000
,
0000
0000
0001
0000
,
0000
0000
1000
0000
,
0010
0000
1000
0000
,
0100
0000
1001
0000
,
0000
0000
0100
0000
,
0000
0000
0100
0000
,
0000
0000
0100
0000
,
0000
0000
1000
0000
,
0000
0000
1000
0000
,
0000
0000
0100
0000
,
0000
0000
1000
0000
,
0000
0000
0000
0000
0000
1000
0000
1000
,
0000
0001
0000
0000
,
0000
0001
0000
0001
,
0000
1000
0000
0000
,
0000
0100
0000
0001
,
0001
0000
0000
0000
,
0010
0000
0100
0000
,
0000
0000
1000
0000
,
0000
0000
0010
0000
,
0000
0000
0100
0000
,
1000
0000
1000
0000
,
0000
0000
1000
0000
,
1000
1000
0000
0001
,
0000
0110
0000
0000
,
0000
1001
1000
0000
,
1000
0000
1000
0001
,
0000
0001
0000
0001
,
1000
0000
0000
0100
,
0000
0000
0000
0000
,
0001
0000
0000
0000
,
0001
0000
0000
0000
,
1000
0000
0000
0000
,
1000
0000
0000
0000
,
0100
0000
0010
0000
,
1000
0000
0001
0000
,
1000
1000
0000
0000
,
0000
0000
0100
0000
,
0100
0000
0100
0000
,
0000
0000
0001
0000
,
0001
0000
0001
0000
,
0000
0000
0010
0000
,
0010
0000
0010
0000
,
0000
0000
1000
0000
,
0001
0000
0100
0000
,
0001
0000
0100
0000
,
0001
0000
0100
0000
,
0001
0000
1000
0000
,
1000
0000
0100
0000
,
1000
0000
0100
0000
,
1000
0000
0100
0000
,
1000
0000
0001
0000
,
0010
0000
0000
0000
,
0100
0000
0000
0000
,
0010
0000
0000
0000
,
0100
0000
0000
0000
,
0010
0000
0000
0000
,
0100
0000
0000
0000
,
0010
0000
0000
0000
,
1000
0000
0000
0000
,
0100
0000
0000
0000
,
0010
0000
0000
0000
,
0100
0000
0000
0000
,
0010
0000
0000
0000
,
0100
0000
0000
0000
,
0010
0000
0000
0000
,
0100
0000
0000
0000
,
0001
0000
0000
0000
,
0100
0000
0000
0000
,
0000
0000
0000
0000
,
1001
0000
0000
0000
,
0000
0000
0000
0000
,
0110
0000
0000
0000
;

//--------------- dance-single - ----------------
#NOTES:
     dance-single:
     :
     Easy:
     11:
     0,0,0,0,0:
0000
0010
0000
1001
,
0000
0010
0000
1001
,
0000
0010
0000
1000
,
0001
2002
0000
0000
,
3003
0100
0000
1001
,
0000
0100
0000
1001
,
0000
0100
0000
0001
,
1000
2002
0000
0000
,
3003
0010
0000
0011
,
0000
0010
0000
0011
,
0000
0010
0000
0011
,
0000
0010
0001
0010
,
0001
0100
0000
1100
,
0000
0100
0000
1100
,
0000
0100
0000
1100
,
0000
0100
1000
0100
,
1000
0010
0000
0011
,
0000
0100
0000
1100
,
0000
0010
0000
1001
,
0000
0010
0100
0010
,
0100
0010
0000
1100
,
0000
0100
0000
0011
,
0000
0000
0001
0000
,
0100
0000
1000
0100
,
0010
0000
0001
0000
,
0110
0110
0100
1000
,
0010
0000
0100
0000
,
1001
0000
0100
0000
,
0100
0000
0100
0010
,
0001
0000
1001
0000
,
0100
0000
0001
0000
,
0100
0000
1000
0100
,
0010
0001
1000
0010
,
0100
0000
2001
0000
,
3002
0000
0203
0000
,
0320
0000
0230
0000
,
0302
0000
0203
0000
,
0320
0000
2030
0000
,
3200
0000
2300
0000
,
3020
0000
0230
0000
,
0302
0000
2003
0000
,
3200
0000
0000
0000
0000
0000
0000
0000
0300
0000
1000
1000
0001
0001
1000
1000
,
0001
0001
0000
0000
0001
0000
0000
0000
0000
0000
0000
0000
0100
0000
0000
0000
,
0000
0001
0100
0001
,
0000
1000
0000
0010
,
0000
0100
0001
1000
,
0001
0000
1000
0000
,
0010
0001
0100
0000
,
1001
0000
1000
0001
,
0001
0000
0010
0100
,
0001
0000
0100
0100
,
1000
0000
1000
0000
,
1001
0000
1000
0001
,
1000
0010
0100
0001
,
0000
0220
0000
0000
,
0330
0000
0000
0000
0000
0000
0000
0000
2002
0000
0000
0000
0000
0000
0000
3003
1000
0000
0000
0000
0000
0000
0000
0000
0001
0000
0000
0000
0000
0000
0000
0000
,
1000
0000
0000
0000
0001
0000
0000
0000
2000
0000
0000
3000
0001
0000
0000
0000
,
1000
0000
0000
0000
0001
0000
0000
0000
1000
0000
0000
0000
0002
0000
0000
0003
,
2000
0000
0000
3002
0000
0000
0203
0000
,
0000
0000
0320
0000
,
1030
1000
0001
0001
,
1000
0000
0100
0000
0010
0001
1000
0000
,
0001
0100
0001
0010
,
0100
0000
1000
0000
0001
1000
0001
0000
,
0100
0010
1000
0001
,
0010
0100
0001
1000
,
0100
0000
0010
0000
,
0100
0000
0010
0000
,
0100
0000
0001
0000
,
1000
0000
0010
0000
,
0100
0000
0010
0000
,
0100
0000
0010
0000
,
0100
0000
1000
0000
,
0001
0000
0010
0000
,
0100
1000
0100
0000
,
0010
0000
0001
0000
,
0010
0001
0010
0000
,
0100
0000
1000
0000
,
0001
0100
0001
0000
,
1000
0000
0010
0000
,
1000
0100
1000
0000
,
0001
0000
0010
0000
,
0010
0000
1000
0000
,
0010
0000
0000
0000
,
0100
0000
0000
0000
,
0001
0000
0000
0000
,
0100
0000
0001
0000
,
0100
0000
0000
0000
,
0010
0000
0000
0000
,
1000
0000
0000
0000
,
0001
0000
0010
0000
,
0001
0000
0000
0000
,
1000
0000
0000
0000
,
0100
0000
0000
0000
,
1000
0000
0010
0000
,
1000
0000
0000
0000
,
0001
0000
0000
0000
,
0100
0000
0000
0000
,
1000
0000
0000
0001
,
0000
0000
1000
0000
,
0100
0000
0000
0000
,
0000
0000
0100
0000
,
2002
0000
0000
0000
,
0000
0000
0000
3003
;

//--------------- dance-single - ----------------
#NOTES:
     dance-single:
     :
     Medium:
     14:
     0,0,0,0,0:
0000
0010
1000
0010
,
0001
0010
1000
0010
,
0001
0010
1000
0100
,
0010
2002
0000
0000
,
3003
0100
0001
0000
,
1000
0100
0001
0100
,
1000
0100
0010
1000
,
0001
2002
0000
0000
,
3003
0010
1000
0200
,
0000
0310
0001
0200
,
0000
0310
1000
0200
,
0300
2100
3100
0102
,
0103
0010
1000
0010
,
0000
0100
0001
0100
,
0000
0010
1000
0010
,
0000
0120
0130
2001
,
3001
0010
0001
1000
,
0000
0010
1000
0001
,
0000
0100
0001
1000
,
0000
1200
1300
0021
,
0031
0011
2100
0200
,
3300
1100
0012
0020
,
0033
0000
0001
0010
,
0100
1000
1000
0100
,
0010
0001
0001
1000
,
0110
0110
0100
1000
,
0010
1000
0100
0010
,
0001
0010
0100
1000
,
0100
1000
0100
0010
,
0001
0000
1001
0001
,
0100
0001
0001
1000
,
0100
1000
1000
0100
,
0010
0000
0001
0000
1000
0100
0010
0000
,
0001
0010
0100
0000
2001
0000
0000
0000
,
3002
0000
0203
0302
,
0023
0000
0230
0000
,
2300
0000
3002
0203
,
0320
0000
2030
0000
,
3200
0000
2300
3002
,
0023
0000
0230
0000
,
2300
0000
3200
2300
,
3200
0000
0000
0000
0000
0000
0000
0000
0300
0000
1000
1100
0001
0101
1000
1010
,
0001
0011
0000
0000
0001
0000
0000
0000
0100
0000
0000
0000
0100
0000
0000
0000
,
0001
0100
0001
0000
0100
0000
0001
0010
,
0001
0000
1000
0000
0100
1000
0010
0000
,
0100
0100
0001
1001
,
0001
0010
0100
0000
1000
0000
0100
0000
,
0010
0001
0100
0000
,
1001
0000
1000
0001
,
0001
1000
0010
0100
,
0001
0010
0100
0100
,
1000
0000
0010
0000
1000
0100
0010
0000
,
0001
0010
0100
0000
1000
0000
0001
0000
,
1001
0000
0010
0000
0010
0000
0001
0010
,
0100
0220
0000
0000
,
0330
0000
0000
0000
0000
0000
0000
0000
2002
0000
0000
0000
0000
0000
0000
3003
1000
0000
0000
0000
0000
0000
0000
0000
1000
0000
0000
0000
0000
0000
0000
0000
,
0001
0000
0000
0000
0001
0000
0000
0000
2002
0000
0000
3003
0100
0000
0000
0000
,
0100
0000
0000
0000
0010
0000
0000
0000
0010
0000
0000
0000
2002
0000
0000
3003
,
1000
0100
0010
0001
2000
0000
3020
0000
,
0000
0000
0230
0000
,
0301
0100
0020
0030
1000
0100
0020
0030
,
0001
1000
0001
1000
0001
1000
2000
3000
,
0001
0010
0200
0300
1000
0010
0200
0300
,
0001
1000
0001
1000
0001
1000
2000
3000
,
0100
0000
0000
0000
0010
0000
0000
1000
1000
0000
0000
0000
0001
0000
0000
0000
,
0100
0000
0000
0000
0010
0000
0000
0001
0001
0000
1000
0000
1000
0000
0100
0000
,
0010
0001
0010
0001
,
0010
0001
1000
0001
,
1000
0100
1000
0100
,
1000
0100
1000
0001
,
0010
0100
0010
0100
,
0010
0100
1000
0100
,
0010
0100
0010
0100
,
0010
0100
0001
0100
,
1000
0100
0010
0001
,
0010
0000
0100
0000
1000
0001
1000
0000
,
0001
0010
0100
1000
,
0100
0000
0010
0000
0001
1000
0001
0000
,
1000
0010
0100
0001
,
0100
0000
0010
0000
1000
0001
1000
0000
,
0001
0100
0010
1000
,
0010
0000
0100
0000
0001
1000
0001
0000
,
1000
0000
0100
0000
,
1000
0000
0001
0000
,
0100
0000
0010
0000
,
1000
0001
1000
0000
,
0001
0000
0100
0000
,
0001
0000
1000
0000
,
0100
0000
0010
0000
,
0001
1000
0001
0000
,
1000
0000
1000
0000
,
0100
0000
0100
0000
,
0010
0000
0010
0000
,
0001
0000
0001
0000
,
1000
0000
0100
0000
,
0010
0000
0001
0000
,
1000
0000
0100
0000
,
0010
0000
0001
0000
,
0011
0000
0000
1001
,
0000
0000
1100
0000
,
0000
0000
0000
0000
,
0000
0000
0010
0000
,
2002
0000
0000
0000
,
0000
0000
0000
3003
;

//--------------- dance-single - ----------------
#NOTES:
     dance-single:
     :
     Hard:
     18:
     0.87609,1.301955,0.676553,0.665641,0.158226,562,500,62,61,0,0,0.87609,1.301955,0.676553,0.665641,0.158226,562,500,62,61,0,0:
0000
0000
0010
0000
0010
0002
0000
1003
,
0000
1000
0010
0000
0010
2000
0000
3001
,
0000
0001
0010
0000
0001
2000
0000
3100
,
0000
0100
0010
0001
0000
0100
0000
0010
,
0000
1000
0010
0000
0010
2000
0000
3001
,
0000
0001
0010
0000
0010
0002
0000
1003
,
0000
1000
0010
0000
1000
0002
0000
0103
,
0000
0100
0010
1000
0000
0100
0000
0010
,
0000
0001
0100
0000
0100
0002
0000
1003
,
0000
1000
0100
0000
0100
2000
0000
3001
,
0000
0001
1000
0000
1000
0002
0000
0103
,
0000
0100
0101
0000
1001
0000
1100
0000
,
1001
0000
0010
0000
0100
2000
0000
3001
,
0000
0001
0100
0000
0010
2000
0000
3001
,
0000
0001
0010
0000
0001
2000
0000
3100
,
0000
0100
1100
0000
1001
0000
0101
0000
,
1001
0000
1000
0010
1000
0020
0000
1030
,
0000
1000
0001
0010
0001
0020
0000
0031
,
0000
0001
1000
0001
1000
0002
0000
0103
,
0000
0100
0110
0000
1100
0000
0110
0000
,
0101
0000
0001
0100
0001
2000
0000
3001
,
0000
0001
1000
0100
1000
0002
0000
1003
,
0000
1000
0010
0000
0101
0000
0010
0000
,
0100
0001
1000
0100
,
0010
0001
0101
1000
,
0100
1000
0010
0000
0100
0001
0010
0000
0100
0000
0000
0000
1000
0000
0000
0000
,
1010
1000
0100
0001
,
0011
0010
0100
0010
,
1100
1000
0100
0010
,
0011
0010
1001
0001
,
0100
0001
0011
1000
,
0100
1000
1010
0100
,
0011
0000
0001
0000
1000
0100
0010
0001
,
0010
0100
1000
0000
2001
0000
3002
0000
,
0203
0320
0230
0302
,
0023
0032
0203
0320
,
0230
0302
2003
3200
,
0320
0230
2300
3020
,
0230
2300
3200
0302
,
0023
2030
3020
0230
,
2300
3002
0203
2300
,
3200
0000
0000
0000
0320
0000
0000
0000
0000
0000
1030
1100
0001
0101
1000
1010
,
0001
0011
1000
0000
0001
0000
0000
0000
0101
0000
0000
0000
0101
0000
0000
0000
,
0001
0100
0001
0100
0001
0000
1000
0010
,
0001
0010
1000
0000
0100
1000
0010
0000
,
0100
0010
0100
0000
0101
0000
1001
0110
,
0001
0010
0100
0000
1000
0100
1000
0000
,
0010
0100
0001
0010
0100
0000
1100
0000
,
1000
1001
1000
0001
,
0101
1000
0010
0101
,
0001
0010
1100
0100
,
1000
0000
1010
0000
1000
0100
0010
0000
,
0001
0010
0100
1000
0001
0000
1001
0000
,
1000
0100
0010
0000
0011
0000
0000
0000
0011
0000
0000
0000
0001
0000
0010
0000
,
0100
0220
0000
0000
,
0330
0000
0000
0000
0000
0000
0000
0000
2002
0000
0000
0000
0000
0000
0000
3003
1100
0000
0000
0000
0000
0000
0000
0000
0110
0000
0000
0000
0000
0000
0000
0000
,
0011
0000
0000
0000
0110
0000
0000
0000
2002
0000
0000
3003
0101
0000
0000
0000
,
0110
0000
0000
0000
1010
0000
0000
0000
0110
0000
0000
0000
2002
0000
0000
3003
,
1000
0100
1001
0010
0002
0000
1003
0001
,
1000
0001
1000
0001
1000
0001
2000
0000
,
3001
0000
0100
0000
0010
1000
0000
0010
1000
0000
0100
0000
0010
0001
0000
0010
,
0001
0000
1000
0000
0001
0100
0000
0010
1000
0000
0001
0000
1001
0000
0000
0000
,
1000
0000
0100
0000
0010
0001
0000
0010
0001
0000
0100
0000
0010
1000
0000
0010
,
1000
0000
0001
0000
1000
0100
0000
0010
0001
0000
1000
0000
1001
0000
0000
0000
,
0100
0000
0000
1000
0000
0000
0010
0000
0000
0000
0000
0000
0001
0000
0000
0000
1001
0000
0000
0000
0000
0000
0100
0000
0100
0000
0000
0001
0000
0000
0010
0000
,
0010
0000
0000
0001
0000
0000
0100
0000
0000
0000
0000
0000
1000
0000
0000
0000
1001
0000
0000
0000
0000
0000
0010
0000
0010
0000
0000
1000
0000
0000
0100
0000
,
0010
0001
0010
0001
,
1000
0000
0100
0000
1000
0100
1000
0000
,
0010
1000
0010
1000
,
0001
0000
0100
0000
0001
0100
0001
0000
,
1000
0000
0001
0000
0010
0100
1000
0000
,
0001
0000
1000
0000
0010
0100
0001
0000
,
0010
0000
0100
0000
1000
0001
1000
0000
,
0001
1000
0010
0000
0100
0001
1000
0000
,
0001
0000
1000
0100
1000
0000
1000
0100
,
1000
0000
0001
0100
0001
0000
0001
0100
,
0001
0000
1000
0001
1000
0000
1000
0100
,
1000
0000
0001
1000
0001
0000
0001
0100
,
0010
0000
0100
0001
0100
0000
0010
1000
,
0010
0000
0100
0001
0100
0000
0010
1000
,
0001
0000
0010
0001
0010
0000
0001
0100
,
0001
0000
1000
0010
1000
0000
0001
0100
,
0010
1000
0010
1000
,
0010
1000
0001
0000
,
0010
0001
0010
0001
,
0010
0001
1000
0000
,
0010
1000
0010
0100
,
0001
1000
0100
0000
,
0010
0001
0010
0100
,
1000
0001
0100
0000
,
0010
1000
0001
0010
,
0100
0000
1000
0100
,
0010
0001
1000
0010
,
0100
0000
0001
0100
,
0010
1000
0100
0010
,
0001
0100
0010
1000
,
0100
0010
0001
0100
,
0010
1000
0001
0100
,
0001
0000
0000
1010
,
0000
0000
1001
0000
,
0000
0000
0000
0000
,
0000
0000
0110
0000
,
2002
0000
0000
0000
,
0000
0000
0000
3003
;

//--------------- dance-single - ----------------
#NOTES:
     dance-single:
     :
     Challenge:
     19:
     0.974299,1.811416,0.567432,0.687465,0.141858,625,573,52,63,0,0,0.974299,1.811416,0.567432,0.687465,0.141858,625,573,52,63,0,0:
0000
0000
1000
0000
1000
0100
0000
0101
,
0000
0100
0020
0000
0130
0002
0000
1003
,
0000
0100
0010
0000
1000
0100
0000
1010
,
0000
0000
0010
1000
0100
0010
0001
1000
,
0010
0100
0001
0000
0010
1000
0000
0101
,
0000
1000
0010
0000
0010
2000
0000
3001
,
0000
0001
0100
0000
0001
2000
0000
3100
,
0000
0001
0010
0100
1000
0010
0100
0001
,
0010
0100
2000
0000
3002
0000
1003
0010
,
0100
0000
1000
0010
0100
0001
0010
0100
,
2000
0000
3002
0000
2003
0000
3001
0100
,
0010
0000
0001
0100
0010
1000
0100
0010
,
0001
0000
1010
0000
0011
0000
0001
0010
,
0100
0000
0001
0010
1000
0010
0001
0100
,
1000
0000
0101
0000
1100
0000
1000
0100
,
0010
0000
1000
0100
0001
0100
1000
0010
,
0001
0000
0200
0000
0302
0000
0000
2003
,
3200
0000
0320
0000
2030
0000
0000
3002
,
0203
0000
2300
0000
3002
0000
0000
0203
,
0320
0130
1100
0011
,
1100
0000
0001
0010
0001
0010
0000
0001
,
0011
0000
1000
0100
1000
0100
0000
1000
,
1100
0000
1001
0000
0001
0100
0010
0000
,
0100
0010
0001
0000
0010
1000
0100
0000
,
0010
0100
0001
0000
1000
0010
0001
0000
,
1000
0010
0001
0000
0001
0100
1000
0000
0100
0000
0010
0000
1000
0000
0000
0000
,
0001
0010
1000
0000
0010
0001
0100
0000
,
1000
0100
0001
0000
0010
0100
1000
0000
,
0001
0010
1000
0000
0010
0000
0011
0000
,
0011
0000
0010
0001
1001
0000
0001
0000
,
0100
0000
0001
0010
1000
0000
1000
0000
,
1010
0000
1000
0010
0001
0100
0010
0001
,
0100
0010
1000
0100
0001
0100
0010
0001
,
0100
1000
0100
0010
2001
0000
3002
0000
,
0203
0320
0230
0302
,
0023
0000
0031
0001
0200
0000
0320
0000
,
0230
0302
2003
3200
,
0320
0000
0130
0100
2000
0000
3020
0000
,
0230
2300
3200
0302
,
0023
0000
1030
1000
0020
0000
0230
0000
,
2300
0000
3002
0000
0103
0010
1000
0100
,
0001
0000
0100
0000
1000
0001
0100
1000
0100
0001
1001
1010
0011
0101
1100
1010
,
0110
1001
1000
0000
0001
0000
0000
0000
0101
0000
0000
0000
1100
0000
0000
0000
,
1000
0100
0001
0010
1000
0000
1000
0010
,
0001
0100
1000
0000
1000
0100
0001
0000
,
0001
0010
1000
0000
0011
0000
1001
0110
,
0001
0100
1000
0000
1000
0100
0001
0000
,
1000
0100
0001
0100
1000
0000
1000
0100
,
0010
0001
0010
0100
1000
0000
0001
0100
,
0010
0000
1000
0100
0001
0000
0100
1000
,
0010
0000
1000
0100
0001
0000
0100
1000
,
0001
0000
1010
0000
1000
0100
0010
0001
,
0100
0010
1000
0100
0010
0000
1001
0000
,
1000
0010
0001
0000
0001
0000
0010
0000
1000
0000
0100
0000
0001
0000
0100
0000
,
1000
0010
0220
0000
0000
0000
0000
0000
,
0330
0000
0000
0000
0000
0000
0000
0000
2002
0000
0000
0000
0000
0000
0000
3003
1000
0000
0000
0000
0100
0000
0000
0000
0001
0000
0000
0000
0100
0000
0000
0000
,
1000
0000
0010
0000
0001
0000
0010
0000
2002
0000
0000
3003
0001
0000
0100
0000
,
1000
0000
0100
0000
0001
0000
0010
0000
1000
0000
0010
0000
2002
0000
0000
3003
,
1000
0100
1001
0010
0002
0000
1003
0100
,
0010
0001
0100
0010
1000
0100
0020
0000
,
1030
0000
1000
0000
1000
0100
0000
0100
0001
0020
0100
0000
1000
0030
0010
0001
,
0100
0000
0010
0000
1000
0010
0100
0001
0010
0000
1010
0000
0101
0000
0000
0000
,
0001
0000
0001
0000
0001
0100
0000
0100
1000
0020
0100
0000
0001
0030
0010
1000
,
0100
0000
0001
0000
0100
1000
0010
0100
0001
0000
0011
0000
1010
0000
0000
0000
,
2000
0000
0001
0001
0001
0000
0001
0000
,
0001
0000
0000
0000
0000
0000
0000
0000
0001
0000
0000
0000
0001
0000
0000
0000
0001
0000
0000
0000
0001
0000
0000
0000
3001
0000
0001
0010
0001
0010
0001
0000
,
0010
0001
0010
0001
0010
0001
0010
0000
,
0001
0100
0001
0100
0001
0100
0001
0000
,
0010
1000
0010
1000
0010
0000
0101
0000
,
0101
0000
0000
1010
0000
0000
1100
0000
,
1000
0100
0000
0100
0010
0000
0001
0100
,
0000
0010
1000
0000
1000
0100
0000
0010
,
0001
0000
0001
0100
0000
0100
1000
0010
,
0100
0001
0010
0100
1000
0010
0100
0000
,
1000
0010
0100
0001
0000
0000
0020
0000
,
0100
0100
0100
0100
,
0100
0000
0100
0000
0130
0000
1000
0001
,
1000
0000
0000
0110
0000
0000
0001
0100
,
0010
0000
1000
0100
1000
0000
0001
0100
,
0001
0010
0100
1000
0010
0100
0010
1000
,
0200
0000
0010
0000
0310
0000
0001
0010
,
0100
0000
0010
0001
0100
0000
1001
0000
,
1000
0001
0010
0100
,
1000
0100
0010
0001
,
0100
0010
1000
0100
,
1000
0010
0100
0001
,
0010
0100
1000
0010
,
0100
0001
1000
0010
,
0100
0001
0010
0100
,
0010
0001
0100
0010
,
1000
0100
1000
0010
,
0100
0010
1000
0100
,
1000
0010
0100
0001
,
0010
0100
1000
0010
,
0100
0010
0001
0010
,
0100
0010
1000
0100
,
0010
0100
0001
0100
,
1000
0010
0001
0000
,
0011
0000
0000
0110
,
0000
0000
1001
0000
,
0010
0100
0001
0010
,
0100
0000
0010
0000
,
2002
0000
0000
0000
,
0000
0000
0000
3003
;
