#TITLE:Jump Up, Super Star!;
#SUBTITLE:;
#ARTIST:The Super Mario Players;
#TITLETRANSLIT:;
#SUBTITLETRANSLIT:;
#ARTISTTRANSLIT:;
#GENRE:;
#CREDIT:;
#BANNER:Jump Up, Super Star!.png;
#BACKGROUND:Jump Up, Super Star!-bg.png;
#LYRICSPATH:;
#CDTITLE:;
#MUSIC:Jump Up, Super Star!.ogg;
#OFFSET:-1.173999;
#SAMPLESTART:41.464928;
#SAMPLELENGTH:14.999990;
#SELECTABLE:YES;
#BPMS:0.000000=204.000000
;
#STOPS:
;
#BGCHANGES:;
#KEYSOUNDS:;
#ATTACKS:;

//---------------dance-single - ----------------
#NOTES:
     dance-single:
     :
     Hard:
     12:
     0.507592,0.633167,0.412569,0.707261,0.602014,422.000000,373.000000,49.000000,84.000000,0.000000,0.000000,0.507592,0.633167,0.412569,0.707261,0.602014,422.000000,373.000000,49.000000,84.000000,0.000000,0.000000:
0000
0000
0000
0000
,
0000
0000
0000
0000
,
0000
0000
0000
0000
,
0000
0000
0000
0000
,
0000
0000
0000
0000
,
0000
0000
0000
0000
,
0000
0000
0000
0000
,
0000
0000
0000
0000
,
0000
0000
0000
0000
0000
0000
0000
0000
0010
0001
0000
1000
,
0000
0000
0000
0010
0000
0110
0000
0000
0001
0010
0000
0100
,
0000
0000
0000
1000
0000
0110
0000
0000
0001
1000
0000
0100
,
0000
0010
0001
0101
,
0100
0000
0000
0010
0000
0100
0000
0000
0000
1010
0000
0000
,
1000
0000
0000
1000
0000
0000
0100
0000
0010
0000
0000
0001
,
0000
0000
0000
0101
0000
0000
0100
0000
0010
0000
0000
1000
,
0100
0000
0020
0000
0000
0031
0100
0000
0020
0000
0000
1030
,
0100
0000
0020
0000
0000
0031
0100
0000
0010
1000
0000
0100
,
0000
0000
1000
0010
0000
0200
0000
0000
0301
0010
0000
0100
,
0000
0000
1000
0010
0000
0200
0000
0000
0310
1000
0000
0100
,
0000
0010
0010
0011
,
0001
0000
0100
0000
0000
0010
0000
0000
0000
0110
0000
0000
,
1000
0000
0000
1000
0000
0000
0001
0000
0010
0000
0000
0001
,
0000
0000
0000
0100
0000
0000
0100
0000
0000
0100
0000
0010
,
0000
0000
2000
0000
0000
0000
3200
0000
0000
0320
0000
0000
,
0031
0000
0100
0010
0000
2000
0000
0000
0000
3100
0000
0000
,
0010
0000
0001
0010
0000
0001
0000
0000
1000
0100
0000
1000
,
0000
2002
3003
0110
,
1000
0000
0000
0002
0000
0000
0000
0000
0100
0000
0000
0000
,
1003
0000
0000
0100
0000
0010
0000
0000
0000
0011
0000
0000
,
0001
0000
0000
0001
0000
0100
0000
0000
0000
0101
0000
0000
,
0100
0000
0000
0100
0000
0010
0000
0000
0010
1000
0000
0000
,
0100
0000
1000
0010
0000
0200
0000
0000
0301
0010
0000
0200
,
0000
0000
1300
0010
0000
0200
0000
0000
0301
0010
0000
0100
,
0000
0000
1000
0000
0001
0000
1000
0000
0001
0000
1000
0000
,
0001
0000
0000
2000
0000
0000
3020
0000
0000
0230
0000
0301
,
0000
0000
0010
0001
0000
0000
0010
0000
0100
0000
0000
2000
,
0000
0000
3010
0200
0000
0000
0301
0000
1000
0000
0000
0001
,
0000
0000
0010
0001
0000
0000
0010
0000
0001
0000
0000
0200
,
0000
0000
0310
2000
0000
0000
3002
0000
0023
0000
0000
0031
,
0000
0000
1000
0100
0000
0000
1000
0000
0100
0000
0000
0010
,
0000
0000
0100
0010
0000
0000
0001
0000
0000
1000
0000
0100
,
1000
0000
0001
1000
0000
0000
1000
0000
0001
1000
0000
0000
,
0001
0000
1000
0001
0000
0000
2000
0000
3010
0000
0000
1000
,
0000
0000
0100
1000
0000
0000
0100
0000
0010
0000
0000
0002
,
0000
0000
0103
0020
0000
0000
1030
0000
0000
1001
0000
0000
,
2000
3100
0200
0310
,
0020
0000
0000
0031
0000
0100
0000
0000
0010
1000
0000
0000
,
0002
0000
0000
0000
0000
0023
0000
0000
0000
0230
0000
0000
,
2300
0000
3002
0000
,
0023
0100
0100
0100
,
0031
0000
0000
0200
0000
0000
0310
0000
1000
0000
0000
0001
,
0000
0000
0010
0001
0000
0000
0010
0000
1000
0000
0000
0010
,
0000
0000
0001
2000
0000
0000
3020
0000
0230
0000
0000
0301
,
0000
0000
0010
0001
0000
0000
0100
0000
1000
0000
0000
0200
,
0000
0000
0310
2000
0000
0000
3200
0000
0310
0000
0000
0001
,
0000
0000
0100
0001
0000
0000
0010
0000
1000
0000
0000
0020
,
0000
0031
0020
0130
,
1001
0000
0000
0001
0000
0100
0000
0000
0010
0000
0000
0110
,
0000
0000
0000
0110
0000
0000
0100
0000
0001
0000
0000
1000
,
0000
0000
0010
1000
0000
0000
0100
0000
0001
0000
0000
0200
,
0000
0000
0310
0002
0000
0000
0103
0000
1000
0100
0000
1000
,
0200
0320
2030
3100
,
0110
0000
0000
0010
0000
0001
0000
0000
0010
0001
0000
0000
,
2000
3200
0302
0203
,
1300
1010
0010
0110
,
0002
0203
2300
3200
,
0301
0101
1000
0101
,
1000
1020
0000
0230
,
0302
0000
0023
0000
,
0130
0000
0110
0000
0000
0000
2002
0000
3003
0000
0000
0220
,
0000
0000
0330
0000
0000
2002
0000
0000
0000
0000
0000
0000
,
0000
0000
0000
3003
,
1000
0000
1000
0100
0000
0000
1100
0000
0000
1100
0000
0000
,
0100
0110
0020
0031
,
0001
0000
0001
0010
0000
0000
0011
0000
0000
0011
0000
0000
,
0010
0110
0200
1300
,
1000
0000
1000
0010
0000
0000
1010
0000
0000
1010
0000
0000
,
0010
0110
0200
0301
,
0001
0000
0001
0100
0000
0000
0101
0000
0000
0101
0000
0000
,
0100
0110
0020
1030
,
1000
0000
0001
0100
0000
0000
0110
0000
0000
1010
0000
0000
,
1000
1100
0200
0310
,
0001
0000
1000
0010
0000
0000
0110
0000
0000
0101
0000
0000
,
0001
0000
0010
0100
0000
0000
1000
0000
0100
1000
0000
0100
,
0010
0000
0001
0100
0000
0000
0101
0000
0000
0110
0000
0000
,
0010
0000
0000
1010
0000
0000
1000
0000
0001
0100
0000
0000
,
0210
0000
0000
0000
0000
0000
0301
0000
2000
0000
0000
3200
,
0000
0000
0000
1300
0000
0001
0100
0000
0020
0000
0000
0000
,
1030
0000
0000
0000
0000
1200
0000
0000
0000
0320
0000
0000
,
0000
0000
0032
0000
0000
0000
0203
0000
0000
2300
0000
0000
,
3100
0000
0010
0000
0000
0100
0010
0000
1000
0000
0000
1001
,
0000
0000
0001
1000
0000
0000
0000
0000
0000
0000
0000
0000
,
2002
0000
0000
0000
,
0000
0000
0000
0000
,
3003
0000
0000
0000
;

//---------------dance-single - ----------------
#NOTES:
     dance-single:
     :
     Medium:
     10:
     0.428206,0.513080,0.168396,0.715681,0.244174,356.000000,336.000000,20.000000,85.000000,0.000000,0.000000,0.428206,0.513080,0.168396,0.715681,0.244174,356.000000,336.000000,20.000000,85.000000,0.000000,0.000000:
// measure 0
0000
0000
0000
0000
,  // measure 1
0000
0000
0000
0000
,  // measure 2
0000
0000
0000
0000
,  // measure 3
0000
0000
0000
0000
,  // measure 4
0000
0000
0000
0000
,  // measure 5
0000
0000
0000
0000
,  // measure 6
0000
0000
0000
0000
,  // measure 7
0000
0000
0000
0000
,  // measure 8
0000
0000
0000
0000
,  // measure 9
1000
0000
0000
0010
0000
0100
0000
0000
0000
0001
0000
0000
,  // measure 10
0010
0000
0000
0100
0000
1000
0000
0000
0000
0001
0000
0000
,  // measure 11
0100
0010
1000
1100
,  // measure 12
0100
0000
0000
1000
0000
1000
0001
0000
0000
0011
0000
0000
,  // measure 13
0001
0000
0000
0001
0000
0000
0100
0000
0100
0010
0000
0000
,  // measure 14
0010
1000
0100
0010
,  // measure 15
0002
0000
1003
0000
0000
0000
0002
0000
1003
0000
0000
0000
,  // measure 16
0002
0000
1003
0000
0000
0000
0002
0000
1003
0000
0000
0000
,  // measure 17
0010
0000
0000
1000
0000
0010
0000
0000
0000
1000
0000
0000
,  // measure 18
0100
0000
0000
0010
0000
0001
0000
0000
0000
0001
0000
0000
,  // measure 19
0100
0010
1000
1100
,  // measure 20
1000
0000
1000
0001
0000
0000
0100
0000
0000
0101
0000
0000
,  // measure 21
0100
0000
0100
0010
0000
0000
1000
0000
0000
0001
0000
0000
,  // measure 22
0010
0000
0010
0001
0000
0000
0100
0000
0000
0010
0000
0000
,  // measure 23
1000
0000
0100
0000
0000
0000
0010
0000
0000
0001
0000
0000
,  // measure 24
2000
0002
3000
0103
,  // measure 25
0001
0000
0100
0001
0000
1000
0000
0000
0100
1000
0000
0100
,  // measure 26
0000
2000
0000
3001
,  // measure 27
0100
0001
0010
0100
,  // measure 28
1000
1000
0001
0001
,  // measure 29
1000
0100
0000
0110
,  // measure 30
0001
0000
0000
0001
0000
0000
0000
0000
0100
0010
0000
0000
,  // measure 31
1000
0110
0001
0110
,  // measure 32
1000
0110
0001
0110
,  // measure 33
0000
0000
2002
0000
0000
0000
0000
0000
0000
0000
0000
0000
,  // measure 34
3003
1000
0100
0010
,  // measure 35
0001
0000
0000
0001
0000
0000
0100
0000
0100
0010
0000
0000
,  // measure 36
2000
0000
0000
3020
0000
0000
0130
0000
0100
0002
0000
0000
,  // measure 37
1003
0000
0000
1000
0000
0000
0100
0000
0100
0010
0000
0000
,  // measure 38
0002
0000
0000
2003
0000
0000
3010
0000
0010
0200
0000
0000
,  // measure 39
0301
0000
0000
0001
0000
0000
0100
0000
0100
0010
0000
0000
,  // measure 40
2000
0000
0000
3020
0000
0000
1030
0000
1000
0002
0000
0000
,  // measure 41
2003
3010
0020
0130
,  // measure 42
0200
0301
0010
0011
,  // measure 43
1000
0000
0000
1000
0000
0000
0001
0000
0001
1000
0000
0000
,  // measure 44
0200
0000
0000
2300
0000
0000
3100
0000
0100
0020
0000
0000
,  // measure 45
0032
0203
2300
3200
,  // measure 46
0320
0000
1000
0000
,  // measure 47
2030
0000
0000
3000
0000
0002
0000
0000
0000
0203
0000
0000
,  // measure 48
0320
0000
2030
0000
,  // measure 49
3002
0203
0320
2030
,  // measure 50
3200
2300
3020
0230
,  // measure 51
0301
0000
0000
0001
0000
0000
0100
0000
0100
0001
0000
0000
,  // measure 52
0020
0000
0000
0230
0000
0000
1300
0000
1000
0002
0000
0000
,  // measure 53
0013
0000
0000
0010
0000
0000
0100
0000
0100
1000
0000
0000
,  // measure 54
0200
0000
0000
0320
0000
0000
0031
0000
0001
0200
0000
0000
,  // measure 55
0310
0000
0000
0010
0000
0000
0100
0000
0100
0010
0000
0000
,  // measure 56
0020
2030
3200
0310
,  // measure 57
1001
0100
0100
0100
,  // measure 58
0100
0010
1000
0100
,  // measure 59
0010
0000
0000
0010
0000
0000
0001
0000
0001
0100
0000
0000
,  // measure 60
0200
0000
0000
0320
0000
0000
1030
0000
1000
0100
0000
0100
,  // measure 61
2000
3020
0230
0302
,  // measure 62
0023
0000
0100
0000
,  // measure 63
0130
0000
0000
0100
0000
0000
1000
0000
1000
0100
0000
0000
,  // measure 64
0010
0002
0103
0110
,  // measure 65
1000
0000
0000
1000
0000
0000
0001
0000
0001
0010
0000
0000
,  // measure 66
0100
2000
3010
0110
,  // measure 67
0201
0302
0000
0023
,  // measure 68
0230
0000
2300
0000
,  // measure 69
0002
0000
0000
0000
,  // measure 70
0000
0000
3003
0000
,  // measure 71
0000
0000
0000
0000
,  // measure 72
1000
0000
0010
1000
0000
0000
0100
0000
0000
0001
0000
0000
,  // measure 73
0010
0010
0002
0103
,  // measure 74
0001
0000
0010
0001
0000
0000
0100
0000
0000
1000
0000
0000
,  // measure 75
0100
0100
2000
3100
,  // measure 76
0010
0000
0100
0010
0000
0000
1000
0000
0000
0010
0000
0000
,  // measure 77
0100
0100
0020
1030
,  // measure 78
0100
0000
0010
0100
0000
0000
0001
0000
0000
0100
0000
0000
,  // measure 79
0010
0010
2000
3001
,  // measure 80
1000
0000
0001
0010
0000
0000
0001
0000
0000
0100
0000
0000
,  // measure 81
0010
1010
2000
3100
,  // measure 82
0001
0000
1000
0100
0000
0000
0010
0000
0000
0001
0000
0000
,  // measure 83
0100
0110
0020
1030
,  // measure 84
0100
0000
1000
0001
0000
0000
0010
0000
0000
0100
0000
0000
,  // measure 85
1000
0000
0000
0011
0000
0000
0010
0000
0001
1000
0000
0000
,  // measure 86
0020
0000
0000
0000
0000
0000
0230
0000
0002
0300
0000
0023
,  // measure 87
0000
0000
0000
0031
0000
0100
0010
0000
2000
0000
0000
0000
,  // measure 88
3002
0000
0000
0000
0000
0203
0000
0000
0000
0320
0000
0000
,  // measure 89
0000
0000
2030
0000
0000
0000
3200
0000
0000
0320
0000
0000
,  // measure 90
0031
0000
1000
0000
0000
0001
1000
0000
0001
0000
0000
1001
,  // measure 91
0000
0000
1000
0001
0000
0000
0000
0000
0000
0000
0000
0000
,  // measure 92
2002
0000
0000
0000
,  // measure 93
0000
0000
0000
3003
;

//---------------dance-single - ----------------
#NOTES:
     dance-single:
     :
     Easy:
     6:
     0.300706,0.394677,0.117877,0.353631,0.000000,250.000000,236.000000,14.000000,42.000000,0.000000,0.000000,0.300706,0.394677,0.117877,0.353631,0.000000,250.000000,236.000000,14.000000,42.000000,0.000000,0.000000:
0000
0000
0000
0000
,
0000
0000
0000
0000
,
0000
0000
0000
0000
,
0000
0000
0000
0000
,
0000
0000
0000
0000
,
0000
0000
0000
0000
,
0000
0000
0000
0000
,
0000
0000
0000
0000
,
0000
0000
0000
0000
,
1000
0010
0100
0001
,
0010
0100
1000
0010
,
0100
0100
0010
0010
,
0001
0000
1000
0000
,
0001
1000
0100
0010
,
0100
1000
0010
0100
,
0001
0000
0100
0000
,
0010
0000
1000
0000
,
0002
0000
0203
0000
,
0320
0000
2030
0000
,
3001
0010
0100
1000
,
0010
0000
0100
0000
,
0001
1000
0010
0100
,
0001
0010
0100
1000
,
0010
0000
1000
0000
,
0010
0020
0000
1030
,
0100
0100
0100
0100
,
0100
2000
0000
3001
,
0100
0010
1000
0100
,
0010
0000
0001
0000
,
0100
0000
0000
0101
,
0100
0000
0000
0110
,
0010
0010
1000
1000
,
0100
0100
0010
0010
,
0000
0000
0000
0000
,
0000
0001
0100
0010
,
1000
1000
0100
0010
,
0002
0000
2003
0000
,
3001
0001
0100
0010
,
2000
0000
3020
0000
,
1030
1000
0100
0010
,
0002
0000
0203
0000
,
0310
0010
1000
1000
,
0100
1000
1000
0001
,
0100
0100
0010
1000
,
0200
0000
2300
0000
,
3010
0010
0010
0010
,
0020
0000
0230
0000
,
0302
0000
0023
0000
,
0230
0000
2300
0000
,
0002
0000
0000
3003
,
0000
1000
1000
0010
,
0100
0100
0001
0010
,
0002
0000
0203
0000
,
0310
1000
0100
0010
,
0002
0000
2003
0000
,
3010
1000
0100
0010
,
0002
0000
0203
0000
,
0300
0000
0000
0000
,
0000
0100
0100
0001
,
0010
0010
0001
0100
,
0020
0000
2030
0000
,
3100
0100
0100
0100
,
2000
0000
3002
0000
,
1003
0100
0010
0001
,
0001
0000
0100
0000
,
0010
1000
0100
0010
,
0001
0002
0000
0000
,
1003
2000
0000
3200
,
0320
0000
0032
0000
,
2000
0000
0000
0000
,
0000
0000
3003
0000
,
0000
0000
0000
0000
,
1000
1000
0100
0100
,
1000
1100
0000
1000
,
0001
0001
0100
0100
,
0001
0101
0000
0100
,
0010
0010
1000
1000
,
0100
1100
0000
1000
,
0010
0010
0100
0100
,
0001
0101
0000
0100
,
0010
0010
1000
1000
,
0100
1100
0000
1000
,
0001
0001
0010
0010
,
0100
0000
1100
0000
,
1000
1000
0010
0010
,
0100
0101
0000
0100
,
0020
0000
2030
0000
,
0200
0000
3300
0000
,
1001
0000
0110
0000
,
1001
0000
0110
0000
,
0010
0100
0010
1000
,
0001
1000
0000
0000
,
2002
0000
0000
0000
,
0000
0000
0000
3003
;

//---------------dance-single - ----------------
#NOTES:
     dance-single:
     :
     Beginner:
     3:
     0.159976,0.232386,0.084198,0.000000,0.000000,133.000000,123.000000,10.000000,0.000000,0.000000,0.000000,0.159976,0.232386,0.084198,0.000000,0.000000,133.000000,123.000000,10.000000,0.000000,0.000000,0.000000:
0000
0000
0000
0000
,
0000
0000
0000
0000
,
0000
0000
0000
0000
,
0000
0000
0000
0000
,
0000
0000
0000
0000
,
0000
0000
0000
0000
,
0000
0000
0000
0000
,
0000
0000
0000
0000
,
0000
0000
0000
0000
,
0000
0010
0000
0010
,
0000
1000
0000
1000
,
0000
0100
0000
0100
,
0000
0100
0000
0000
,
0000
1000
0000
1000
,
0000
0010
0000
0010
,
0000
0000
0010
0000
,
0000
0000
0010
0000
,
0000
0000
1000
0000
,
0000
0000
0001
0000
,
0000
0100
0000
0100
,
0000
0010
0000
0010
,
0000
1000
0000
1000
,
0000
0001
0000
0001
,
0000
0100
0000
0000
,
0100
0100
0000
0000
,
0010
0000
0010
0000
,
0010
0010
0000
0000
,
0000
1000
0000
1000
,
0000
0100
0000
0100
,
0000
0000
0000
0110
,
0000
0000
0000
1001
,
1001
0000
0000
0000
,
0000
0000
0000
0000
,
0000
0000
0000
0000
,
0000
0000
0000
0000
,
1000
0000
1000
0000
,
0001
0000
0001
0000
,
0100
0000
0100
0000
,
0010
0000
0010
0000
,
1000
0000
1000
0000
,
0001
0000
0001
0000
,
0100
0000
0000
0000
,
0100
0000
0000
0000
,
0010
0000
0010
0000
,
1000
0000
1000
0000
,
0100
0000
0000
0000
,
0100
0000
0000
0000
,
0100
0000
0100
0000
,
0010
0000
0010
0000
,
0001
0000
0000
0000
,
0001
0000
0000
0000
,
1000
0000
1000
0000
,
0010
0000
0010
0000
,
0100
0000
0100
0000
,
0001
0000
0001
0000
,
1000
0000
1000
0000
,
0100
0000
0100
0000
,
0000
0000
0000
0000
,
0000
0000
0000
0000
,
0010
0000
0010
0000
,
0001
0000
0001
0000
,
0100
0000
0100
0000
,
0010
0000
0000
0000
,
1000
0000
0001
0000
,
1000
0000
0000
0000
,
0100
0000
0010
0000
,
0100
0000
0000
0000
,
1000
0000
0001
0000
,
1001
0000
0000
0000
,
0110
0000
0000
0000
,
0000
0000
0000
0000
,
0000
0000
0000
0000
,
1000
0000
1000
0000
,
0001
0000
0000
0000
,
0100
0000
0100
0000
,
0001
0000
0000
0000
,
0010
0000
0010
0000
,
0001
0000
0000
0000
,
0100
0000
0100
0000
,
0010
0000
0000
0000
,
1000
0000
1000
0000
,
0100
0000
0000
0000
,
1000
0000
1000
0000
,
0010
0000
0010
0000
,
0100
0000
0100
0000
,
0010
0000
0000
0000
,
1000
0000
0001
0000
,
1000
0000
0001
0000
,
1001
0000
0000
0000
,
0110
0000
0000
0000
,
1001
0000
0000
0000
,
0110
0000
0000
0000
,
1001
0000
0000
0000
;
