#TITLE:CIRCUS U CRIC;
#SUBTITLE:;
#ARTIST:Nanako;
#TITLETRANSLIT:;
#SUBTITLETRANSLIT:;
#ARTISTTRANSLIT:;
#GENRE:;
#CREDIT:;
#BANNER:CIRCUS U CRIC.png;
#BACKGROUND:CIRCUS U CRIC-bg.png;
#LYRICSPATH:;
#CDTITLE:;
#MUSIC:CIRCUS U CRIC.ogg;
#OFFSET:-1.240000;
#SAMPLESTART:60.902866;
#SAMPLELENGTH:12.000000;
#SELECTABLE:YES;
#BPMS:0.000000=185.000000
;
#STOPS:
;
#BGCHANGES:;
#KEYSOUNDS:;
#ATTACKS:;

//---------------dance-single - ----------------
#NOTES:
     dance-single:
     :
     Hard:
     12:
     0.529873,0.611945,0.238059,0.161266,0.030717,483.000000,452.000000,31.000000,21.000000,0.000000,0.000000,0.529873,0.611945,0.238059,0.161266,0.030717,483.000000,452.000000,31.000000,21.000000,0.000000,0.000000:
0000
0000
0000
0000
,
0000
0000
0000
0000
,
0000
0000
0000
0000
,
0000
0000
0000
0000
,
0000
0000
0000
0000
,
0000
0000
0000
0000
,
0000
0000
0000
0000
,
0000
0000
0000
0000
0000
0000
0010
0100
,
1000
0010
0100
1000
0000
0000
0100
0001
,
0010
0100
0000
0000
0001
0100
1000
0100
,
0000
0010
0001
0100
0010
1000
0100
0010
,
0001
1000
0010
0100
0000
0000
1000
0100
,
0001
0010
0000
0000
0100
1000
0010
0100
,
0000
0010
1000
0100
0010
0001
1000
0001
,
1000
0100
1000
0001
0000
0001
1000
0010
,
1000
0001
0000
0001
1000
0010
0100
0001
,
0000
0001
0100
1000
0100
0001
0010
0100
,
1000
0010
1000
0001
0000
0001
1000
0100
,
1000
0001
0000
0001
0010
1000
0010
0001
,
0000
0001
0100
0010
1000
0100
0010
0001
,
0100
1000
0100
0001
0100
1000
0100
0002
,
1000
0000
0000
0000
,
2003
0000
0000
0000
,
3020
0000
0000
0000
,
0230
0000
0302
0000
,
0023
0000
0000
0000
,
0031
0001
1000
1000
,
0100
0000
0000
1001
0000
0000
0000
0000
,
0001
0001
1000
1000
,
1001
0000
0000
0110
0000
0000
0000
0000
,
1000
0100
0010
0001
1000
0000
1000
0010
,
0100
0000
1001
0000
0001
0010
0100
0010
,
0001
0000
1000
0010
0100
0000
0010
1000
,
0100
0000
1001
0000
1000
0010
0100
0001
,
0010
0100
0010
0001
0000
1001
0000
1000
,
0000
0010
1000
0100
0000
0000
1001
0001
,
1000
0000
0100
0010
0100
0000
0010
0001
,
0020
0000
0000
0002
0030
0000
0003
1000
,
0001
0010
0100
0010
0000
0000
0001
0100
,
0010
1000
0000
0000
0100
0100
0100
0100
,
0100
0000
0000
0000
0010
0001
0010
0010
,
0000
0011
0000
0101
0000
1001
0000
1100
,
2000
0000
0000
3020
0000
0000
0000
0000
,
0000
0000
0000
0000
0130
0001
0010
1000
,
0010
0000
0001
1000
0100
0000
0010
0001
,
0000
1001
0000
1001
0000
0000
0000
0000
,
1000
0100
0001
0100
1000
0000
1000
0010
,
0001
0010
1000
0000
1000
0001
0100
0010
,
1000
0100
0010
0000
0011
0000
1100
0000
,
1000
0010
0001
0010
1000
0000
1100
0000
,
0011
0000
1001
0000
0001
0010
1000
0010
,
0001
0100
0010
0000
1010
0000
0101
0000
,
0001
0100
0001
1000
0000
1000
0001
0010
,
0001
1000
0000
1000
0001
0100
1000
0100
,
0000
0100
0001
0010
0100
1000
0000
1000
,
0001
0010
0001
1000
0000
1000
0001
0100
,
0001
1000
0000
1000
0001
0010
1000
0010
,
0000
0010
0001
0100
0010
0000
1001
0000
,
1000
1000
0000
0010
0010
0000
0001
0001
,
0000
0010
0010
0000
0100
0100
0100
0100
,
1000
0010
0100
0001
0000
0000
1000
0010
,
0100
0000
0000
0001
0000
0000
0000
0000
0000
0000
0000
0000
1000
0000
0010
0000
0100
0000
0001
0000
0100
0000
0010
0000
,
1000
0000
0100
0000
1100
0000
0001
0000
0010
0000
0011
0000
,
2000
0000
0000
3020
,
0000
0000
0230
0000
,
0000
0302
0000
0000
,
1003
1000
1000
0010
,
0010
0000
0010
0000
0100
0001
0010
0100
,
1000
0010
0100
0000
0001
0000
1001
0000
,
1000
0100
0001
0100
0000
0100
1000
0010
,
0001
0010
0000
0010
1000
0100
0010
0001
,
0000
0001
0010
0100
1000
0001
0000
0001
,
1000
0010
0001
0010
0000
0010
1000
0100
,
0001
0100
0000
0100
1000
0010
0100
0001
,
0000
0001
0010
0100
1000
0000
1001
0000
,
2200
0000
3300
0022
,
0000
0033
1001
1001
,
1000
0001
0000
0000
1001
0000
0100
0010
,
0001
0100
0010
0001
0000
0000
0010
1000
,
0100
0010
0000
0000
1000
0010
0001
0010
,
0000
0100
1000
0010
0100
0001
0010
0100
,
1000
0001
0100
0010
0000
0000
0001
0010
,
1000
0100
0000
0000
0010
0001
0100
0010
,
0000
0100
0001
0010
0100
1000
0001
1000
,
0001
0010
0001
1000
0000
1000
0001
0100
,
0001
1000
0000
1000
0001
0100
0010
1000
,
0000
1000
0010
0001
0010
1000
0100
0010
,
0001
0100
0001
1000
0000
1000
0001
0010
,
0001
1000
0000
1000
0100
0001
0100
1000
,
0000
1000
0010
0100
0001
0010
0100
1000
,
0010
0001
0010
1000
0010
0001
0010
2000
,
0001
0000
3000
2002
,
0000
0000
0000
0000
,
0000
0000
0000
3003
;

//---------------dance-single - ----------------
#NOTES:
     dance-single:
     :
     Medium:
     9:
     0.414683,0.539952,0.261097,0.299493,0.015359,378.000000,344.000000,34.000000,39.000000,0.000000,0.000000,0.414683,0.539952,0.261097,0.299493,0.015359,378.000000,344.000000,34.000000,39.000000,0.000000,0.000000:
0000
0000
0000
0000
,
0000
0000
0000
0000
,
0000
0000
0000
0000
,
0000
0000
0000
0000
,
0000
0000
0000
0000
,
0000
0000
0000
0000
,
0000
0000
0000
0000
,
0000
0000
0000
0000
,
1000
0000
0001
0200
0000
0000
0310
0000
,
1000
0200
0000
0000
1300
0000
0010
0200
,
0000
0000
0301
1000
0100
0000
0110
0000
,
0001
0000
1000
0020
0000
0000
0130
0000
,
0001
0020
0000
0000
0031
0000
0100
0020
,
0000
0000
1030
0001
0010
0000
0110
0000
,
1000
0001
0100
0000
0001
0000
1000
0010
,
0100
0000
0010
0000
1000
0100
0010
0000
,
0010
0000
0010
0100
1000
0000
1100
0000
,
0001
1000
0010
0000
1000
0000
0001
0100
,
0010
0000
0100
0000
0001
0010
0100
0000
,
0100
0000
0100
0010
0001
0000
0011
0000
,
1000
0100
0010
0001
1000
0100
0010
0001
,
0200
0000
0000
0000
,
0320
0000
0000
0000
,
2030
0000
0000
0000
,
3200
0000
2300
0000
,
3002
0000
0000
0000
,
0103
0100
0010
0010
,
1000
0000
0000
1001
0000
0000
0000
0000
,
1000
1000
0001
0001
,
1001
0000
0000
0110
0000
0000
0000
0000
,
1000
0000
0020
0000
0130
0000
0100
0001
,
0010
0000
0100
0000
1000
0001
0100
0000
,
0001
0000
0200
0000
0310
0000
0010
1000
,
0100
0000
0010
0000
0001
1000
0100
0000
,
1000
0000
1000
0100
0000
0010
0000
0010
,
0000
0100
1000
0010
0000
0000
0100
0000
,
0001
0001
0010
0100
,
1100
0000
1000
0000
1002
0000
0000
1003
,
0100
0000
1000
0100
0000
0000
0010
0000
,
0001
0100
0000
0000
0010
0100
0010
0100
,
0010
0000
0000
0000
1001
0000
1000
0001
,
0000
0100
0000
0100
0000
0100
0000
0100
,
0020
0000
0000
2030
0000
0000
0000
0000
,
0000
0000
3100
0100
,
1000
0000
1010
0000
0001
0000
0001
0010
,
0000
0010
0000
0110
0000
0000
0000
0000
,
1000
1000
1000
0001
,
0001
0001
0100
0100
,
0100
0010
0110
0110
,
1000
1000
1000
1100
,
1010
1001
0100
0100
,
0100
0010
0110
0110
,
1000
0010
0100
0000
0010
0000
1000
0001
,
0010
0000
0100
0000
0010
0001
0100
0000
,
0010
0000
0010
1000
0100
0000
1100
0000
,
0001
0100
0010
0000
0100
0000
0001
1000
,
0100
0000
0010
0000
0100
1000
0010
0000
,
0100
0000
0100
0001
0010
0000
0011
0000
,
0002
0000
0000
2003
0000
0000
3200
0000
,
0000
0320
0000
0000
0031
0000
0001
0000
,
0100
0000
0010
0100
0000
0000
0010
0000
,
0100
0010
0000
0000
2000
0000
0000
0000
,
3010
0000
0100
0000
0001
0000
0010
0000
0100
0000
1000
0000
,
0002
0000
0000
0203
,
0000
0000
0320
0000
,
0000
2030
0000
0000
,
3100
0100
0100
1100
,
1001
1010
0010
0010
,
0010
0010
1001
1001
,
1000
0100
0001
0000
0100
0000
1000
0010
,
0001
0000
0010
0000
1000
0100
0010
0000
,
0010
0000
0001
0100
0010
0000
0110
0000
,
0001
0010
1000
0000
0010
0000
0001
0100
,
1000
0000
0100
0000
0001
0010
0100
0000
,
0100
0000
1000
0010
0100
0000
0110
0000
,
2000
0000
0000
3002
,
0000
0003
2002
0000
,
3003
0000
0000
0000
,
0001
0000
1000
0020
0000
0000
0130
0000
,
0001
0020
0000
0000
0031
0000
0100
0020
,
0000
0000
1030
0001
0010
0000
0110
0000
,
1000
0000
0001
0200
0000
0000
0310
0000
,
1000
0200
0000
0000
1300
0000
0010
0200
,
0000
0000
0301
1000
0100
0000
0110
0000
,
0001
1000
0010
0000
1000
0000
0001
0100
,
0010
0000
0100
0000
0001
0010
0100
0000
,
0100
0000
0100
0010
0001
0000
0011
0000
,
1000
0001
0100
0000
0001
0000
1000
0010
,
0100
0000
0010
0000
1000
0100
0010
0000
,
0010
0000
0010
0100
1000
0000
1100
0000
,
0001
0010
0100
1000
0001
0010
0100
1000
,
0020
0000
0030
2002
,
0000
0000
0000
0000
,
0000
0000
0000
3003
;

//---------------dance-single - ----------------
#NOTES:
     dance-single:
     :
     Easy:
     6:
     0.279746,0.323971,0.023038,0.161266,0.000000,255.000000,252.000000,3.000000,21.000000,0.000000,0.000000,0.279746,0.323971,0.023038,0.161266,0.000000,255.000000,252.000000,3.000000,21.000000,0.000000,0.000000:
// measure 0
0000
0000
0000
0000
,  // measure 1
0000
0000
0000
0000
,  // measure 2
0000
0000
0000
0000
,  // measure 3
0000
0000
0000
0000
,  // measure 4
0000
0000
0000
0000
,  // measure 5
0000
0000
0000
0000
,  // measure 6
0000
0000
0000
0000
,  // measure 7
0000
0000
0000
0000
,  // measure 8
1000
0100
0000
0001
,  // measure 9
0100
0000
1000
0010
,  // measure 10
0000
0001
0010
0000
,  // measure 11
1000
0010
0000
0001
,  // measure 12
0100
0000
0001
0010
,  // measure 13
0000
1000
0100
0000
,  // measure 14
1000
1000
0100
0010
,  // measure 15
0010
0001
0100
0100
,  // measure 16
0010
1000
1000
0000
,  // measure 17
0001
0001
0100
0010
,  // measure 18
0010
1000
0100
0100
,  // measure 19
0010
0001
0001
0000
,  // measure 20
1000
0001
1000
0001
,  // measure 21
2002
0000
3003
0000
,  // measure 22
2000
0000
0000
0000
,  // measure 23
3002
0000
0000
0000
,  // measure 24
2003
0000
3200
0000
,  // measure 25
0320
0000
0000
0000
,  // measure 26
0031
0001
1000
1000
,  // measure 27
0100
0000
0010
0000
,  // measure 28
0001
0001
1000
1000
,  // measure 29
0010
0000
0100
0000
,  // measure 30
0001
1000
0100
0000
,  // measure 31
0010
0001
1000
0000
,  // measure 32
0010
1000
0100
0000
,  // measure 33
0010
0001
0100
0010
,  // measure 34
1000
0001
0100
0000
,  // measure 35
0010
0100
0001
0000
,  // measure 36
1000
0100
0010
0000
,  // measure 37
0001
0100
0010
1000
,  // measure 38
0100
0100
0000
0010
,  // measure 39
0001
0000
0100
0100
,  // measure 40
0100
0000
0010
1000
,  // measure 41
0100
0000
0010
0000
,  // measure 42
0002
0000
0203
0000
,  // measure 43
0320
0000
2030
0000
,  // measure 44
3100
0010
0001
0100
,  // measure 45
0010
0010
0010
0000
,  // measure 46
1000
1000
1000
0001
,  // measure 47
0001
0001
0100
0010
,  // measure 48
0100
0010
1000
0000
,  // measure 49
0001
0001
0001
1000
,  // measure 50
1000
1000
0010
0100
,  // measure 51
0010
0100
0010
0000
,  // measure 52
1000
0100
0001
0100
,  // measure 53
1000
0100
0001
0100
,  // measure 54
1000
0100
0001
0100
,  // measure 55
1000
0010
0001
0010
,  // measure 56
1000
0010
0001
0010
,  // measure 57
1000
0010
0001
0010
,  // measure 58
2000
0000
0000
3200
,  // measure 59
0000
0000
0310
0000
,  // measure 60
0001
0001
0000
1000
,  // measure 61
1000
0000
0020
0000
,  // measure 62
1030
1000
0001
0001
,  // measure 63
0100
0000
0000
0100
,  // measure 64
0000
0000
0100
0000
,  // measure 65
0000
0100
0000
0000
,  // measure 66
0010
0010
0010
0100
,  // measure 67
0100
0100
0001
1000
,  // measure 68
0001
1000
0100
0000
,  // measure 69
0001
0010
1000
0010
,  // measure 70
0001
0010
1000
0010
,  // measure 71
0001
0010
1000
0010
,  // measure 72
0001
0100
1000
0100
,  // measure 73
0001
0100
1000
0100
,  // measure 74
0001
0100
1000
0100
,  // measure 75
0002
0000
0000
2003
,  // measure 76
0000
0000
0002
0000
,  // measure 77
3003
0000
0000
0000
,  // measure 78
0001
0010
0000
1000
,  // measure 79
0010
0000
0001
0100
,  // measure 80
0000
1000
0100
0000
,  // measure 81
0001
0100
0000
1000
,  // measure 82
0010
0000
1000
0100
,  // measure 83
0000
0001
0010
0000
,  // measure 84
0001
0001
0010
0100
,  // measure 85
0100
1000
0010
0010
,  // measure 86
0100
0001
0001
0000
,  // measure 87
1000
1000
0010
0100
,  // measure 88
0100
0001
0010
0010
,  // measure 89
0100
1000
1000
0000
,  // measure 90
0001
1000
0001
1000
,  // measure 91
2002
0000
3003
2002
,  // measure 92
0000
0000
0000
0000
,  // measure 93
0000
0000
0000
3003
;

//---------------dance-single - ----------------
#NOTES:
     dance-single:
     :
     Beginner:
     3:
     0.155780,0.211373,0.046076,0.000000,0.000000,142.000000,136.000000,6.000000,0.000000,0.000000,0.000000,0.155780,0.211373,0.046076,0.000000,0.000000,142.000000,136.000000,6.000000,0.000000,0.000000,0.000000:
// measure 0
0000
0000
0000
0000
,  // measure 1
0000
0000
0000
0000
,  // measure 2
0000
0000
0000
0000
,  // measure 3
0000
0000
0000
0000
,  // measure 4
0000
0000
0000
0000
,  // measure 5
0000
0000
0000
0000
,  // measure 6
0000
0000
0000
0000
,  // measure 7
0000
0000
0000
0000
,  // measure 8
1000
0000
0000
0001
,  // measure 9
0000
0000
1000
0000
,  // measure 10
0000
0001
0000
0000
,  // measure 11
0100
0000
0000
0010
,  // measure 12
0000
0000
0100
0000
,  // measure 13
0000
0010
0000
0000
,  // measure 14
1000
0000
0000
0010
,  // measure 15
0010
0000
0100
0000
,  // measure 16
0000
0001
0001
0000
,  // measure 17
1000
0000
0000
0100
,  // measure 18
0100
0000
1000
0000
,  // measure 19
0000
0010
0010
0000
,  // measure 20
0100
0000
0100
0000
,  // measure 21
0100
0000
0000
0000
,  // measure 22
0010
0000
0000
0000
,  // measure 23
0010
0000
0000
0000
,  // measure 24
0010
0000
0000
0000
,  // measure 25
0010
0000
0000
0000
,  // measure 26
0010
0000
0000
0000
,  // measure 27
0010
0000
0000
0000
,  // measure 28
0010
0000
0000
0000
,  // measure 29
0010
0000
0000
0000
,  // measure 30
1000
0000
0001
0000
,  // measure 31
1000
0000
0100
0000
,  // measure 32
1000
0000
0010
0000
,  // measure 33
0100
0000
0001
0000
,  // measure 34
0010
0000
0001
0000
,  // measure 35
0100
0000
0010
0000
,  // measure 36
1000
0000
0100
0000
,  // measure 37
0010
0000
0010
0000
,  // measure 38
0001
0000
0000
0001
,  // measure 39
0000
0000
0001
0000
,  // measure 40
1000
0000
1000
0000
,  // measure 41
0001
0000
0000
0000
,  // measure 42
1000
0000
0000
0000
,  // measure 43
0010
0000
0000
0000
,  // measure 44
0100
0000
0001
0000
,  // measure 45
1001
0000
0000
0000
,  // measure 46
1000
1000
0000
0100
,  // measure 47
0100
0000
0010
0010
,  // measure 48
0000
0001
0001
0000
,  // measure 49
0100
0100
0000
0010
,  // measure 50
0010
0000
1000
1000
,  // measure 51
0000
0100
0100
0000
,  // measure 52
1000
0000
0100
0000
,  // measure 53
1000
0000
0001
0000
,  // measure 54
0100
0000
0001
0000
,  // measure 55
0010
0000
0100
0000
,  // measure 56
0010
0000
0001
0000
,  // measure 57
0100
0000
0010
0000
,  // measure 58
1000
0000
0000
0000
,  // measure 59
0000
0000
0000
0000
,  // measure 60
0001
0000
0000
0000
,  // measure 61
0000
0000
0000
0000
,  // measure 62
1001
0000
0110
0000
,  // measure 63
1001
0000
0000
0000
,  // measure 64
0000
0000
0000
0000
,  // measure 65
0000
0000
0000
0000
,  // measure 66
0010
0010
0000
0010
,  // measure 67
0010
0000
0010
0010
,  // measure 68
0000
0010
0010
0000
,  // measure 69
1000
0000
0001
0000
,  // measure 70
0100
0000
0010
0000
,  // measure 71
0100
0000
0001
0000
,  // measure 72
0010
0000
0100
0000
,  // measure 73
0010
0000
0001
0000
,  // measure 74
0100
0000
0010
0000
,  // measure 75
1001
0000
0000
0000
,  // measure 76
0000
0000
0000
0000
,  // measure 77
0000
0000
0000
0000
,  // measure 78
0001
0000
0000
1000
,  // measure 79
0000
0000
0001
0000
,  // measure 80
0000
1000
0000
0000
,  // measure 81
0010
0000
0000
0100
,  // measure 82
0000
0000
0010
0000
,  // measure 83
0000
0100
0000
0000
,  // measure 84
0001
0000
0000
0100
,  // measure 85
0100
0000
0010
0000
,  // measure 86
0000
1000
1000
0000
,  // measure 87
0001
0000
0000
0010
,  // measure 88
0010
0000
0001
0000
,  // measure 89
0000
0100
0100
0000
,  // measure 90
0010
0000
0010
0000
,  // measure 91
0010
0000
0000
1001
;
