#VERSION:0.83;
#TITLE:dynamo;
#SUBTITLE:;
#ARTIST:Unknown artist;
#TITLETRANSLIT:;
#SUBTITLETRANSLIT:;
#ARTISTTRANSLIT:;
#GENRE:;
#ORIGIN:;
#CREDIT:;
#BANNER:banner.png;
#BACKGROUND:Dynamo.png;
#PREVIEWVID:;
#JACKET:;
#CDIMAGE:;
#DISCIMAGE:;
#LYRICSPATH:;
#CDTITLE:;
#MUSIC:VOEZ - dynamo.mp3;
#OFFSET:0.000000;
#SAMPLESTART:99.971581;
#SAMPLELENGTH:12.000000;
#SELECTABLE:YES;
#BPMS:0.000=160.000;
#STOPS:;
#DELAYS:;
#WARPS:;
#TIMESIGNATURES:0.000=4=4;
#TICKCOUNTS:0.000=4;
#COMBOS:0.000=1;
#SPEEDS:0.000=1.000=0.000=0;
#SCROLLS:0.000=1.000;
#FAKES:;
#LABELS:0.000=Song Start;
#BGCHANGES:;
#KEYSOUNDS:;
#ATTACKS:
;

//---------------dance-single - ----------------
#NOTEDATA:;
#CHARTNAME:;
#STEPSTYPE:dance-single;
#DESCRIPTION:;
#CHARTSTYLE:;
#DIFFICULTY:Hard;
#METER:7;
#RADARVALUES:0.676929,0.842128,0.887653,0.535203,0.094639,726.000000,590.000000,136.000000,82.000000,0.000000,3.000000,0.000000,0.000000,0.000000,0.676929,0.842128,0.887653,0.535203,0.094639,726.000000,590.000000,136.000000,82.000000,0.000000,3.000000,0.000000,0.000000,0.000000;
#CREDIT:;
#NOTES:
// measure 0
0000
0000
0000
0000
,  // measure 1
0000
0000
0000
0000
,  // measure 2
0000
0000
0000
2002
,  // measure 3
0000
0000
0000
0000
,  // measure 4
3003
0000
0000
0000
0100
0010
0001
0010
,  // measure 5
0100
1000
0100
0010
0001
0100
1000
0100
,  // measure 6
0010
0100
1000
0100
0010
0001
0100
0010
,  // measure 7
0001
0010
0100
1000
0100
0010
0100
1000
,  // measure 8
0010
0001
0010
0100
0010
0001
0010
0100
,  // measure 9
0010
0100
0010
1000
0001
1000
0001
1000
,  // measure 10
0001
1000
0001
1000
1001
0010
1000
0100
,  // measure 11
0010
0010
1000
0010
0001
0100
0001
0100
,  // measure 12
0001
0100
0100
1000
0100
0100
0100
0010
,  // measure 13
0010
0010
0001
0001
0001
0001
0001
0010
,  // measure 14
0010
0010
0010
0010
0100
0100
0100
0100
,  // measure 15
0100
1000
1000
1000
1100
0000
0100
0000
,  // measure 16
0100
0010
0010
0010
0001
0000
0001
0001
,  // measure 17
0001
0100
0100
0100
1100
0000
1000
1000
,  // measure 18
0010
0010
0010
0010
0001
0001
0001
0001
,  // measure 19
0010
0010
0010
0010
1000
1000
1000
1000
,  // measure 20
0100
0100
0100
0100
0200
0000
0000
0300
,  // measure 21
0100
0010
0100
0010
0100
0000
1001
0000
,  // measure 22
1001
0000
1001
0000
1010
0000
1010
1010
,  // measure 23
0000
1010
1010
1010
1100
0000
1100
0000
,  // measure 24
1100
1100
1100
1100
1100
0101
0000
0101
,  // measure 25
0000
0101
0000
0101
0101
0101
0101
0000
,  // measure 26
0101
0101
0000
0011
0011
1100
0011
0000
,  // measure 27
0011
0011
0000
1010
1010
1100
1100
0000
,  // measure 28
1010
1010
1010
0000
0000
1010
0000
0011
,  // measure 29
0100
1000
0100
0001
1000
0010
0001
0100
,  // measure 30
1000
0100
0010
0100
0010
1000
0001
1000
,  // measure 31
1001
0001
1000
0100
0010
0011
0100
1000
,  // measure 32
0100
0010
0011
0100
1000
0110
0001
0010
,  // measure 33
0110
0001
0010
0100
1100
0010
0100
1100
,  // measure 34
0010
0001
0010
0110
0001
0010
0100
1100
,  // measure 35
1000
0100
1000
1010
0010
1000
0001
0010
,  // measure 36
0011
0001
0100
0001
0100
0010
0100
0010
,  // measure 37
0100
0110
1000
0001
1000
0001
1000
0110
,  // measure 38
0001
0010
0100
1100
0010
0001
0010
1100
,  // measure 39
0010
0001
0010
0100
1000
0110
0001
0010
,  // measure 40
0110
0001
0010
1100
0100
0010
0100
1000
,  // measure 41
0011
0001
0010
1100
0001
0010
1100
0100
,  // measure 42
0010
0110
0100
0000
1002
0000
0003
0000
,  // measure 43
2002
0000
0000
3003
0000
1001
0000
1001
,  // measure 44
0000
1001
0000
1001
0000
2002
0000
0000
,  // measure 45
3203
0000
0320
0000
0032
0000
0020
0003
,  // measure 46
0230
2300
3200
0320
,  // measure 47
0032
0023
0230
2300
,  // measure 48
3200
0320
0032
0023
,  // measure 49
0230
2300
3200
0320
,  // measure 50
0032
0023
0230
2300
,  // measure 51
3200
0320
0032
0023
,  // measure 52
0230
2300
3002
2003
,  // measure 53
3002
0000
2003
0000
3002
0000
2000
0003
,  // measure 54
3002
0000
0000
2003
0000
3002
0000
2003
,  // measure 55
0000
3002
0000
2003
0000
3002
0000
0023
,  // measure 56
0000
0230
0320
0000
0230
0000
2300
0000
,  // measure 57
3002
2003
3020
0230
,  // measure 58
0320
0230
0302
2003
,  // measure 59
3002
0000
2000
0003
3020
0000
0230
0000
,  // measure 60
0320
0000
0000
0000
0000
2000
0000
0000
,  // measure 61
0000
0000
0000
0000
0000
0002
0030
0000
,  // measure 62
0000
0000
0000
3000
,  // measure 63
0000
0000
0000
0000
0003
0010
0100
1000
0100
0010
0001
0000
0100
0000
1000
0000
,  // measure 64
0000
0000
0000
0000
1000
0100
0010
0001
0010
0100
0000
0000
1000
0000
0100
0000
,  // measure 65
0000
0000
0000
0000
0100
0000
0001
0010
0100
1000
0100
0010
0001
0000
0001
0000
,  // measure 66
0000
0000
0000
0000
0010
0001
0010
0100
1000
0100
0010
0000
0011
0000
0000
0000
,  // measure 67
0000
0000
0000
0000
1000
0100
0010
0001
0010
0100
1001
0000
0100
0000
1000
0000
,  // measure 68
0100
0000
0010
0000
0001
0000
0010
0000
1000
0000
0100
0100
0100
0100
0001
0000
,  // measure 69
0010
0000
1000
0000
0100
0000
0100
0000
0010
0010
0010
0010
0010
0000
0000
0000
,  // measure 70
0001
0000
0020
0200
0000
0330
0000
0000
1000
0000
0100
0010
0010
0010
0010
0000
,  // measure 71
0000
0000
0010
0000
0200
2000
3300
0000
0000
0010
0010
0010
0010
0000
0000
0000
,  // measure 72
0010
0000
0002
2000
0003
3000
0000
0100
0100
0100
0100
0000
1001
0000
0010
0010
,  // measure 73
0010
0010
0001
0010
0010
0010
0010
0010
,  // measure 74
0100
0100
1000
0100
0001
0010
0010
0010
,  // measure 75
0100
1000
0100
0010
0001
0010
1000
0100
,  // measure 76
0010
0001
0100
1000
0010
0001
0001
0001
,  // measure 77
1000
1000
0010
0001
0010
0100
0100
0100
,  // measure 78
1000
0010
0001
0010
0100
1000
1000
1000
,  // measure 79
0010
0010
0001
0010
0100
0010
0100
1100
,  // measure 80
0010
0000
0001
0010
0200
0000
1301
0000
,  // measure 81
1001
1001
1001
1001
,  // measure 82
0011
0000
0011
0000
1100
0000
1100
0001
,  // measure 83
0010
0010
0010
0001
0001
0100
0100
0100
,  // measure 84
0100
1000
1000
1000
1000
0100
0011
0010
,  // measure 85
0100
1000
0110
0001
0010
0110
0001
0010
,  // measure 86
0100
1000
0110
0100
1000
0100
0011
0010
,  // measure 87
0100
0010
0001
0110
1000
0100
0010
0100
,  // measure 88
1100
0010
0220
0000
0000
0330
1001
1001
,  // measure 89
0000
1001
0000
1001
0000
1001
0000
1001
,  // measure 90
0000
1001
0000
1001
0000
1001
0000
1001
,  // measure 91
0000
1001
0000
1001
0000
1010
0000
1010
,  // measure 92
0000
1010
0000
1100
0000
0011
0000
0101
,  // measure 93
0000
0011
0000
1100
0000
1010
0000
1100
,  // measure 94
0000
1010
0000
0011
0000
0000
0101
0000
,  // measure 95
0011
1100
1010
0011
,  // measure 96
0101
0000
1100
0000
2020
0000
0000
3030
,  // measure 97
1001
1001
1001
1001
,  // measure 98
1001
1001
1001
1001
,  // measure 99
1001
1001
0000
0000
;
