#VERSION:0.83;
#TITLE:Yggdrasil;
#SUBTITLE:;
#ARTIST:Unknown artist;
#TITLETRANSLIT:;
#SUBTITLETRANSLIT:;
#ARTISTTRANSLIT:;
#GENRE:;
#ORIGIN:;
#CREDIT:;
#BANNER:banner.png;
#BACKGROUND:Yggdrasil.png;
#PREVIEWVID:;
#JACKET:;
#CDIMAGE:;
#DISCIMAGE:;
#LYRICSPATH:;
#CDTITLE:;
#MUSIC:VOEZ - Yggdrasil.mp3;
#OFFSET:0.000000;
#SAMPLESTART:99.971581;
#SAMPLELENGTH:12.000000;
#SELECTABLE:YES;
#BPMS:0.000=180.000;
#STOPS:;
#DELAYS:;
#WARPS:;
#TIMESIGNATURES:0.000=4=4;
#TICKCOUNTS:0.000=4;
#COMBOS:0.000=1;
#SPEEDS:0.000=1.000=0.000=0;
#SCROLLS:0.000=1.000;
#FAKES:;
#LABELS:0.000=Song Start;
#BGCHANGES:;
#KEYSOUNDS:;
#ATTACKS:
;

//---------------dance-single - ----------------
#NOTEDATA:;
#CHARTNAME:;
#STEPSTYPE:dance-single;
#DESCRIPTION:;
#CHARTSTYLE:;
#DIFFICULTY:Hard;
#METER:8;
#RADARVALUES:0.497987,1.005098,0.188428,0.028989,0.471069,481.000000,455.000000,26.000000,4.000000,0.000000,2.000000,32.000000,0.000000,0.000000,0.497987,1.005098,0.188428,0.028989,0.471069,481.000000,455.000000,26.000000,4.000000,0.000000,2.000000,32.000000,0.000000,0.000000;
#CREDIT:;
#NOTES:
// measure 0
0000
0000
0000
0000
,  // measure 1
0000
0000
0000
0000
,  // measure 2
0000
0000
0000
0000
0000
0000
0000
0000
0000
0000
0000
0000
0100
0000
0000
1000
,  // measure 3
0000
0000
0010
0000
0000
0001
0000
0000
0010
0000
0000
0100
0000
0000
1000
0000
,  // measure 4
0000
0100
0000
0000
1000
0000
0000
0100
0000
0000
0010
0000
0000
0001
0000
0000
,  // measure 5
1000
0000
0000
0100
0000
0000
0010
0000
0000
0001
0000
0000
0010
0000
0000
0100
,  // measure 6
0000
0000
1000
0000
0000
0100
0000
0000
0011
0000
0000
0000
0100
0000
0000
0010
,  // measure 7
0000
0000
0001
0000
0000
0010
0000
0000
0100
0000
0000
1000
0000
0000
0100
0000
,  // measure 8
0000
0010
0000
0000
0001
0000
0000
1000
0000
0000
0100
0000
0000
0010
0000
0000
,  // measure 9
0001
0000
0000
0010
0000
0000
0100
0000
0000
1000
0000
0000
0010
0000
0000
0001
,  // measure 10
0010
0100
1000
0010
0100
1000
0000
0100
,  // measure 11
0000
0010
0000
0000
0001
0000
0000
0010
0000
0000
0100
0000
0000
1000
0000
0000
,  // measure 12
0100
0000
0000
0010
0000
0000
0001
0000
0000
0010
0000
0000
0100
0000
0000
1000
,  // measure 13
0000
0000
0100
0000
0000
0010
0000
0000
0001
0000
0000
0010
0000
0000
0100
0000
,  // measure 14
0000
1000
0000
0000
0100
0000
0010
0000
1001
0000
0000
0000
1000
0000
0000
0100
,  // measure 15
0000
0000
0010
0000
0000
0001
0000
0000
0010
0000
0000
0100
0000
0000
1000
0000
,  // measure 16
0000
0001
0000
0000
0010
0000
0000
0100
0000
0000
1000
0000
0000
0100
0000
0000
,  // measure 17
0010
0000
0000
0001
0000
0000
0010
0000
0000
0100
0000
0000
1000
0000
0000
0100
,  // measure 18
0000
0000
0010
0000
0000
0001
0000
0010
0000
0100
0000
0000
0000
0000
2002
0000
,  // measure 19
0000
0000
0000
0000
0000
0000
0000
3003
,  // measure 20
0000
1000
0100
0010
0001
0010
0001
0010
,  // measure 21
0010
0100
1000
0100
0010
0000
0001
0000
,  // measure 22
0001
0010
0100
1000
0100
0010
0001
0010
,  // measure 23
0000
0000
1000
0100
0010
0100
1000
0100
,  // measure 24
0010
0001
0010
0100
0010
0001
0010
0100
,  // measure 25
1000
0000
1000
0001
1000
0001
1000
0001
1000
0001
1000
0001
1000
0001
1000
0001
,  // measure 26
1000
0001
1000
0001
1000
0001
1000
0001
1000
0000
0000
0000
0000
0000
0004
0000
,  // measure 27
0000
0000
0000
4003
0000
0000
0000
0000
,  // measure 28
0000
0000
0000
0000
0000
0000
3000
0400
,  // measure 29
0000
0000
0000
0340
0000
0000
0000
0034
,  // measure 30
0000
0000
0000
0043
0000
0000
0000
0430
,  // measure 31
0000
0000
0000
4304
0000
0000
0000
0000
,  // measure 32
0000
0000
0000
0000
0000
0000
0000
3003
,  // measure 33
0010
0000
0000
0100
0000
0000
1000
0000
0000
0100
0000
0000
0010
0000
0000
0001
,  // measure 34
0000
0000
0010
0000
0000
0100
0000
0000
1000
0000
0000
0100
0000
0000
0001
0000
,  // measure 35
0040
0000
0000
0430
0000
1300
0001
4000
,  // measure 36
0000
0000
3004
0000
0000
0000
0000
0043
,  // measure 37
0000
0130
1000
0000
0100
0010
0000
0001
,  // measure 38
0010
0100
0000
1000
0100
0010
0000
0004
,  // measure 39
0000
0000
0000
0043
0000
0000
0000
0000
,  // measure 40
0000
0000
0000
0000
0000
0000
0000
0030
,  // measure 41
1000
0000
0000
0100
0000
0000
0010
0000
0000
0001
0000
0000
0010
0000
0000
0100
,  // measure 42
0000
0000
1000
0000
0000
0100
0000
0000
0010
0000
0000
0001
0000
0000
0400
0000
,  // measure 43
0000
0000
2000
0300
0000
0000
0000
0000
,  // measure 44
0000
0000
0000
0000
,  // measure 45
0000
0000
0000
0000
,  // measure 46
0000
0100
0010
0001
0010
0100
0000
0010
,  // measure 47
0001
0010
0100
0010
0001
0010
0100
3010
,  // measure 48
0001
0010
0010
0010
,  // measure 49
0010
0010
0100
0100
,  // measure 50
0100
0100
0100
1001
,  // measure 51
1001
1001
1001
1001
,  // measure 52
1001
1001
1001
1001
,  // measure 53
1001
1001
1001
1001
,  // measure 54
1001
0000
1001
0000
1001
0000
1001
1000
,  // measure 55
0000
0100
0000
0000
0010
0000
0000
0001
0000
0000
0010
0000
0000
0100
0000
0000
,  // measure 56
1000
0000
0000
0100
0000
0000
0010
0000
0000
0001
0000
0000
0010
0000
0000
0100
,  // measure 57
0000
0000
1000
0000
0000
0100
0000
0000
0010
0000
0000
0001
0000
0000
0010
0000
,  // measure 58
0000
0100
0000
0000
1000
0000
0000
0100
0000
0000
0010
0000
0000
0001
0400
0000
,  // measure 59
0000
0000
0000
0000
0000
0000
0000
0340
,  // measure 60
0000
0000
0000
0000
0000
0030
4000
0000
,  // measure 61
0000
0000
0000
0000
0000
3000
0000
4001
,  // measure 62
0000
0000
0000
0000
0000
0000
3000
4100
,  // measure 63
0000
0000
0000
0000
0000
0000
0000
3044
,  // measure 64
0000
0000
0000
0000
0000
0000
0033
4001
,  // measure 65
0000
0000
0040
0000
,  // measure 66
0000
0000
0000
0000
,  // measure 67
3030
1000
0100
0000
0010
0001
0010
0100
,  // measure 68
1000
0400
0000
0000
0000
0000
0300
0001
,  // measure 69
0000
0010
1000
0100
0010
0001
0010
0100
,  // measure 70
1000
0100
0010
0001
0010
0100
1000
0000
,  // measure 71
4004
0000
0003
0040
0000
0000
0000
0000
,  // measure 72
0000
3000
0130
0100
0100
0100
0100
1000
,  // measure 73
0100
0000
0000
0010
0000
0000
0001
0000
0000
0010
0000
0000
0100
1000
0100
0010
,  // measure 74
0001
0010
0100
1000
0100
0010
0001
0010
0100
1000
0100
0010
0001
0010
0100
1000
,  // measure 75
0100
0010
0001
0000
1000
0000
0000
0100
0000
0000
0010
0000
0000
0001
0000
0000
,  // measure 76
0010
0000
0000
0100
0000
0000
1000
0000
0000
0100
0000
0000
0010
0000
0000
0001
,  // measure 77
0000
0000
0010
0000
0000
0100
0000
0000
1000
0000
0000
0100
0000
0000
0010
0000
,  // measure 78
0000
0001
0000
0000
0010
0000
0000
0100
0000
0000
1000
0000
0000
0100
0000
0000
,  // measure 79
0010
0000
0000
0001
0000
0000
0010
0000
0000
0100
0000
0000
1000
0000
0000
0100
,  // measure 80
0000
0000
0010
0000
0000
0001
0000
0000
0010
0000
0000
0100
0000
0000
1000
0000
,  // measure 81
0000
0100
0000
0000
0010
0000
0000
0001
0000
0000
0010
0000
0000
0100
0000
0000
,  // measure 82
1000
1000
0100
0010
0100
1000
0100
0040
,  // measure 83
0000
0000
0030
0001
0010
0100
1000
0100
,  // measure 84
0010
0001
0000
0010
0100
1000
0100
0000
,  // measure 85
0001
0010
0100
1000
0000
0001
0010
0100
,  // measure 86
0000
1000
0001
0010
0100
1000
0000
0001
,  // measure 87
0000
0010
0100
1000
0400
0000
0000
0000
,  // measure 88
0000
0000
0000
0000
0000
0000
0000
0000
0000
0000
0000
0000
0300
0000
0000
1000
,  // measure 89
0000
0000
0100
0000
0000
0010
0000
0000
0001
0000
0000
0010
0000
0000
0100
0000
,  // measure 90
0000
1000
0000
0000
0100
0000
0000
0010
0000
0000
0001
0000
0020
0000
0000
0000
,  // measure 91
0100
0000
0000
1000
0030
0000
0100
0000
0000
1000
0000
0000
0100
0000
0000
0010
,  // measure 92
0000
0000
0001
0000
0000
0010
0000
0000
1000
0000
0000
0100
0000
0000
0010
0000
,  // measure 93
0000
0001
0000
0000
0010
0000
0000
0100
0000
0000
1000
0000
0000
0100
0000
0000
,  // measure 94
0010
0000
0000
0001
0000
0000
0010
0000
0000
0100
0000
0000
1000
0000
0000
0100
,  // measure 95
0000
0000
0010
0000
0000
0001
0000
0000
0010
0000
0000
0100
0000
0000
1000
0000
,  // measure 96
0000
0100
0000
0000
0010
0000
0000
0001
0000
0000
0010
0000
0000
0100
0000
0000
,  // measure 97
1000
0000
0000
0100
0000
0000
0010
0000
0000
0001
0000
0000
0010
0000
0000
0100
,  // measure 98
0000
0000
1000
0000
0000
0100
0000
0000
0010
0000
0000
0001
0000
0000
0010
0000
,  // measure 99
0000
0100
0000
0000
0000
0000
0000
0000
0000
0000
0000
0000
0000
0000
0000
0000
;
