#TITLE:White Happy;
#SUBTITLE:;
#ARTIST:Unknown artist;
#TITLETRANSLIT:;
#SUBTITLETRANSLIT:;
#ARTISTTRANSLIT:;
#GENRE:;
#CREDIT:;
#BANNER:White Happy-banner.png;
#BACKGROUND:Howaito.png;
#LYRICSPATH:;
#CDTITLE:;
#MUSIC:【MARETU ft. Hatsune Miku】White Happy «English sub» (Hazuki no Yume reupload).mp3;
#OFFSET:0.000000;
#SAMPLESTART:100.000000;
#SAMPLELENGTH:12.000000;
#SELECTABLE:YES;
#BPMS:0.000000=177.000000
,156.000000=111.000000
,167.500000=155.000000
,181.000000=111.000000
,182.500000=177.000000
,254.000000=122.000000
,260.000000=222.000000
,265.000000=177.000000
,415.000000=111.000000
,426.000000=155.000000
,444.500000=122.000000
,469.500000=177.000000
,542.000000=122.000000
,548.000000=177.000000
;
#STOPS:
;
#BGCHANGES:;
#KEYSOUNDS:;
#ATTACKS:;

//---------------dance-single - ----------------
#NOTES:
     dance-single:
     :
     Hard:
     7:
     0.655516,0.952333,0.457120,0.130606,0.060949,1054.000000,949.000000,105.000000,30.000000,0.000000,0.000000,0.655516,0.952333,0.457120,0.130606,0.060949,1054.000000,949.000000,105.000000,30.000000,0.000000,0.000000:
// measure 0
0000
0000
1001
1001
,  // measure 1
1001
0000
1001
0000
1000
0100
0010
0001
,  // measure 2
0010
0100
0010
0100
0000
1000
0100
0010
,  // measure 3
0001
0100
0010
0000
0000
0000
0010
0100
,  // measure 4
1000
0010
0001
0010
0100
1000
0100
0010
,  // measure 5
0001
0010
0100
0010
0100
0000
1001
1001
,  // measure 6
1000
0100
0010
0001
0010
0100
0010
0000
,  // measure 7
1000
0100
0010
0001
0010
0100
0010
0001
,  // measure 8
0000
0001
0010
0000
0100
1000
0000
0000
,  // measure 9
1000
0100
0010
0001
0010
0100
1000
0100
,  // measure 10
0000
1100
0000
0000
1010
0000
1010
0000
,  // measure 11
0101
0101
0101
0000
0000
1100
1100
1100
,  // measure 12
1100
0000
0011
0011
0011
0000
0101
0000
,  // measure 13
0101
0000
1010
1010
1010
0000
1100
0000
,  // measure 14
1100
1100
1100
0000
0011
0011
0011
0101
,  // measure 15
0000
1010
0000
0000
1100
1100
1100
0000
,  // measure 16
0011
0011
0011
0011
0000
0101
0101
0101
,  // measure 17
0000
1010
0000
1010
0000
1100
1100
0000
,  // measure 18
0000
0011
0000
0101
0000
1010
1010
0000
,  // measure 19
0000
1000
0100
0000
0010
0000
0001
0010
,  // measure 20
0100
1000
0100
0010
0001
0010
0100
1000
,  // measure 21
0100
0000
0000
0010
0001
0010
0100
1000
,  // measure 22
0100
1000
0010
0001
0010
0100
0000
0000
,  // measure 23
0000
0000
1000
0001
1000
0001
1000
0001
1000
0001
1000
0000
0010
0000
1000
0000
,  // measure 24
0000
0100
0010
0001
0100
0010
0100
0010
,  // measure 25
0100
1000
0100
0010
0000
0000
0000
0001
,  // measure 26
0010
0100
1000
0100
0010
0001
0010
0001
,  // measure 27
0010
0000
0011
0000
0000
0000
0000
0000
0000
0100
1000
0100
1000
0100
1000
0100
,  // measure 28
1000
0100
1000
0100
0000
0000
1000
0000
0010
0000
0001
0000
0100
0000
1000
0000
,  // measure 29
0100
0001
0000
0001
0100
0010
1000
0010
,  // measure 30
0001
0010
1000
0100
0000
1000
0000
0001
,  // measure 31
0010
0100
1000
0100
0000
0010
0001
0010
,  // measure 32
0000
0011
0000
0011
0000
0000
0010
0100
,  // measure 33
1000
0100
0010
0001
0010
0000
0000
0010
,  // measure 34
0001
0100
1000
0100
0001
0010
0000
1000
,  // measure 35
0000
1000
0010
0001
0100
1000
0000
0100
,  // measure 36
0010
0100
0000
0010
0100
0000
0010
0010
,  // measure 37
0100
0000
0010
0000
0100
1000
0100
0010
,  // measure 38
0000
0001
0010
1000
0100
0010
0001
0010
,  // measure 39
0100
1000
0100
0010
0001
0010
0100
2000
,  // measure 40
0100
3020
0000
0031
0020
0000
0130
1000
,  // measure 41
0100
0000
0010
0000
0002
0000
0000
0100
1003
0000
0020
0000
0000
0000
0030
0000
,  // measure 42
1000
0100
0010
0001
0010
0000
0010
1000
,  // measure 43
0100
0010
0010
0000
0001
0010
0100
0010
,  // measure 44
0000
0100
0010
0100
0010
0100
1000
0000
,  // measure 45
0001
0000
1000
0000
0001
0000
0100
1000
0001
0000
1000
0000
0000
0000
0000
0000
,  // measure 46
0100
0010
0000
0000
0001
0010
0100
1000
,  // measure 47
0100
0010
0001
0000
0000
0000
0001
0010
,  // measure 48
0100
1000
0100
0010
0000
0000
0001
0010
,  // measure 49
0010
0001
0010
0000
0100
0010
0000
0100
,  // measure 50
0000
1000
0000
1000
0000
0100
0000
0010
,  // measure 51
0001
0010
0000
0100
1000
0100
0010
0000
,  // measure 52
0000
0001
0010
0000
1000
0100
0010
0001
,  // measure 53
0000
0010
0100
0020
0000
0000
0000
0230
,  // measure 54
0000
0000
0000
0300
1001
0000
1010
0010
,  // measure 55
1000
0000
1000
0100
0010
0001
0010
0100
,  // measure 56
1000
0100
0000
0000
0000
0001
0010
0100
,  // measure 57
1000
0100
0010
0001
0000
0010
0100
0010
,  // measure 58
0001
0010
0100
1000
0100
0010
0100
0000
,  // measure 59
1000
0000
0100
0000
0010
0000
0001
0010
,  // measure 60
0100
1000
0010
0100
0010
0001
0000
0000
,  // measure 61
0001
0010
0100
1000
0100
1000
0010
0100
,  // measure 62
0010
0001
0020
0000
0000
0000
0230
0000
,  // measure 63
0000
0000
0300
0000
0000
1000
0100
1000
,  // measure 64
0010
0001
0010
1000
0100
0010
0001
0010
,  // measure 65
1000
0001
1000
0001
1000
0001
1000
0100
,  // measure 66
0010
0001
0010
0000
0100
0000
0010
0100
,  // measure 67
0100
0000
0000
1000
0100
0010
0010
0000
,  // measure 68
0001
0000
0010
0001
0001
0000
0001
0000
,  // measure 69
0010
0100
1000
0000
0000
1000
1000
0100
,  // measure 70
0100
0000
0010
0010
0010
0000
0001
0000
,  // measure 71
0001
0000
0010
0010
0010
0000
0100
0100
,  // measure 72
0100
0000
0100
0000
1000
1000
1000
1001
,  // measure 73
0000
1001
0000
0000
1001
1001
0000
1001
,  // measure 74
0000
1001
0000
1001
1001
0000
0000
0000
,  // measure 75
1000
0100
0010
0000
0001
0010
0100
0010
,  // measure 76
0010
0010
0100
0100
0100
1000
1000
0000
,  // measure 77
0000
0000
1000
0100
0001
0000
0001
0001
,  // measure 78
0010
0010
0010
0000
0100
0000
0000
1000
,  // measure 79
0001
1000
0001
1000
0001
1000
0001
1000
0001
0000
1000
0000
0000
0000
0100
0000
,  // measure 80
0010
0001
0010
0100
0010
0100
0010
0100
,  // measure 81
0010
1001
0000
0000
0000
1000
0100
0010
,  // measure 82
0001
0010
0100
1000
0100
0010
0000
1001
,  // measure 83
0000
0000
0000
0000
0000
0000
1001
0000
1001
0000
0000
1000
0001
1000
0001
1000
,  // measure 84
0001
0000
0100
0010
0001
0010
1000
0100
,  // measure 85
0010
0100
0010
0100
1000
0001
0000
0000
,  // measure 86
1000
0100
0010
0001
0010
0100
1000
0100
,  // measure 87
0010
0000
0001
0000
1000
0000
0000
0000
0000
0000
0000
0000
1000
0001
1000
0001
,  // measure 88
1000
0001
1000
0001
1000
0000
1000
0000
0000
0000
0010
0000
0001
0000
0100
0000
,  // measure 89
0010
1000
0100
0010
0001
0000
0010
0001
,  // measure 90
0100
0010
0000
0000
0001
0100
1000
0001
,  // measure 91
0010
0100
1000
0100
0000
0000
0110
0000
,  // measure 92
0000
0000
0000
0000
1000
0001
1000
0001
1000
0001
1000
0001
1000
0001
1000
0000
,  // measure 93
1000
0100
0010
0001
0010
0100
1000
0000
,  // measure 94
1000
0100
0010
0001
0010
0000
0100
1000
,  // measure 95
0100
0010
0001
0000
0010
0100
0010
0100
,  // measure 96
0010
0100
1000
0100
0010
0001
1001
0000
,  // measure 97
1010
0000
0010
0000
0001
0010
0100
1000
,  // measure 98
0100
0010
0100
0000
0100
0010
0001
0010
,  // measure 99
0100
0010
0001
0010
0100
0000
1000
0000
,  // measure 100
0100
0001
0010
1000
0000
0010
0001
0100
,  // measure 101
1000
0100
0000
0000
0001
0000
0001
0001
,  // measure 102
0000
1000
0010
0001
0100
0000
1000
0100
,  // measure 103
0010
0001
0010
0100
1000
0000
0000
0001
,  // measure 104
1000
0010
0001
0010
0200
0000
0310
0200
,  // measure 105
0000
1300
0100
0010
0001
0010
0100
2000
,  // measure 106
0000
3010
0201
0000
0000
0300
1001
1001
,  // measure 107
1001
1001
1001
0000
1010
1010
1010
1010
,  // measure 108
1010
0000
1100
1100
1100
1100
0000
0011
,  // measure 109
0001
0101
0100
1000
0000
0010
0000
0001
,  // measure 110
0010
0000
0000
0110
0000
0110
0000
1001
,  // measure 111
1001
1000
0100
0011
0000
0010
0100
0000
,  // measure 112
1000
0010
0001
0010
0100
1000
0100
1000
,  // measure 113
0010
0001
0010
0100
0010
0100
1000
0010
,  // measure 114
0100
1000
0100
0000
0010
0001
0000
0010
,  // measure 115
0100
1000
0100
0001
0010
0100
0000
0010
,  // measure 116
0001
0010
1000
0100
0010
0000
0020
0000
,  // measure 117
0230
0000
0000
0300
1001
0000
0000
1001
,  // measure 118
0000
1001
0000
1000
0100
0010
0100
0001
,  // measure 119
0010
0100
1000
0000
0000
0100
0010
0001
,  // measure 120
0010
0100
1000
0100
0010
0100
1000
0010
,  // measure 121
0100
0010
0000
0010
0100
0001
0010
0000
,  // measure 122
0010
0000
0001
0000
0100
0000
0000
1000
,  // measure 123
0100
0010
0001
0010
0100
1000
0000
0000
,  // measure 124
1000
0100
0000
0010
0001
0010
0100
1000
,  // measure 125
0100
0011
0000
2000
0000
0000
0000
3002
,  // measure 126
0000
0000
0000
0003
1001
0000
1000
0010
,  // measure 127
0000
0001
0100
1000
0100
0001
0010
1000
,  // measure 128
0010
0101
0000
0000
0001
0010
0100
0010
,  // measure 129
0100
0000
0110
0000
1000
0100
0010
0001
,  // measure 130
0010
0100
0010
0100
0000
1000
0000
1000
,  // measure 131
0000
0001
0000
0010
0000
0000
0100
0010
,  // measure 132
0100
0010
0100
0010
0100
0000
0000
1000
,  // measure 133
0001
1000
0001
0100
1000
0001
1000
0010
,  // measure 134
1000
0020
0000
0000
0000
2030
0000
0000
,  // measure 135
0000
0000
3100
0000
0020
0000
0032
0013
,  // measure 136
0100
1000
0100
0001
0220
0000
0000
0000
,  // measure 137
0330
0000
0000
2000
0000
3010
0001
0100
,  // measure 138
1000
0000
0100
0001
0020
0000
0030
1000
,  // measure 139
0100
0010
0001
0010
0200
0000
0300
0010
,  // measure 140
0001
0010
0100
0010
0100
0010
0100
1000
,  // measure 141
0100
1000
0100
0010
,  // measure 142
0001
0000
0010
0100
0010
0001
0010
0100
,  // measure 143
0000
0000
1000
0100
0010
0000
0100
1000
,  // measure 144
0100
0010
0001
0010
0100
0020
0000
0000
,  // measure 145
0230
0000
0000
0000
0300
1001
0000
1010
,  // measure 146
0000
0000
0101
0000
1000
0100
0010
0001
,  // measure 147
0010
0000
0100
1000
0000
0000
1001
1000
,  // measure 148
0100
0010
0001
0010
0100
0000
0010
0001
,  // measure 149
0010
0100
0010
0100
0010
0100
1000
0100
,  // measure 150
0000
1000
0000
0010
0000
0001
0000
0100
,  // measure 151
0000
1000
0100
0001
0010
1000
0010
0000
,  // measure 152
0000
0010
0001
0100
0010
1000
0100
0001
,  // measure 153
0010
0100
0010
0100
0020
0000
0000
0230
,  // measure 154
0000
1300
0100
0010
0001
0000
0010
0000
,  // measure 155
1000
0000
0000
0100
0010
0001
0010
0100
,  // measure 156
1000
0100
0010
0000
0000
0000
0000
0000
;
