#VERSION:0.83;
#TITLE:White Dwarf Stars;
#SUBTITLE:;
#ARTIST:Unknown artist;
#TITLETRANSLIT:;
#SUBTITLETRANSLIT:;
#ARTISTTRANSLIT:;
#GENRE:;
#ORIGIN:;
#CREDIT:;
#BANNER:banner.png;
#BACKGROUND:White_Dwarf_Stars.png;
#PREVIEWVID:;
#JACKET:;
#CDIMAGE:;
#DISCIMAGE:;
#LYRICSPATH:;
#CDTITLE:;
#MUSIC:VOEZ - White Dwarf Stars.mp3;
#OFFSET:0.000000;
#SAMPLESTART:99.971581;
#SAMPLELENGTH:12.000000;
#SELECTABLE:YES;
#BPMS:0.000=183.000;
#STOPS:;
#DELAYS:;
#WARPS:;
#TIMESIGNATURES:0.000=4=4;
#TICKCOUNTS:0.000=4;
#COMBOS:0.000=1;
#SPEEDS:0.000=1.000=0.000=0;
#SCROLLS:0.000=1.000;
#FAKES:;
#LABELS:0.000=Song Start;
#BGCHANGES:;
#KEYSOUNDS:;
#ATTACKS:
;

//---------------dance-single - ----------------
#NOTEDATA:;
#CHARTNAME:;
#STEPSTYPE:dance-single;
#DESCRIPTION:;
#CHARTSTYLE:;
#DIFFICULTY:Hard;
#METER:10;
#RADARVALUES:0.582241,1.234162,0.878742,0.251069,0.075321,487.000000,382.000000,105.000000,30.000000,0.000000,4.000000,33.000000,0.000000,0.000000,0.582241,1.234162,0.878742,0.251069,0.075321,487.000000,382.000000,105.000000,30.000000,0.000000,4.000000,33.000000,0.000000,0.000000;
#CREDIT:;
#NOTES:
// measure 0
0000
0000
0000
0000
,  // measure 1
0000
0000
0000
0000
,  // measure 2
0000
0000
0000
0000
,  // measure 3
0000
0000
0000
1001
,  // measure 4
0000
1100
0000
0000
0011
0000
0000
0000
,  // measure 5
0000
0000
0000
0000
0000
0000
0000
0101
,  // measure 6
0000
0000
1100
0000
0000
1010
0000
0000
,  // measure 7
0000
0000
0000
0011
,  // measure 8
0000
0101
0000
0000
1100
0000
0000
0000
,  // measure 9
0000
0000
0000
0000
0000
1100
0011
1100
,  // measure 10
0000
0000
0010
0000
0000
0100
0000
0000
,  // measure 11
0000
0000
0000
1000
0100
0010
0001
0011
,  // measure 12
0000
1100
1010
0000
,  // measure 13
0000
0000
0000
0000
0000
0000
0000
0101
,  // measure 14
0000
1010
1100
0000
,  // measure 15
0000
0000
0000
1100
,  // measure 16
0000
0011
0000
0000
0101
0000
0000
0000
,  // measure 17
0000
0000
0000
0000
0000
0001
0010
0100
,  // measure 18
0000
0000
1001
0000
0010
0100
0000
0000
,  // measure 19
0000
0000
0000
0000
0000
0000
0000
4004
,  // measure 20
0000
0000
3003
0100
0010
0010
1001
0000
,  // measure 21
0000
0000
0000
4004
,  // measure 22
0000
0003
3000
1100
1100
0000
1100
0000
,  // measure 23
0000
0000
0404
0000
0000
0000
0303
0044
,  // measure 24
0000
0000
0033
1010
1010
0000
4040
0000
,  // measure 25
3030
0000
0000
4400
,  // measure 26
0000
0000
3311
0000
0011
0101
0000
0000
,  // measure 27
1000
0000
0100
0010
0001
0000
0000
0440
,  // measure 28
0000
0330
1001
0000
1001
1001
1001
1001
,  // measure 29
1001
1001
1001
1001
1001
1001
1001
0000
,  // measure 30
1010
1010
1010
1010
1100
1100
1100
1100
,  // measure 31
1100
0011
0011
0011
0011
0011
0000
0110
,  // measure 32
0110
0000
0110
1001
1001
4004
0000
0000
,  // measure 33
0000
0000
0000
0000
3000
0000
0003
0000
0000
0000
1000
0100
0010
0001
0010
0100
,  // measure 34
1000
0100
0010
0001
0010
0100
1000
0100
0010
0001
0010
0100
1000
0100
0010
0001
,  // measure 35
0010
0100
1000
0100
0010
0001
0010
0100
1000
0100
0010
0001
0010
0100
1000
0000
,  // measure 36
0000
0040
0000
0430
0000
0000
0000
4300
,  // measure 37
0000
0000
3100
0010
0001
0010
0100
1000
,  // measure 38
0100
0010
0001
0010
0001
0010
0041
0000
,  // measure 39
0000
0430
0000
4300
,  // measure 40
0000
0000
0100
3000
0040
0000
0031
0040
,  // measure 41
0000
0130
0010
0000
0100
0010
0400
0000
,  // measure 42
0000
1300
0100
0001
0010
0100
1000
0400
,  // measure 43
0000
0310
0004
0000
0000
0043
0000
0034
,  // measure 44
0000
0000
0000
0103
1000
0100
0010
0001
,  // measure 45
0010
0100
1000
0010
0001
0010
0100
0000
,  // measure 46
0000
0000
0000
1001
1001
1001
1001
1001
,  // measure 47
1001
1001
1001
1001
1001
1001
1001
0000
,  // measure 48
1000
0100
0010
0001
0010
1000
0100
0010
,  // measure 49
0001
0010
0100
0010
0140
0000
0000
0000
,  // measure 50
1030
0100
0001
0010
0100
1000
0100
0001
,  // measure 51
0100
1000
0100
0001
0010
1000
0100
0011
,  // measure 52
0040
0000
0000
0000
0000
0000
0000
0230
,  // measure 53
0000
0000
0000
2300
,  // measure 54
0000
0000
3200
0000
0000
0310
0002
0000
,  // measure 55
0000
0000
0000
0000
0000
0013
2000
0000
,  // measure 56
0000
0000
0000
0000
3100
0010
0001
0020
,  // measure 57
0000
0000
0000
0032
0000
0020
0003
0000
,  // measure 58
0230
0000
0000
2000
0300
0000
3100
0020
,  // measure 59
0000
0000
0000
0000
0031
0010
0100
2000
,  // measure 60
0000
0000
0000
0000
3100
0000
0010
0002
,  // measure 61
0000
0000
0000
0000
0000
0113
2000
0000
,  // measure 62
0000
0000
0000
0100
3020
0000
0030
2002
,  // measure 63
0000
0000
0000
3003
1000
0001
1000
0010
,  // measure 64
0002
0000
0000
0000
0103
1000
0010
0002
,  // measure 65
0000
0000
0000
0000
0003
1010
0100
0020
,  // measure 66
0000
0230
0000
0000
0300
0010
0002
0000
,  // measure 67
0000
0000
0020
0003
0000
1030
0120
0000
,  // measure 68
0000
0000
0000
2032
,  // measure 69
0000
0000
0013
3001
0000
0100
1000
0100
,  // measure 70
0010
0001
0010
0100
1000
0010
0001
0010
,  // measure 71
1000
0010
0001
0010
0100
0001
0100
1000
,  // measure 72
0010
0100
1000
0010
0001
0010
1000
0100
,  // measure 73
0010
0001
0010
1000
0010
0001
0100
1000
,  // measure 74
0100
0001
0010
0100
1000
0010
0001
0010
,  // measure 75
1000
0100
0001
0010
0100
1000
0010
0001
,  // measure 76
1000
0100
0010
0001
0010
1000
0100
0010
,  // measure 77
0001
1000
0100
0001
1000
0100
0001
0100
,  // measure 78
1000
0001
0010
0000
0100
0010
0100
1000
,  // measure 79
0100
0010
0001
0100
1000
0010
0001
0220
,  // measure 80
0000
0000
0000
0330
0001
0010
0100
1000
,  // measure 81
0100
0010
0000
0001
0010
0100
1000
1000
,  // measure 82
0100
0100
0100
0100
0010
0010
0010
0010
,  // measure 83
1001
1001
1001
1001
1001
4004
0000
0000
,  // measure 84
0000
0000
0000
0000
,  // measure 85
0000
3003
0000
1001
0000
0000
0000
1001
,  // measure 86
0000
1100
0011
0101
,  // measure 87
0000
1010
0000
1100
,  // measure 88
0000
0000
0000
2002
,  // measure 89
0000
0000
0000
3003
0000
0000
0000
0000
;
