#VERSION:0.83;
#TITLE:UNiCoЯE;
#SUBTITLE:;
#ARTIST:Unknown artist;
#TITLETRANSLIT:;
#SUBTITLETRANSLIT:;
#ARTISTTRANSLIT:;
#GENRE:;
#ORIGIN:;
#CREDIT:;
#BANNER:banner.png;
#BACKGROUND:Unicore.png;
#PREVIEWVID:;
#JACKET:;
#CDIMAGE:;
#DISCIMAGE:;
#LYRICSPATH:;
#CDTITLE:;
#MUSIC:VOEZ - UNiCoЯE.mp3;
#OFFSET:0.000000;
#SAMPLESTART:99.971581;
#SAMPLELENGTH:12.000000;
#SELECTABLE:YES;
#BPMS:0.000=188.000;
#STOPS:;
#DELAYS:;
#WARPS:;
#TIMESIGNATURES:0.000=4=4;
#TICKCOUNTS:0.000=4;
#COMBOS:0.000=1;
#SPEEDS:0.000=1.000=0.000=0;
#SCROLLS:0.000=1.000;
#FAKES:;
#LABELS:0.000=Song Start;
#BGCHANGES:;
#KEYSOUNDS:;
#ATTACKS:
;

//---------------dance-single - ----------------
#NOTEDATA:;
#CHARTNAME:;
#STEPSTYPE:dance-single;
#DESCRIPTION:;
#CHARTSTYLE:;
#DIFFICULTY:Hard;
#METER:8;
#RADARVALUES:0.747963,1.147605,0.572139,0.059875,0.000000,787.000000,701.000000,86.000000,9.000000,0.000000,1.000000,8.000000,0.000000,0.000000,0.747963,1.147605,0.572139,0.059875,0.000000,787.000000,701.000000,86.000000,9.000000,0.000000,1.000000,8.000000,0.000000,0.000000;
#CREDIT:;
#NOTES:
// measure 0
0000
0000
0000
0000
,  // measure 1
0000
0000
0000
0000
,  // measure 2
0000
0000
0000
0000
,  // measure 3
0000
0000
0000
0000
0000
0000
0000
1001
,  // measure 4
0000
1001
1000
0100
0010
0001
0010
0100
,  // measure 5
1000
0100
0010
0000
0001
0010
0100
0010
,  // measure 6
0100
0000
1000
0100
0010
0001
0010
1100
,  // measure 7
0000
0101
0000
0100
0010
0001
0100
1000
,  // measure 8
0110
0000
0001
0010
0100
0000
0001
0010
,  // measure 9
0100
1000
0001
0100
0010
0100
0010
0001
,  // measure 10
0010
0100
0000
0010
0100
1000
0001
1000
,  // measure 11
0001
1000
0010
0100
0001
0010
0100
1000
,  // measure 12
0100
0010
0001
0010
0100
1000
0110
0001
,  // measure 13
0010
0100
1000
0110
0001
0010
0100
1000
,  // measure 14
0100
0010
0011
0100
0010
0001
0010
0100
,  // measure 15
1000
0100
0010
0001
0010
0100
1000
0110
,  // measure 16
0001
0010
0100
1000
0100
0010
0001
0000
,  // measure 17
0001
1000
0001
1000
0001
1000
0100
0010
,  // measure 18
0001
0000
0010
0100
0010
0100
0010
0100
,  // measure 19
1000
0001
0000
1000
0001
1000
0100
0010
,  // measure 20
0001
0010
0100
1000
0100
0010
0001
0010
,  // measure 21
0100
1000
0100
0010
0001
0010
0100
0001
,  // measure 22
0010
0100
0010
1000
0010
0100
1000
0100
,  // measure 23
0010
0100
0010
0100
1000
0001
1000
0001
,  // measure 24
1000
0001
0000
1000
0001
1000
0001
0000
,  // measure 25
1100
0011
0000
0101
0101
0000
0000
1100
,  // measure 26
0000
0011
0110
0000
1010
0000
1010
1010
,  // measure 27
1100
0000
1100
1100
0001
0010
0001
0010
,  // measure 28
0001
0100
0010
0001
0001
0010
0100
1000
,  // measure 29
1000
0100
0010
0001
0010
0100
1000
0100
,  // measure 30
0001
0010
0100
1000
0100
0010
0001
0010
,  // measure 31
0100
1000
0100
0010
0001
0010
0100
1000
,  // measure 32
0100
0001
0100
0010
0100
0001
0010
0100
,  // measure 33
1000
0100
0010
0100
1000
0100
0010
0001
,  // measure 34
0010
0100
0010
0001
0100
0010
0100
0010
,  // measure 35
1000
0001
1000
0001
0010
0100
1000
0000
,  // measure 36
2002
0000
3003
0220
0000
0000
0000
0000
,  // measure 37
0000
0330
1000
0100
0010
0001
0010
0100
,  // measure 38
1000
0100
0010
0001
0010
0100
1000
0100
,  // measure 39
0010
0001
0010
0100
1000
0100
0010
1001
,  // measure 40
0000
1001
0000
1001
0000
1001
0000
1001
,  // measure 41
0000
1001
0000
1001
1001
0000
0110
0000
,  // measure 42
0110
0000
0110
0000
0110
0000
0110
1001
,  // measure 43
0000
1001
0000
1001
0000
1001
0000
1100
,  // measure 44
0000
0011
0000
1100
0011
0000
0000
0101
,  // measure 45
0000
1010
0000
1100
0000
1010
0000
0011
,  // measure 46
0000
0101
0000
0011
0000
0101
0000
1100
,  // measure 47
0000
1010
0000
1100
0000
1010
0000
0011
,  // measure 48
0000
0101
0000
0011
0000
0101
0000
0010
,  // measure 49
0100
0010
0100
0010
0100
0010
0100
0010
,  // measure 50
1000
0001
1000
0001
1000
0001
1000
4004
,  // measure 51
0000
0000
0000
3003
,  // measure 52
0010
0100
0001
1000
0010
0001
0010
0100
,  // measure 53
1000
0010
0001
0010
0100
0001
0010
0100
,  // measure 54
1000
0010
0100
0010
1000
0100
0010
0001
,  // measure 55
0010
0100
0010
0001
0010
1000
0100
0010
,  // measure 56
0100
1000
0100
0010
0001
0010
0100
0010
,  // measure 57
0001
0010
0100
1000
0100
0010
1000
0100
,  // measure 58
0010
0001
0010
0100
1000
0100
0010
0001
,  // measure 59
0010
0100
0001
0010
0100
1000
0100
0010
,  // measure 60
0100
1000
0010
0100
1000
0010
0100
1000
,  // measure 61
0010
0001
0010
0100
0010
0001
0010
0001
,  // measure 62
0010
0100
0001
0010
0100
0001
0010
0100
,  // measure 63
0001
0010
0100
1000
0100
0010
1000
0100
,  // measure 64
0010
1000
0100
0010
0100
1000
0010
0001
,  // measure 65
0010
1000
0100
0001
0010
1000
0001
0010
,  // measure 66
1000
0100
0001
1000
0010
0001
0100
1000
,  // measure 67
0001
0010
1000
0010
0001
0100
1000
0100
,  // measure 68
0001
1000
0010
0100
1000
0010
1000
0010
,  // measure 69
1000
1000
0100
1000
0100
1000
0100
0001
,  // measure 70
0100
0010
0001
0010
0001
0010
0001
0010
,  // measure 71
0001
0010
0100
0010
0440
0000
0000
0000
,  // measure 72
0000
0000
0000
0000
,  // measure 73
0000
0000
0000
0000
,  // measure 74
0000
0000
0000
0000
,  // measure 75
0000
0000
0000
0000
,  // measure 76
0000
0000
0300
0030
0000
0000
0000
0000
,  // measure 77
0000
0000
0000
0000
,  // measure 78
0000
0000
0000
0000
,  // measure 79
0000
0000
0000
0000
,  // measure 80
0000
2002
0000
0000
,  // measure 81
3443
0000
0000
0330
0011
1100
0000
0010
,  // measure 82
0001
0100
0010
0100
0010
0100
0010
0100
,  // measure 83
1000
0100
0010
0001
0010
0100
1000
0100
,  // measure 84
1000
0010
0100
1000
0010
1000
0100
0010
,  // measure 85
0000
0000
0000
0000
0000
0000
0000
0001
,  // measure 86
0010
0100
0001
0010
0100
0001
0010
0100
,  // measure 87
0010
0000
0000
0000
,  // measure 88
1000
0100
0010
1000
0100
0010
1000
0100
,  // measure 89
0010
0000
0000
0000
,  // measure 90
0001
0100
0001
0010
0100
0001
0010
0100
,  // measure 91
0010
0100
0010
0010
0100
0010
0100
0000
,  // measure 92
1000
1000
0001
0001
0001
0001
0010
0010
,  // measure 93
0010
0010
0100
0100
0100
0100
1000
1000
,  // measure 94
1000
0100
0001
0010
1000
0100
0010
0001
,  // measure 95
0010
1000
0100
0010
0001
0010
0100
1000
,  // measure 96
0100
0010
0001
0010
0100
0001
0010
0100
,  // measure 97
1000
0010
0100
1000
0100
0010
0001
0100
,  // measure 98
0010
0001
0010
1000
0100
0010
0100
1000
,  // measure 99
0010
0001
0010
0100
0010
0100
0010
0100
,  // measure 100
1000
0100
0010
0001
0010
0100
1000
0100
,  // measure 101
0000
1000
0100
1000
0010
1000
0010
1000
,  // measure 102
1000
0010
0001
0100
1000
0100
0001
0010
,  // measure 103
0000
1000
0010
0001
0100
0010
0100
0010
,  // measure 104
0100
1000
0100
0010
0001
0010
0100
0020
,  // measure 105
0030
0001
0010
0100
1000
0100
0001
0010
,  // measure 106
0100
0010
0001
0010
0100
1000
0010
0100
,  // measure 107
0010
0100
0010
0100
0010
0100
0010
0100
,  // measure 108
0010
0100
1000
0001
1000
0001
1000
0001
,  // measure 109
1000
0100
1000
0100
1000
0010
1000
0010
,  // measure 110
0100
0010
0001
0010
0100
1000
0010
0001
,  // measure 111
0000
1001
1001
1001
1001
1001
1001
0000
,  // measure 112
1100
1100
1100
1100
1100
1100
1100
1010
,  // measure 113
0000
1010
0000
1010
1010
0000
4004
3003
,  // measure 114
2002
0000
0000
0000
,  // measure 115
3003
0000
0000
0000
;
