#TITLE:Two Breaths Walking;
#SUBTITLE:( Tekina Remix );
#ARTIST:Unknown artist;
#TITLETRANSLIT:;
#SUBTITLETRANSLIT:;
#ARTISTTRANSLIT:;
#GENRE:;
#CREDIT:;
#BANNER:banner.png;
#BACKGROUND:Nisoku.Hokou.full.1470429.jpg;
#LYRICSPATH:;
#CDTITLE:;
#MUSIC:deco27-tekina-remix.mp3;
#OFFSET:0.000000;
#SAMPLESTART:99.971581;
#SAMPLELENGTH:12.000000;
#SELECTABLE:YES;
#BPMS:0.000000=177.000000
;
#STOPS:
;
#BGCHANGES:;
#KEYSOUNDS:;
#ATTACKS:;

//---------------dance-single - ----------------
#NOTES:
     dance-single:
     :
     Hard:
     7:
     0.492676,0.645722,0.376606,0.247583,0.000000,989.000000,881.000000,108.000000,71.000000,0.000000,1.000000,0.492676,0.645722,0.376606,0.247583,0.000000,989.000000,881.000000,108.000000,71.000000,0.000000,1.000000:
// measure 0
0000
0000
0000
0000
,  // measure 1
0100
1000
0100
0010
0001
0010
0100
1000
,  // measure 2
0100
0010
0000
0000
0000
0000
0000
0000
,  // measure 3
0001
0010
0100
1000
0100
0010
0001
0010
,  // measure 4
0100
1000
0000
0000
0000
0000
0000
0000
,  // measure 5
1000
0100
0010
0001
0010
0100
1000
0100
,  // measure 6
0010
0001
0000
0000
0000
0000
0000
0001
,  // measure 7
0010
0100
1000
0100
0010
0001
0010
0100
,  // measure 8
1000
0000
0000
0000
0000
0000
0000
1000
,  // measure 9
0100
0010
0100
1000
0100
0010
0001
0010
,  // measure 10
0100
0000
0000
0000
0000
0000
0001
0010
,  // measure 11
0100
0010
0001
0010
0100
1000
0100
0010
,  // measure 12
0100
0000
0000
0000
0000
0000
0000
1000
,  // measure 13
0100
0010
0001
0010
1000
0100
0010
0001
,  // measure 14
0000
0000
0000
0000
0000
0000
0000
0001
,  // measure 15
0010
1000
0100
0010
0001
0010
0100
1000
,  // measure 16
0100
0010
0001
0010
0100
0000
1001
0000
,  // measure 17
0000
0000
1010
0101
,  // measure 18
0000
0000
1100
0011
,  // measure 19
0000
0000
0101
1010
,  // measure 20
0000
1000
0100
0000
0010
0000
0001
0000
,  // measure 21
0000
0000
0010
0100
,  // measure 22
0000
0000
1000
0001
,  // measure 23
0000
0000
0000
1000
0000
0100
0000
0000
,  // measure 24
0001
0010
0000
1100
0000
1010
0000
1010
,  // measure 25
0000
1010
0000
0101
0000
0101
0000
1100
,  // measure 26
0000
1100
0000
0110
0000
0110
0000
1010
,  // measure 27
0000
1010
0000
0011
0000
0011
0000
0101
,  // measure 28
0000
0101
0000
1100
0000
1100
0000
0110
,  // measure 29
0000
0110
0000
1100
0000
1100
0000
0101
,  // measure 30
0000
0101
0000
1001
0000
1001
0000
0101
,  // measure 31
0000
0101
0000
1010
0000
0000
1000
0000
,  // measure 32
0100
0000
0010
0000
0002
0000
0010
0003
,  // measure 33
0000
1000
0100
0040
0000
0000
0031
0010
,  // measure 34
0100
1000
0100
0010
0001
0000
4000
0000
,  // measure 35
0000
3004
0000
0000
0043
0000
0000
0430
,  // measure 36
0000
4000
0300
0000
3400
0000
0000
0340
,  // measure 37
0000
0031
0000
0040
0000
0031
0010
0100
,  // measure 38
1000
0100
0010
0001
0040
0000
0000
0430
,  // measure 39
0000
0000
4300
0000
0000
3100
0010
0001
,  // measure 40
0010
0100
1000
0100
0040
0000
0000
0034
,  // measure 41
0000
0000
0013
0100
4000
0000
3010
0001
,  // measure 42
0010
0100
1000
0140
0000
0000
0000
0034
,  // measure 43
0000
0403
0000
4300
0000
0000
0000
3040
,  // measure 44
0004
0030
0000
0403
0000
0000
1300
0100
,  // measure 45
0001
0010
1000
0100
0010
0001
0010
0100
,  // measure 46
1000
0100
0040
0000
0000
0000
0034
0000
,  // measure 47
0040
0003
0000
0430
4300
0000
3400
0000
,  // measure 48
0000
0300
0001
0010
0100
0000
1000
0000
,  // measure 49
0100
0010
0001
0010
,  // measure 50
0000
1000
0001
0000
0010
0000
0100
0000
,  // measure 51
1000
0000
0100
0000
0010
0001
0000
0000
,  // measure 52
0010
0010
0100
0000
0010
0000
0100
0000
,  // measure 53
1000
1000
0001
0000
0010
0100
0000
0000
,  // measure 54
0010
0001
0000
0010
0000
0100
0000
1000
,  // measure 55
0000
0100
0000
0010
0000
0001
0000
0020
,  // measure 56
0000
0000
0000
0000
0000
0230
0000
0000
,  // measure 57
0000
2300
0000
0000
0000
3200
0000
0320
,  // measure 58
0000
0000
0000
0032
0000
0023
0000
0230
,  // measure 59
0000
2300
0000
3200
0000
0320
0032
0000
,  // measure 60
0023
0000
0230
0000
,  // measure 61
0320
0000
2030
0000
,  // measure 62
0002
0000
0000
0000
,  // measure 63
0000
0000
0000
0000
0000
0000
3003
1001
,  // measure 64
2002
0000
0000
0000
0000
0000
0000
3003
,  // measure 65
0000
1001
1001
1001
,  // measure 66
1001
0000
0000
1000
0100
0000
0000
0001
,  // measure 67
0010
0100
1000
0100
,  // measure 68
0010
0000
0001
0010
0000
0000
1000
0100
,  // measure 69
0000
0110
0000
1100
0010
0001
0000
0011
,  // measure 70
0000
0000
1100
1100
0000
0000
1000
0100
,  // measure 71
0000
0010
0000
0001
0000
0010
0000
0100
,  // measure 72
0000
0000
0001
0010
0000
0000
0001
0100
,  // measure 73
0000
1000
0000
0010
0000
0001
0000
0010
,  // measure 74
0100
0000
0010
0000
0100
0000
1000
1000
,  // measure 75
1000
0000
0100
0100
0100
0100
0000
0010
,  // measure 76
0010
0001
0000
0001
0000
0010
0000
0000
,  // measure 77
0100
0100
0000
0100
1000
1000
1000
1000
,  // measure 78
0000
0100
0100
0000
0010
0010
0000
0001
,  // measure 79
0001
0000
0010
0100
1000
0000
0100
0010
,  // measure 80
0001
0001
0001
0000
0010
0010
0000
0100
,  // measure 81
0100
1000
1000
1000
0000
1100
0000
0110
,  // measure 82
0000
0101
0000
1010
0000
0101
0000
1100
,  // measure 83
0000
0101
0000
0000
0000
1100
0000
0110
,  // measure 84
0000
0101
0000
1010
0000
1100
0000
0011
,  // measure 85
0000
0101
0000
0000
0000
1010
0000
1100
,  // measure 86
0000
1010
0000
1100
0000
0011
0000
0101
,  // measure 87
0000
0011
0000
0101
0000
0011
0000
0000
,  // measure 88
0001
0010
0100
0000
1000
0000
0000
0000
,  // measure 89
0100
0000
0010
0001
0100
0000
1000
0000
,  // measure 90
0100
0010
0001
0010
,  // measure 91
0100
0000
0000
1000
0100
0000
0001
0000
,  // measure 92
0010
0001
0010
0100
,  // measure 93
1000
0000
1000
0100
0010
0000
0001
0000
,  // measure 94
0010
0000
0100
1000
0100
0000
0010
0000
,  // measure 95
0001
0010
0001
0100
,  // measure 96
0001
0000
0100
0000
2000
0000
0000
0200
,  // measure 97
3000
0000
0300
0000
0001
0010
0100
0000
,  // measure 98
0000
1000
0100
0010
0000
0000
0000
0001
,  // measure 99
0010
0100
0000
0000
0000
1000
0100
0010
,  // measure 100
0000
0000
0001
0010
0100
0000
0000
1000
,  // measure 101
0100
0010
0000
0001
0000
0000
0000
0001
,  // measure 102
0000
0010
0000
0100
0000
0000
0000
1100
,  // measure 103
0000
0011
0000
0101
0000
1010
0000
1100
,  // measure 104
0000
0011
0000
0101
0000
0000
0000
0000
,  // measure 105
0000
0000
2200
0000
0000
0000
0000
3300
,  // measure 106
0000
0022
0000
0033
0001
0020
0000
0000
,  // measure 107
0030
0000
2000
0000
0200
3000
0020
0300
,  // measure 108
0032
0000
0000
0000
0013
0200
0000
2000
,  // measure 109
0300
0200
3000
0000
0300
1000
0100
1000
,  // measure 110
0100
1000
0000
0000
0000
1000
0010
1000
,  // measure 111
0010
1000
0000
0000
0000
0000
0011
0000
,  // measure 112
0011
0202
0000
0000
0303
0000
0022
0000
,  // measure 113
0033
0202
0000
0000
0000
0000
0000
0000
,  // measure 114
0000
0000
0000
0000
0000
0303
0000
1010
,  // measure 115
0000
2020
0000
0000
0000
0000
0000
0000
,  // measure 116
0000
3030
0000
1001
0000
1001
0000
1001
,  // measure 117
0000
4004
0000
3003
1000
0100
0000
0000
,  // measure 118
0010
0001
0000
0010
0000
0100
0000
1000
,  // measure 119
0000
1001
0000
0000
1000
0010
0000
0001
,  // measure 120
0100
1000
0100
0010
,  // measure 121
0011
0000
0000
1000
0100
0000
0000
1000
,  // measure 122
0010
0001
0100
1000
,  // measure 123
1100
0000
0000
0010
0001
0000
0000
0001
,  // measure 124
0100
0010
0001
0010
,  // measure 125
0200
0000
0000
0000
,  // measure 126
0000
0000
2300
3200
,  // measure 127
0320
0000
0000
0000
,  // measure 128
0000
0000
0000
0030
,  // measure 129
1000
1000
0100
0100
0000
0010
0010
0000
,  // measure 130
0001
0001
0001
0010
0100
1000
0100
0100
,  // measure 131
0100
0000
0010
0010
0000
0001
0001
0000
,  // measure 132
0010
0100
1000
0100
0010
0001
0010
0100
,  // measure 133
0000
0010
0000
0001
0010
0100
1000
0100
,  // measure 134
0010
0001
0010
0100
1000
0100
0010
0001
,  // measure 135
0010
0100
1000
0100
0010
0001
0010
0100
,  // measure 136
1000
0100
0010
0001
0010
1000
0100
0010
,  // measure 137
0001
0010
0100
1000
0100
0010
0001
0010
,  // measure 138
0100
0010
0001
0010
0100
1000
0010
0100
,  // measure 139
1000
0100
0010
0001
0010
0100
0010
0001
,  // measure 140
0010
0100
1000
0100
0010
0002
0000
0000
,  // measure 141
0000
2000
0003
0200
3000
0320
0000
0032
,  // measure 142
0000
0013
0000
0200
0000
2300
0000
3200
,  // measure 143
0000
0320
0000
0032
0000
0023
0000
0230
,  // measure 144
0000
2300
0000
3200
0000
0320
0000
0032
,  // measure 145
0000
0023
0000
0230
0000
2300
0000
3100
,  // measure 146
0010
0001
0010
0100
4004
0000
0000
0000
,  // measure 147
0000
0000
0000
0000
,  // measure 148
0000
0000
0000
0000
3003
1001
0000
0000
,  // measure 149
0000
4004
0000
0000
3013
0100
1000
0100
,  // measure 150
0010
0001
0010
0100
4000
0000
0000
0000
,  // measure 151
0400
3000
0000
0000
0340
0000
0000
0004
,  // measure 152
0030
0000
0000
0003
0040
0000
0000
0130
,  // measure 153
0000
1000
0100
0010
0001
0100
1000
0100
,  // measure 154
0010
0001
0010
0100
4000
0000
0000
0000
,  // measure 155
3400
0000
0000
0340
0000
0000
0034
0000
,  // measure 156
0043
0000
0130
0000
4000
0000
0000
0400
,  // measure 157
3000
0340
0000
0034
0000
0043
0000
0130
,  // measure 158
1000
0100
0010
0004
0000
0000
0000
0043
,  // measure 159
0000
0000
0000
4030
0000
3400
0000
0340
,  // measure 160
0000
0034
0000
0043
0000
0000
0000
0430
,  // measure 161
0000
4300
0000
3400
0000
0310
0000
0004
,  // measure 162
0000
0043
0000
0430
0000
0000
0000
4300
,  // measure 163
0000
0000
0000
3004
0000
0043
0000
0430
,  // measure 164
4000
0300
3000
1001
0000
0010
0100
0000
,  // measure 165
0000
1000
0100
0000
0011
0000
1100
0000
,  // measure 166
0011
0000
1001
0000
0000
0010
1000
0000
,  // measure 167
0000
0001
0010
0000
0001
0000
0100
0000
,  // measure 168
1000
0000
1100
0000
0000
1000
0010
0000
,  // measure 169
0000
0001
0010
0000
0001
0000
0100
0000
,  // measure 170
1000
0000
0101
0000
0000
0001
0010
0000
,  // measure 171
0000
0010
1000
0000
1000
0100
0000
0010
,  // measure 172
0000
0022
0000
0000
0000
0033
1000
0100
,  // measure 173
0010
0001
0000
0010
0000
0100
0000
0010
,  // measure 174
0000
0200
0000
0000
0000
0300
1000
0100
,  // measure 175
0010
0001
0000
0010
0000
0001
0000
0010
,  // measure 176
0000
2000
0000
0000
0000
3000
0001
0010
,  // measure 177
0100
1000
0000
0100
0000
0010
0000
0001
,  // measure 178
0000
1001
0000
1000
0010
0001
0000
0001
,  // measure 179
0000
0100
0000
1000
0000
0100
0002
0000
,  // measure 180
0000
0000
0000
0000
0000
0000
1003
1000
,  // measure 181
0000
0100
0100
0100
0010
0010
0010
0000
,  // measure 182
0001
0001
0000
0010
0010
0000
0100
0100
,  // measure 183
0000
1000
0100
0010
0001
0010
0100
1000
,  // measure 184
1000
1000
0000
0100
0100
0000
0010
0010
,  // measure 185
0000
0001
0001
0000
0011
0000
1100
0000
,  // measure 186
0100
0100
0010
0010
0000
0001
0001
0000
,  // measure 187
0010
0100
1000
0100
0010
0001
0010
0000
,  // measure 188
0001
0001
0000
0010
0010
0100
0100
0000
,  // measure 189
1000
1000
0000
1000
0100
0010
0001
0010
,  // measure 190
0010
0000
0100
0100
0000
1000
1000
0000
,  // measure 191
0100
0100
0000
0010
0001
0010
0100
1000
,  // measure 192
1000
0000
0100
0100
0000
0010
0010
0000
,  // measure 193
0001
0001
0001
0010
0100
1000
0000
0100
,  // measure 194
0100
0010
0010
0000
0001
0001
0000
0001
,  // measure 195
0010
0100
1000
0100
0010
0001
0010
0010
,  // measure 196
0000
0100
0100
0000
1000
1000
0000
0001
,  // measure 197
0001
0010
0100
1000
0100
1000
1000
1000
,  // measure 198
0000
0100
0100
0000
0010
0010
0000
0001
,  // measure 199
0001
0010
0001
0100
1000
0000
1000
1000
,  // measure 200
0000
0100
0100
0000
0010
0010
0000
0001
,  // measure 201
0001
0010
0001
0100
1000
0000
0100
0100
,  // measure 202
0000
0010
0010
1000
1000
0000
0001
0001
,  // measure 203
0000
1000
0100
0010
0001
0020
0000
0000
,  // measure 204
0000
0000
0000
0000
,  // measure 205
0000
0000
0000
0030
;
