#TITLE:The Riddle;
#SUBTITLE:;
#ARTIST:Unknown artist;
#TITLETRANSLIT:;
#SUBTITLETRANSLIT:;
#ARTISTTRANSLIT:;
#GENRE:;
#CREDIT:;
#BANNER:banner.png;
#BACKGROUND:4cf937c9279aac7591c5c4d9532e3349.jpg;
#LYRICSPATH:;
#CDTITLE:;
#MUSIC:The Riddle (Remix).mp3;
#OFFSET:0.000000;
#SAMPLESTART:99.971581;
#SAMPLELENGTH:12.000000;
#SELECTABLE:YES;
#BPMS:0.000000=126.999992
;
#STOPS:
;
#BGCHANGES:;
#KEYSOUNDS:;
#ATTACKS:;

//---------------dance-single - ----------------
#NOTES:
     dance-single:
     :
     Hard:
     5:
     0.458933,0.469418,0.052751,0.854566,0.000000,609.000000,599.000000,10.000000,162.000000,0.000000,5.000000,0.458933,0.469418,0.052751,0.854566,0.000000,609.000000,599.000000,10.000000,162.000000,0.000000,5.000000:
// measure 0
0000
2000
0000
0000
,  // measure 1
0020
0000
0000
3000
0032
0000
0000
0000
,  // measure 2
0200
0000
0000
0003
2000
0000
0300
0020
,  // measure 3
0000
0000
0000
3002
0030
0000
0000
0200
,  // measure 4
0000
0000
0003
2000
0000
0000
0320
0000
,  // measure 5
0000
0000
3000
0002
0000
0030
0000
0200
,  // measure 6
0003
0000
0000
2300
0000
0000
0000
0020
,  // measure 7
0000
0000
0000
0002
3000
0000
0030
0200
,  // measure 8
0000
1000
1303
0100
0000
0010
0001
0010
,  // measure 9
0100
1000
0020
0000
0031
0010
0200
0000
,  // measure 10
1300
1000
0020
0000
0031
0001
0010
0100
,  // measure 11
1000
0010
0200
0000
1300
0100
0020
0000
,  // measure 12
0031
0010
0200
0000
1300
0100
0010
0001
,  // measure 13
0010
0001
0020
0000
0130
1000
0200
0000
,  // measure 14
1300
0010
0002
0000
0103
1000
0100
0001
,  // measure 15
0010
1000
0200
0000
0310
0001
0020
0000
,  // measure 16
1030
0100
0020
0000
0031
0100
1000
0100
,  // measure 17
0010
0001
0020
0000
0031
0010
0200
0000
,  // measure 18
1300
0100
0020
0000
1030
0100
1000
0010
,  // measure 19
0001
0100
2000
3100
0001
0020
0000
1030
,  // measure 20
0010
0002
0000
0100
1003
0010
0001
0100
,  // measure 21
1000
0200
0000
0301
0010
0100
0000
1000
,  // measure 22
0010
0002
0000
0103
1000
0100
0010
0100
,  // measure 23
0010
2000
0000
3001
1000
0002
0000
1003
,  // measure 24
0010
2000
0000
3100
1000
0100
0001
0100
,  // measure 25
0001
0200
0000
0010
0310
0021
0000
0130
,  // measure 26
1000
0200
0000
0310
0001
0010
1000
0100
,  // measure 27
0010
0002
0010
0103
2000
0000
0000
3100
,  // measure 28
0012
0000
0100
0013
1000
0001
0010
1000
,  // measure 29
0020
0000
0032
0103
2000
0000
3100
0001
,  // measure 30
0020
0000
0130
1000
0100
0010
0100
1000
,  // measure 31
0200
0000
0310
0001
0020
0000
0130
0010
,  // measure 32
0200
0000
1300
0100
0010
0002
0000
0013
,  // measure 33
1000
0200
0000
0000
0000
0000
0320
0000
,  // measure 34
0032
2003
3002
2003
,  // measure 35
3002
2003
3002
2003
,  // measure 36
3002
0000
2003
0000
3002
0000
1003
0001
,  // measure 37
0020
0000
1030
0100
0010
0001
0010
0100
,  // measure 38
2000
0000
3100
0010
0002
0010
0103
2000
,  // measure 39
0000
0010
3100
0001
0010
1000
0010
0201
,  // measure 40
0000
1300
0100
0002
0000
0013
1000
0020
,  // measure 41
0000
0130
0010
0100
0010
0100
0010
2000
,  // measure 42
0000
3001
1000
0002
0000
0013
0001
0020
,  // measure 43
0000
1030
0100
0010
0001
0010
0100
2000
,  // measure 44
0000
3100
0010
0002
0000
0013
1000
0200
,  // measure 45
0000
0302
0013
1000
0010
0001
0100
2000
,  // measure 46
0000
3100
0001
0020
0000
0031
0100
2000
,  // measure 47
0000
3010
1000
0010
1000
0100
1000
0200
,  // measure 48
0300
0001
2010
0000
3100
0010
0002
0000
,  // measure 49
0013
0001
0010
0001
0100
0001
0200
0000
,  // measure 50
1300
0010
0002
0000
0013
1000
0200
0000
,  // measure 51
0310
0100
0010
0000
0100
0010
0100
2000
,  // measure 52
3001
1000
0002
0000
1003
0010
0002
0000
,  // measure 53
0103
1000
0200
0000
0301
0010
2000
0000
,  // measure 54
3010
0001
0100
1000
0100
0001
0020
0000
,  // measure 55
1030
0100
0020
0000
0031
0010
0200
0000
,  // measure 56
1300
0100
0010
0002
0013
0100
0020
0000
,  // measure 57
1030
0001
2000
0010
3001
0200
0000
1300
,  // measure 58
1000
0100
1000
0010
0100
2010
0000
3001
,  // measure 59
1000
0110
0000
0011
0001
0200
0000
0301
,  // measure 60
0100
1000
0100
1000
0100
0012
0000
0013
,  // measure 61
0002
0023
0000
1030
0100
0020
0000
0031
,  // measure 62
0010
0100
1000
0100
0010
0021
0000
0031
,  // measure 63
0100
0002
0000
0103
1000
0020
0000
1030
,  // measure 64
0100
0010
0001
0010
0100
2000
0000
3010
,  // measure 65
0001
0020
0000
1030
0100
0020
0000
0031
,  // measure 66
1000
0100
0010
0100
0010
0200
0000
1300
,  // measure 67
0001
2000
0000
3100
1200
0000
0300
1000
,  // measure 68
0010
1000
0010
0001
0010
0002
0100
0103
,  // measure 69
0001
0000
0010
1000
0020
0000
0031
0010
,  // measure 70
2000
0000
3100
0010
0002
0000
0013
1000
,  // measure 71
0100
0010
0001
0010
0200
0000
1300
0100
,  // measure 72
0002
0000
0013
1000
0200
0000
1300
0010
,  // measure 73
0001
0100
0001
0010
2000
0000
3010
0001
,  // measure 74
0200
0000
1300
0100
0020
0000
0031
0010
,  // measure 75
0100
0010
0001
0010
0200
0000
1300
0100
,  // measure 76
0020
0000
1030
0100
0020
0000
0031
0010
,  // measure 77
0100
0010
0100
0010
0200
0300
1000
0001
,  // measure 78
2000
3010
0001
0200
0000
0310
0001
1000
,  // measure 79
0100
1000
0010
0002
0000
0100
1003
0200
,  // measure 80
0000
0301
0010
2000
0000
0010
3001
0100
,  // measure 81
1000
0100
0010
0002
0000
0013
0100
2000
,  // measure 82
0000
3100
0010
0002
0000
0013
0100
1000
,  // measure 83
0100
0010
0001
0020
0000
1030
0100
0020
,  // measure 84
0000
0031
0010
0200
0000
1300
0100
0010
,  // measure 85
0001
0010
0001
0020
0000
0031
0100
2000
,  // measure 86
0000
3100
0010
1000
0100
0010
0001
0020
,  // measure 87
0000
0031
0100
2000
0000
3100
0010
0002
,  // measure 88
0013
1000
0010
0002
1003
1000
0001
0000
,  // measure 89
0010
1000
0020
0000
1030
0001
1000
0001
,  // measure 90
0100
0001
0200
0000
1300
0100
2000
0000
,  // measure 91
3001
0010
0002
0000
0013
1000
0010
0001
,  // measure 92
0100
1000
0200
0000
0301
0010
2000
0000
,  // measure 93
3010
0001
0200
0000
0301
0100
0001
0100
,  // measure 94
1000
0010
2000
0000
3010
0001
0020
0000
,  // measure 95
0031
0100
2000
0000
3100
0010
0100
0010
,  // measure 96
0100
0010
0002
0000
0013
0001
0020
0000
,  // measure 97
0130
0010
0200
0000
1300
0001
1000
0001
,  // measure 98
1000
0010
0002
0013
0100
0020
0000
0030
;
