#TITLE:Sun Quan The Emperor;
#SUBTITLE:;
#ARTIST:Unknown artist;
#TITLETRANSLIT:;
#SUBTITLETRANSLIT:;
#ARTISTTRANSLIT:;
#GENRE:;
#CREDIT:;
#BANNER:Sun Quan the Emperor-banner.png;
#BACKGROUND:maxresdefault.jpg;
#LYRICSPATH:;
#CDTITLE:;
#MUSIC:【洛天依】Luo Tianyi - 權御天下 Sun Quan The Emperor (English Translation Pinyin).mp3;
#OFFSET:0.000000;
#SAMPLESTART:100.000000;
#SAMPLELENGTH:12.000000;
#SELECTABLE:YES;
#BPMS:0.000000=197.000000
,84.000000=175.000000
,144.000000=197.000000
,178.500000=175.000000
,239.000000=146.000000
,256.000000=197.000000
,360.000000=175.000000
,482.000000=146.000000
,499.000000=197.000000
,601.000000=147.000000
,624.000000=197.000000
;
#STOPS:
;
#BGCHANGES:;
#KEYSOUNDS:;
#ATTACKS:;

//---------------dance-single - ----------------
#NOTES:
     dance-single:
     :
     Hard:
     10:
     0.706507,1.287640,0.347610,0.094803,0.027651,1252.000000,1164.000000,88.000000,24.000000,0.000000,0.000000,0.706507,1.287640,0.347610,0.094803,0.027651,1252.000000,1164.000000,88.000000,24.000000,0.000000,0.000000:
// measure 0
0000
0000
0000
0000
,  // measure 1
0000
0000
0000
0000
,  // measure 2
0000
0000
0000
0000
,  // measure 3
0000
0000
0000
0000
0000
1001
0000
0000
,  // measure 4
0000
0000
0000
0000
1001
1001
1001
0000
,  // measure 5
0000
0000
0000
0000
1010
1010
1010
0000
,  // measure 6
0000
0000
0000
0000
0000
1100
1100
1100
,  // measure 7
0000
0101
0000
0101
0000
0000
0101
0000
,  // measure 8
1100
0000
0000
0000
0000
0000
0011
0011
,  // measure 9
0011
0000
0000
0000
0000
0000
0000
1100
,  // measure 10
1100
1100
0000
0000
0000
0000
0000
1010
,  // measure 11
1010
1000
0100
0010
0001
0010
0100
0000
,  // measure 12
1000
0000
0100
0010
0001
0010
0100
1000
,  // measure 13
0100
0010
0000
0100
1000
0100
0010
0001
,  // measure 14
0010
0001
0010
0100
0000
0010
0100
1000
,  // measure 15
0100
0010
0001
0010
0100
1000
0100
0010
,  // measure 16
0001
0010
0100
0010
0001
0000
0010
0100
,  // measure 17
1000
0100
0010
0100
0010
0100
1000
0100
,  // measure 18
1000
0100
1000
0010
1000
0010
0001
1000
,  // measure 19
0001
1000
0001
1000
0001
0000
1000
0100
,  // measure 20
0010
0001
0010
1000
0100
0000
0000
0000
,  // measure 21
1000
0000
0100
0000
0010
0001
0010
0100
,  // measure 22
0010
0000
0100
1000
0100
0000
0010
0001
,  // measure 23
0010
0000
0010
0100
1000
0100
0010
0000
,  // measure 24
0100
0000
0010
0002
0000
0003
0000
0010
,  // measure 25
0100
0000
1000
0100
0010
0100
0000
0001
,  // measure 26
0000
0010
0100
1000
1000
0100
0010
0000
,  // measure 27
0001
0010
0100
0010
0001
0000
0010
0000
,  // measure 28
0100
0020
0000
0030
0000
1010
0000
1100
,  // measure 29
0010
0001
0010
0100
0000
0001
0000
0010
,  // measure 30
0100
1000
1000
0100
0010
0000
0010
0001
,  // measure 31
0010
0100
0001
0000
0010
0000
0100
0020
,  // measure 32
0000
0000
0030
1000
0000
0001
0000
1000
,  // measure 33
0010
0100
0010
0000
0100
0001
0010
0100
,  // measure 34
0000
1000
0100
0010
0000
1000
0100
0010
,  // measure 35
0001
0010
0000
0100
0010
0002
0000
0000
,  // measure 36
0000
0013
0000
1000
0100
0010
0001
0010
,  // measure 37
0000
0100
0010
0100
1000
0100
0010
0001
,  // measure 38
0010
1000
0100
0010
0100
1000
0010
0001
,  // measure 39
0010
0100
1000
0100
0010
0100
1000
0100
,  // measure 40
0010
0001
0010
0000
0100
0010
0001
0010
,  // measure 41
0100
0010
0100
1000
0100
0010
0001
0010
,  // measure 42
1000
0100
0010
0000
0010
0001
0100
0010
,  // measure 43
0001
0010
0100
1000
0100
0010
0001
0100
,  // measure 44
1000
0100
0000
0000
0000
0000
1001
1000
,  // measure 45
0000
0010
0001
0100
1000
0000
0100
0000
,  // measure 46
0001
0010
1000
1000
0010
0001
0100
0000
,  // measure 47
0100
0001
1000
0100
0000
0010
0000
0001
,  // measure 48
0020
0000
0000
0030
1000
0000
0100
0001
,  // measure 49
0010
0001
0100
1000
0010
0000
0001
0100
,  // measure 50
1000
0000
0100
0001
0010
0000
1000
0010
,  // measure 51
0001
0100
1000
0100
0000
0010
0002
0000
,  // measure 52
0000
0003
1001
0000
1001
0000
1000
0010
,  // measure 53
0001
0100
0010
0000
0100
1000
0100
0000
,  // measure 54
0010
0001
0010
0000
0010
0100
0010
1000
,  // measure 55
0000
0000
0100
0010
0002
0000
0000
0003
,  // measure 56
0010
0000
1000
0000
1000
0100
0010
0001
,  // measure 57
0010
0000
0100
0010
0100
0000
1000
0001
,  // measure 58
1000
0000
1000
0010
0001
0100
1000
0000
,  // measure 59
0100
0000
0001
0010
0000
0000
1010
0000
,  // measure 60
0101
0000
1100
0010
0001
0000
0010
0100
,  // measure 61
1000
0000
1000
0100
0000
0000
0000
0010
0001
0000
0000
0000
0010
0100
0000
0000
,  // measure 62
1000
0100
0000
0000
0000
0000
0010
0000
0001
0000
0000
0000
0010
0100
0000
0000
,  // measure 63
1000
0100
0000
0000
0000
0010
0002
0000
0000
0000
0000
0000
0000
0000
0003
0000
,  // measure 64
0000
1010
0000
0101
0000
0000
1000
0100
,  // measure 65
0001
0000
0010
1000
0010
0001
0100
1000
,  // measure 66
0000
0000
0100
0010
0100
0010
0000
1000
,  // measure 67
0001
1000
0000
1000
0010
0001
0100
1000
,  // measure 68
0100
0001
0010
0010
0010
1000
1000
0000
,  // measure 69
1000
0100
0010
0000
0001
0001
0001
0010
,  // measure 70
0100
0010
0000
0000
1000
1000
1000
0100
,  // measure 71
0000
0010
0010
0010
0000
0001
0001
0001
,  // measure 72
0100
1000
0010
0100
0010
1000
0100
0010
,  // measure 73
0000
0000
0001
0001
0001
0000
1000
1000
,  // measure 74
1000
0100
0100
0010
0001
0000
0000
0100
,  // measure 75
0010
0100
0000
1000
1000
1000
0000
0010
,  // measure 76
0010
0010
0100
0100
0100
0001
0001
0000
,  // measure 77
0001
0010
0100
0000
1000
0100
0010
0000
,  // measure 78
0001
0010
0100
1000
0100
0010
0001
0000
,  // measure 79
0001
0010
0100
1000
0000
0100
0010
0100
,  // measure 80
0000
0010
0100
0010
0100
0100
0000
0000
,  // measure 81
2002
0000
0000
0000
0000
0000
0000
3003
,  // measure 82
0010
0100
0010
0100
0100
0100
1000
0000
,  // measure 83
0001
1000
0001
1000
0010
0001
0100
1000
,  // measure 84
0100
0001
0100
0010
0100
0010
0100
1000
,  // measure 85
0001
1000
0001
1000
0001
1000
0010
1000
,  // measure 86
0010
0010
0010
0001
0001
0100
0100
0100
,  // measure 87
0000
1000
0100
0010
0001
0010
0100
1000
,  // measure 88
0000
0100
0010
0100
0010
0100
0010
0100
,  // measure 89
1000
0100
0001
0010
0100
1000
0100
0000
,  // measure 90
0000
0000
1001
0000
1000
0000
0010
0001
,  // measure 91
0100
1000
0100
0000
0001
0010
1000
0000
,  // measure 92
0010
0001
0100
0000
1000
0100
0001
0010
,  // measure 93
0100
0000
0020
0030
0120
0000
0000
0030
,  // measure 94
1000
0000
0001
0000
1000
0010
0001
0100
,  // measure 95
0000
1000
0000
0100
0010
0100
0000
0001
,  // measure 96
1000
0001
1000
0010
0001
0100
0010
0000
,  // measure 97
0100
0000
0010
0200
0000
0300
1000
0000
,  // measure 98
0001
0000
1000
0010
1000
0010
0000
1000
,  // measure 99
0000
0100
1000
0010
0000
0001
0010
0100
,  // measure 100
0000
1000
0010
0001
0010
0000
0200
0000
,  // measure 101
0310
0200
0000
0000
0300
1000
0001
0000
,  // measure 102
0010
1000
0001
0100
0000
0100
0000
0001
,  // measure 103
0010
0100
0000
0010
0100
1000
0000
1000
,  // measure 104
0100
0010
0100
0010
0001
0000
0010
0200
,  // measure 105
0000
0000
0300
1000
0000
0001
0000
1000
,  // measure 106
0010
0001
0100
1000
0000
0100
1000
0010
,  // measure 107
0000
0001
0010
0100
0000
1000
0100
0010
,  // measure 108
0001
0010
0000
0100
0000
1000
0200
0000
,  // measure 109
0300
0010
0000
0100
0000
1000
0001
1000
,  // measure 110
0001
0000
1000
0000
0010
0001
0100
0100
,  // measure 111
0001
0010
0000
1000
0010
0100
0001
0000
,  // measure 112
0010
0100
0000
0010
0200
0000
0300
0000
,  // measure 113
1001
0000
1000
0010
0001
0100
1000
0000
,  // measure 114
0100
0000
0001
0010
0100
0000
1000
0100
,  // measure 115
0010
0000
0001
0100
0010
0100
0000
0010
,  // measure 116
0000
1000
0002
0000
0000
0003
1000
0000
,  // measure 117
0010
0000
0001
0100
1000
0100
0001
0000
,  // measure 118
0001
0100
1000
0000
1000
0100
0001
0000
,  // measure 119
0001
0100
1000
0010
0001
0000
0010
0000
,  // measure 120
1020
0000
0000
0030
0100
0000
0010
0100
,  // measure 121
0000
0000
1000
0000
0001
0000
1000
0000
0000
0000
0010
0001
0000
0000
1000
0100
,  // measure 122
0000
0000
0010
0001
0000
0000
0000
0010
0100
0000
0000
0000
1000
0000
0100
0000
,  // measure 123
0000
0000
0010
0000
0001
0000
0000
0001
1000
0000
0000
0000
1000
0010
0000
0000
,  // measure 124
0000
0001
0200
0000
0000
0000
0000
0000
0300
0000
0000
0000
1000
0000
0100
0000
,  // measure 125
0010
0001
0000
0000
0001
0010
0100
0000
,  // measure 126
1000
0100
0010
0001
0010
0100
0000
1000
,  // measure 127
0100
1000
0010
0001
0000
1000
0010
0010
,  // measure 128
1000
1000
0100
0010
0100
0001
0010
0100
,  // measure 129
1000
1000
1000
0100
0000
0100
0010
0001
,  // measure 130
0010
0000
0001
0001
0001
0001
0010
0010
,  // measure 131
1000
0100
0100
0100
0100
0000
1000
1000
,  // measure 132
1000
1000
0000
0010
0010
0010
0010
0001
,  // measure 133
0001
0001
0001
0100
0100
0010
0000
0100
,  // measure 134
0100
0100
0000
0000
1000
0001
1000
0001
,  // measure 135
1000
0001
0000
1000
0010
1000
0010
0000
,  // measure 136
1000
1000
1000
1000
0000
0001
0100
0001
,  // measure 137
0100
0001
0100
0001
0000
0100
0010
0100
,  // measure 138
0010
0001
1000
0001
1000
0000
1000
0010
,  // measure 139
0001
0100
1000
0100
0000
0001
0010
1000
,  // measure 140
0100
0000
0010
0100
0001
0010
0000
0010
,  // measure 141
0100
0010
0100
0100
0000
0220
0000
0000
,  // measure 142
0000
0000
0330
1000
0100
0010
0001
0010
,  // measure 143
0100
1000
0100
0010
0001
0010
0100
1000
,  // measure 144
0100
0010
0001
0010
0100
1000
0100
0010
,  // measure 145
0001
0010
0100
1000
0100
0010
0001
0010
,  // measure 146
0010
0100
1000
0000
1000
0100
0010
0010
,  // measure 147
0001
0001
0010
0010
0010
0100
0100
0100
,  // measure 148
0100
0100
0100
0100
0000
1000
1000
1000
,  // measure 149
1000
1000
1000
1000
1000
0001
0001
0001
,  // measure 150
0001
0001
0010
1000
0100
0010
1000
0001
,  // measure 151
0100
0000
1000
0010
0001
1000
0001
1000
,  // measure 152
0001
1000
0001
1000
0010
1000
1000
0100
,  // measure 153
0010
0001
0100
0010
0100
0010
0101
0000
,  // measure 154
1000
0001
0100
1000
0010
0001
1000
0100
,  // measure 155
0010
0001
0010
1000
0100
0010
0001
0010
,  // measure 156
0100
0010
0100
0000
1000
1000
0000
0001
,  // measure 157
1000
0001
1000
0000
0100
1000
0100
0010
,  // measure 158
0000
0001
0001
0001
0100
0100
0100
0000
,  // measure 159
1000
1000
1000
1000
0000
0010
0010
0010
,  // measure 160
0000
0001
0001
0001
0001
0001
0001
0000
,  // measure 161
0001
0100
0100
0100
0100
0000
1000
1000
,  // measure 162
1000
0000
0100
0100
0100
0100
0100
0100
,  // measure 163
0100
0010
0000
0010
0010
0010
0010
0000
,  // measure 164
0001
0001
0001
0000
0010
0100
1000
0100
,  // measure 165
0010
0100
1000
0100
0010
0001
0010
0010
,  // measure 166
0000
0100
0010
0001
0000
0010
0100
0010
,  // measure 167
0001
0010
0100
0000
0000
1000
0100
0010
,  // measure 168
0100
0000
1000
0100
0010
0000
0001
0001
,  // measure 169
0100
0010
0001
0010
0100
1000
0100
0010
,  // measure 170
0100
1000
0000
1000
0100
0010
0000
0100
,  // measure 171
0010
0001
0010
0100
0010
0000
1000
0000
,  // measure 172
0010
1000
0010
0000
1000
0100
1000
0000
,  // measure 173
1000
0100
0010
0001
0010
0001
0020
0000
,  // measure 174
0000
0000
0000
1030
0000
0100
0010
0001
,  // measure 175
0010
0000
0100
1000
0100
0010
0001
0010
,  // measure 176
0100
0110
0110
0110
0110
0000
1001
1001
,  // measure 177
1001
1001
1001
1010
1010
1010
1010
1100
,  // measure 178
1100
1100
1100
1100
0000
0011
0000
0011
,  // measure 179
0011
0011
0011
0011
0011
0101
0101
0101
,  // measure 180
0101
0101
0101
0101
0101
1100
1100
1100
,  // measure 181
1100
1100
1100
1100
1010
1010
1010
1010
,  // measure 182
1010
1010
1010
1010
0000
1010
0000
1000
,  // measure 183
0100
0010
0001
0010
0100
1000
0100
0010
,  // measure 184
0000
0100
0010
0100
0010
0100
0010
0100
,  // measure 185
1000
0010
0001
0010
0100
1000
0100
0010
,  // measure 186
0001
1000
0000
0010
0000
1000
0010
1000
,  // measure 187
1000
0100
0010
0001
0010
0100
1000
0100
,  // measure 188
0010
0001
0010
0100
0010
0001
0010
0100
,  // measure 189
1000
0010
0100
1000
0100
0010
0001
0010
,  // measure 190
0100
0000
1000
0100
0010
0001
0010
0100
,  // measure 191
0000
1000
0000
0000
1000
0100
0010
0000
;
