#TITLE:Suckin' On my Tendies;
#SUBTITLE:;
#ARTIST:Unknown artist;
#TITLETRANSLIT:;
#SUBTITLETRANSLIT:;
#ARTISTTRANSLIT:;
#GENRE:;
#CREDIT:;
#BANNER:banner.png;
#BACKGROUND:a4021393230_10.jpg;
#LYRICSPATH:;
#CDTITLE:;
#MUSIC:Hot Dad - Suckin' on My Tendies.mp3;
#OFFSET:0.000000;
#SAMPLESTART:99.971581;
#SAMPLELENGTH:12.000000;
#SELECTABLE:YES;
#BPMS:0.000000=126.999992
;
#STOPS:
;
#BGCHANGES:;
#KEYSOUNDS:;
#ATTACKS:;

//---------------dance-single - ----------------
#NOTES:
     dance-single:
     :
     Hard:
     8:
     0.457156,0.721591,0.323201,0.311231,0.171576,802.000000,721.000000,81.000000,78.000000,0.000000,11.000000,0.457156,0.721591,0.323201,0.311231,0.171576,802.000000,721.000000,81.000000,78.000000,0.000000,11.000000:
// measure 0
0000
0000
0000
0000
0000
0100
0000
1000
0000
0100
0000
0010
0000
0001
0000
0001
,  // measure 1
0000
0010
0000
0100
0000
1000
0000
0100
0000
0010
0000
0001
0000
0010
0000
0100
,  // measure 2
0000
1000
0000
0100
0000
0010
0000
0001
0000
0010
0000
0100
0000
1000
0000
0100
,  // measure 3
0000
1000
0000
0100
0000
1000
0000
0100
0000
0010
0000
0001
0000
0010
0000
0100
,  // measure 4
0000
1000
0000
0100
0000
0010
0000
0001
0000
0000
0010
0000
0100
0000
0010
0000
,  // measure 5
0001
0010
0100
0010
0100
1001
1001
1001
,  // measure 6
0000
1000
0100
1000
0000
0001
0010
0100
,  // measure 7
1000
0100
0010
0001
0010
0100
1000
1000
,  // measure 8
0000
0100
0010
0001
0000
0001
0010
0100
,  // measure 9
0010
0001
0010
0100
1000
0100
1100
1100
,  // measure 10
0000
1000
0100
0010
0000
0001
0010
0100
,  // measure 11
1000
0100
0010
0001
0010
1001
1001
1001
,  // measure 12
0000
1000
0001
1000
0000
0000
1000
0100
,  // measure 13
0010
0001
0010
0100
0010
0001
0010
0100
,  // measure 14
0000
0000
0000
0000
0000
0000
1000
0100
,  // measure 15
0010
0100
1000
0100
0010
0001
0010
0100
,  // measure 16
0000
1000
1000
1000
0000
0001
0010
0100
,  // measure 17
0010
0001
0100
1000
0100
0001
0010
1000
,  // measure 18
0000
1000
1000
1000
0000
1000
0010
0001
,  // measure 19
0100
1000
0100
0001
0010
0001
0010
0001
,  // measure 20
0000
0001
0100
1000
0000
1000
0100
0010
,  // measure 21
0001
0020
0000
0130
2000
0000
3200
0000
,  // measure 22
0000
0000
0302
0000
0000
0000
0023
0000
0000
2000
0030
0000
3100
0000
0010
0000
,  // measure 23
0001
0000
0020
0000
0000
0030
0100
0000
0020
0000
0000
0000
0230
0000
0000
0000
,  // measure 24
2000
0300
0000
0000
3000
0000
0011
0000
0000
0000
1000
0000
0100
0000
0010
0000
,  // measure 25
0001
0010
0100
1000
0100
0010
0001
0010
,  // measure 26
0100
0010
0100
0010
0000
1000
0001
1000
,  // measure 27
0001
0010
0100
0010
0100
0001
0010
0001
,  // measure 28
0100
0001
0100
1000
0000
1000
0100
0010
,  // measure 29
0100
1000
0100
0010
0001
0010
0100
0010
,  // measure 30
0000
0011
0011
0011
0000
0001
0010
0100
,  // measure 31
1000
0100
0010
0100
1000
0100
0010
0001
,  // measure 32
0000
0011
0011
0011
0000
0001
0100
1000
,  // measure 33
0100
0001
0100
1000
0010
0001
0010
1000
,  // measure 34
0000
1001
1001
1001
0100
1000
0010
0001
,  // measure 35
0100
1000
0100
0001
0100
0110
0110
0110
,  // measure 36
0000
0000
1000
0001
1000
0001
0000
0000
0000
0000
0000
0000
1000
0000
0100
0000
,  // measure 37
0010
0001
0010
0100
1000
0100
0010
0100
,  // measure 38
0000
0001
0010
0100
0000
0000
1000
0100
,  // measure 39
0010
0100
1000
0100
0010
0001
0010
0100
,  // measure 40
0000
1001
1001
1001
0000
1000
0100
0010
,  // measure 41
0001
0010
0100
0010
0001
0010
0100
1000
,  // measure 42
0000
2200
0000
3300
0000
1000
0100
1000
,  // measure 43
0010
1000
0010
0001
0010
0001
0100
0001
,  // measure 44
0000
1100
1100
1100
0000
1000
0100
0001
,  // measure 45
0010
0000
0200
0000
0000
0000
1300
0000
0020
0000
0002
0030
0000
0000
0000
0000
,  // measure 46
0000
0000
0023
0000
0000
0200
0030
0000
0000
0000
1300
0000
0100
0000
0010
0000
,  // measure 47
0001
0020
0000
0031
0200
0000
0302
0000
,  // measure 48
0000
0203
0000
0000
0000
2000
0300
0000
0000
0000
3010
0000
1000
0000
0100
0000
,  // measure 49
0010
0001
0010
0100
1001
0000
0000
1000
,  // measure 50
0100
0010
1001
0000
0000
0000
1000
0100
,  // measure 51
0010
0001
0010
0001
1001
0000
1000
0100
,  // measure 52
1000
0100
1001
0000
0000
1000
0010
0001
,  // measure 53
0010
0000
0100
1000
0000
0100
0010
0000
0000
0010
0001
0010
0100
1000
0000
0000
,  // measure 54
0100
0010
0001
0010
0100
0010
0100
0000
0000
0100
1000
0100
0010
0001
0010
0000
,  // measure 55
0000
0100
0000
0010
0001
0010
0000
0100
0000
0000
1000
0000
0100
0001
0010
1000
,  // measure 56
0000
0010
0001
0100
1000
0100
0001
0000
0000
0000
0010
0100
0000
0100
0010
0001
,  // measure 57
0000
0010
0000
0100
0010
0100
1000
0000
0100
0000
0010
0000
0001
0010
0000
0100
,  // measure 58
0010
0000
0001
0010
0100
1000
0100
0000
0000
0000
0001
0000
0010
0100
0000
1000
,  // measure 59
0100
0000
0010
0001
0000
0010
0001
0010
0000
0000
0001
0000
0100
1000
0000
0100
,  // measure 60
0100
0000
0001
0010
0000
0100
1100
0000
0000
0000
0002
0000
0000
0000
0000
0000
,  // measure 61
0000
0000
0000
0000
,  // measure 62
0000
0000
0000
0000
0000
0000
0020
0000
0000
0003
0200
0030
0000
0000
0000
0000
,  // measure 63
0000
0000
0000
0000
,  // measure 64
2000
0300
0000
0000
0020
0000
0000
0000
0002
3000
0000
0000
0000
0030
0200
0000
,  // measure 65
0000
0000
0000
0000
,  // measure 66
0000
0000
0000
0000
,  // measure 67
0000
0000
0000
0000
,  // measure 68
0000
0000
0000
0303
0000
2000
0000
0000
,  // measure 69
0000
0000
0000
0000
,  // measure 70
0000
0000
0000
0020
0000
3002
0000
0000
,  // measure 71
0230
0000
0000
0000
,  // measure 72
2003
0000
0000
0000
0320
0000
0000
0000
0002
3030
0000
0000
0000
0000
0200
0000
,  // measure 73
0000
0000
0000
0000
,  // measure 74
0000
0000
0000
0000
,  // measure 75
0000
0000
0000
0000
,  // measure 76
0000
0000
0000
0000
0000
0303
0000
1000
,  // measure 77
0100
0000
0010
0000
0001
0000
0002
0000
0000
0023
0000
0000
0000
0000
0000
0000
,  // measure 78
0030
2000
0000
0000
0000
0020
0000
0000
,  // measure 79
0000
3002
0000
0000
0000
0000
0000
0000
0230
0000
0000
0000
0000
0000
0000
0000
,  // measure 80
0000
0000
2003
0000
0000
0000
0000
0000
0300
0020
0000
0000
0000
0000
0000
0000
,  // measure 81
3000
0000
0000
0000
0000
0230
0000
0000
0000
0320
0000
0000
0000
0000
0000
0000
,  // measure 82
0000
2000
0000
0000
0000
0000
0000
0000
0000
0032
0000
0000
0000
0000
0000
0000
,  // measure 83
0000
0000
0000
0000
0000
0000
0203
3000
0000
0000
2000
0000
0000
0000
0000
0000
,  // measure 84
0000
0000
0000
0000
0000
0000
0000
0000
0000
3300
1001
0000
1001
0000
0001
0000
,  // measure 85
0001
0010
0010
0010
0100
0100
0100
0100
,  // measure 86
0100
1000
1000
1000
1000
0001
0001
0001
,  // measure 87
0001
0010
0010
0010
0010
0100
0100
0100
,  // measure 88
0100
1000
1000
1000
1000
0010
0010
0010
,  // measure 89
0010
0100
0100
0100
0100
1000
1000
1000
,  // measure 90
1000
0001
0001
0001
0001
1000
1000
1000
,  // measure 91
1000
0001
0001
0001
0001
0100
0100
0100
,  // measure 92
0100
0010
0010
0010
0010
1000
0100
0010
,  // measure 93
0001
0010
0100
1000
0100
0020
0000
0031
,  // measure 94
0200
0000
1300
0100
0001
0010
1000
0020
,  // measure 95
0000
0031
0100
1000
0100
0010
0100
0010
,  // measure 96
0100
1000
0100
0010
0001
0010
0000
0100
,  // measure 97
0000
1000
0100
0010
0001
0010
0001
0100
,  // measure 98
0001
0100
1000
0100
0000
1001
1001
1001
,  // measure 99
0000
1000
0010
1000
0010
0001
0100
0001
,  // measure 100
0100
1000
0100
0001
0000
0011
0011
0011
,  // measure 101
0000
0001
0010
0001
0100
1000
0100
1000
,  // measure 102
0001
1000
0001
1000
0000
1001
1001
1001
,  // measure 103
0000
1000
0010
1000
0010
1000
0001
0100
,  // measure 104
0002
0000
0000
0003
0100
0000
1000
0000
0100
0000
0001
0000
0010
0000
0001
0000
,  // measure 105
0022
0000
0030
0003
0100
0000
1000
0000
0010
0000
0100
0000
0010
0000
2002
0000
,  // measure 106
0000
0000
0000
3003
1000
0000
0010
0000
1000
0000
0001
0000
0100
0000
0010
0000
,  // measure 107
2002
0000
0000
3003
1000
0000
0100
0000
0010
0000
0001
0000
0010
0000
0001
0000
,  // measure 108
0022
0000
0000
0033
0100
0000
0010
0000
0100
0000
0010
0000
0100
0000
1001
0000
,  // measure 109
1001
1000
0100
0010
0001
0100
0010
0001
,  // measure 110
0020
0000
0000
0030
0001
0000
0010
0000
0100
0000
1000
0000
0100
0000
0010
0000
,  // measure 111
0002
0000
0013
0100
1000
0100
0010
0001
,  // measure 112
0010
0100
1001
1001
1001
1000
1000
1010
,  // measure 113
2020
0000
0000
3030
1000
0000
1000
0000
1000
0000
1000
0000
1100
0000
1100
0000
,  // measure 114
2200
0000
0000
3300
0101
0000
0101
0000
0101
0000
0101
0000
0101
0000
0011
0000
,  // measure 115
0022
0000
0000
0033
0011
0000
0011
0000
0011
0000
0011
0000
0011
0000
1010
0000
,  // measure 116
2020
3030
1100
1100
1100
1100
1100
0101
,  // measure 117
0202
0000
0000
0303
0001
0000
0001
0000
0001
0000
0001
0000
0010
0000
0010
0000
,  // measure 118
0020
0000
0000
0030
1000
0000
1000
0000
1000
0000
1000
0000
0100
0000
0100
0000
,  // measure 119
0200
0000
0000
0300
0010
0000
0100
0000
0010
0000
0100
0000
1000
0000
0100
0000
,  // measure 120
0010
0000
0001
0000
0011
0000
0012
0000
0000
0003
0000
0000
0000
0000
0000
0000
;
