#TITLE:Spider-Man 2 Pizza Theme;
#SUBTITLE:;
#ARTIST:Unknown artist;
#TITLETRANSLIT:;
#SUBTITLETRANSLIT:;
#ARTISTTRANSLIT:;
#GENRE:;
#CREDIT:;
#BANNER:banner.png;
#BACKGROUND:the-amazing-spider-man-2-5000x2664-spider-man-electro-rhino-4k-1828.jpg;
#LYRICSPATH:;
#CDTITLE:;
#MUSIC:Spider-Man 2_ The Game Pizza Theme.mp3;
#OFFSET:0.000000;
#SAMPLESTART:-0.028420;
#SAMPLELENGTH:12.000000;
#SELECTABLE:YES;
#BPMS:0.000000=166.000000
,156.500000=188.000000
;
#STOPS:
;
#BGCHANGES:;
#KEYSOUNDS:;
#ATTACKS:;

//---------------dance-single - ----------------
#NOTES:
     dance-single:
     :
     Hard:
     5:
     0.525908,0.614483,0.227244,0.465851,0.000000,324.000000,304.000000,20.000000,41.000000,0.000000,1.000000,0.525908,0.614483,0.227244,0.465851,0.000000,324.000000,304.000000,20.000000,41.000000,0.000000,1.000000:
// measure 0
0000
0000
0000
0000
1000
0100
1000
0010
,  // measure 1
0001
0010
0100
1000
0100
0001
0010
0100
,  // measure 2
1000
0100
0010
0001
0100
0010
0000
0000
,  // measure 3
0010
0100
1000
0100
0010
0001
0010
0100
,  // measure 4
0000
0110
0000
1000
0100
0010
0001
0100
,  // measure 5
0010
0000
1000
0200
0000
0000
0000
0000
,  // measure 6
0300
0010
0001
0010
0100
1000
0100
0000
,  // measure 7
0012
0000
0000
2003
0000
0000
0000
3010
,  // measure 8
0001
0100
0010
0000
0100
1000
0100
0000
,  // measure 9
0011
0000
0010
0100
0010
0100
1000
0001
,  // measure 10
1000
0001
0000
1020
0000
0000
0000
0000
,  // measure 11
0000
1030
0100
0010
0001
0000
0001
0010
,  // measure 12
0100
0010
0000
0200
0000
0000
0300
1100
,  // measure 13
0000
0012
0000
0000
0000
0000
0003
1000
,  // measure 14
0010
0100
0020
0000
0000
0000
0000
0030
,  // measure 15
0000
1000
0200
0000
0000
0000
0300
0000
,  // measure 16
0010
0001
0100
0000
1000
0100
0010
0001
,  // measure 17
0000
0010
0000
0010
0000
1000
0100
0020
,  // measure 18
0000
0000
0000
0000
0000
0030
0000
0001
,  // measure 19
0000
0010
0000
0000
0100
0000
1000
0100
,  // measure 20
0010
0001
0010
0100
1000
1000
0000
0100
,  // measure 21
0000
0010
0001
0010
0200
0000
0000
0000
,  // measure 22
0000
0000
0000
0320
0000
0230
0000
0320
,  // measure 23
0000
0230
0000
0300
1000
0100
0010
0001
,  // measure 24
0010
0100
0000
0010
0000
0100
0000
0010
,  // measure 25
0000
0100
0000
1000
0100
0010
0000
0011
,  // measure 26
0000
0110
0100
0010
0100
1000
0100
1000
,  // measure 27
0100
1000
0100
0010
0010
1000
0002
0000
,  // measure 28
0000
0000
0000
1003
0000
0010
0001
0000
,  // measure 29
0100
0010
0000
0100
0000
1000
0000
0100
,  // measure 30
0000
0010
0000
0001
0000
1000
0000
0001
,  // measure 31
0000
1000
0001
1000
1010
0000
1000
0000
,  // measure 32
0100
0000
0010
0000
0001
0010
0000
0001
,  // measure 33
0010
0100
0010
0200
0000
2300
0000
3100
,  // measure 34
0020
0000
0032
0000
0023
0032
0000
0023
,  // measure 35
0000
0230
0000
0000
0000
0000
1300
0010
,  // measure 36
0001
0100
1000
0000
0100
0000
0010
0000
,  // measure 37
0021
0000
0000
0000
0100
1030
0100
0010
,  // measure 38
0001
0100
1000
0010
0001
0010
1000
0100
,  // measure 39
0001
0010
1000
0001
0000
1000
0000
0001
,  // measure 40
0000
1000
0000
0001
0000
1000
0001
0000
,  // measure 41
1000
0200
0000
0000
0000
0000
0300
0010
,  // measure 42
0001
0010
0100
0010
0100
0010
0010
2000
,  // measure 43
0000
3100
0012
0000
,  // measure 44
0000
0003
1010
0100
1000
0020
0000
0000
,  // measure 45
0000
0030
0000
1200
0000
0000
0000
0000
,  // measure 46
0300
0011
0000
0110
0000
0110
0000
1100
,  // measure 47
0000
0020
0000
0030
0001
0010
0001
0020
,  // measure 48
0000
0000
0000
0030
1100
0000
1200
0000
,  // measure 49
0000
0000
0300
0000
1000
0002
0000
0000
,  // measure 50
0000
0000
1003
0010
1000
0000
0010
0001
,  // measure 51
0010
0000
0020
0000
0000
1030
0100
0010
,  // measure 52
0002
0000
0000
0000
0003
0010
0100
0010
,  // measure 53
0000
0100
0000
1000
0100
0010
0001
0010
,  // measure 54
0100
1000
0100
0010
0001
0000
0000
0010
,  // measure 55
2000
0000
0000
3000
,  // measure 56
0010
0000
0001
0000
0010
0001
0000
0010
,  // measure 57
0100
0010
0000
2000
0000
0000
3200
0000
,  // measure 58
0310
0000
0100
0010
0000
0100
0001
0010
,  // measure 59
0100
0010
0100
0010
0100
1000
0100
0010
,  // measure 60
0001
0010
0100
1000
0100
0010
0001
0000
,  // measure 61
0022
0000
0000
0000
1033
0100
0010
0001
,  // measure 62
0010
0100
1000
0100
0010
0001
0010
0100
,  // measure 63
0000
1000
0200
0000
0000
0300
0000
0000
;
