#VERSION:0.83;
#TITLE:Shamisen Drives The Wind;
#SUBTITLE:;
#ARTIST:Unknown artist;
#TITLETRANSLIT:;
#SUBTITLETRANSLIT:;
#ARTISTTRANSLIT:;
#GENRE:;
#ORIGIN:;
#CREDIT:;
#BANNER:banner2.png;
#BACKGROUND:Shamisen_Drives_The_Wind.png;
#PREVIEWVID:;
#JACKET:;
#CDIMAGE:;
#DISCIMAGE:;
#LYRICSPATH:;
#CDTITLE:;
#MUSIC:VOEZ - Shamisen Drives The Wind.mp3;
#OFFSET:0.000000;
#SAMPLESTART:99.971581;
#SAMPLELENGTH:12.000000;
#SELECTABLE:YES;
#BPMS:0.000=111.000;
#STOPS:;
#DELAYS:;
#WARPS:;
#TIMESIGNATURES:0.000=4=4;
#TICKCOUNTS:0.000=4;
#COMBOS:0.000=1;
#SPEEDS:0.000=1.000=0.000=0;
#SCROLLS:0.000=1.000;
#FAKES:;
#LABELS:0.000=Song Start;
#BGCHANGES:;
#KEYSOUNDS:;
#ATTACKS:
;

//---------------dance-single - ----------------
#NOTEDATA:;
#CHARTNAME:;
#STEPSTYPE:dance-single;
#DESCRIPTION:;
#CHARTSTYLE:;
#DIFFICULTY:Hard;
#METER:6;
#RADARVALUES:0.386155,0.550245,0.000000,0.612812,0.814284,322.000000,322.000000,0.000000,73.000000,0.000000,1.000000,0.000000,0.000000,0.000000,0.386155,0.550245,0.000000,0.612812,0.814284,322.000000,322.000000,0.000000,73.000000,0.000000,1.000000,0.000000,0.000000,0.000000;
#CREDIT:;
#NOTES:
// measure 0
0000
0000
0000
0000
,  // measure 1
0000
0000
0000
2000
,  // measure 2
0000
0000
3200
0000
0320
0032
0000
0000
,  // measure 3
0000
0000
0000
0023
0000
0000
0230
0000
0000
2000
0300
0000
0200
3000
0000
0320
,  // measure 4
0000
0032
0000
0000
0000
0000
0000
0000
,  // measure 5
0023
0000
0000
0000
0000
0000
0000
0230
0000
0000
0000
2300
0000
0000
0000
0000
,  // measure 6
0000
0000
0000
0000
0000
0000
0000
0000
0000
0000
0000
0000
0000
0000
0000
0200
,  // measure 7
0000
0000
3000
0000
0020
0300
0002
0000
0030
0000
0000
0013
0200
0000
0000
0000
,  // measure 8
0000
1300
0000
0100
0010
0000
0001
0010
0000
0100
0000
0000
0000
1000
0000
0100
,  // measure 9
0000
0010
0000
0000
0001
0010
0000
0000
0000
0000
0000
0000
0100
0000
0000
0000
,  // measure 10
0000
1000
0100
0010
0000
0000
0000
0000
0002
0000
0000
0000
0000
0000
0000
0000
,  // measure 11
0000
0000
0003
0000
0000
0100
0000
0100
0000
0100
0000
0001
0000
0001
0001
0001
,  // measure 12
0000
0100
0000
0100
0000
0100
0000
0100
0000
1000
0000
1000
0000
1000
0000
0010
,  // measure 13
0000
0010
0000
0010
0000
0001
0000
0001
0000
0001
0000
0100
0010
0100
0010
0100
,  // measure 14
0010
0100
0010
0100
0000
0010
0100
0000
1000
0001
0000
1000
0001
0000
1000
0010
,  // measure 15
0000
1000
0010
1000
0000
0100
1000
0000
0100
1000
0000
0100
0001
0000
0100
0001
,  // measure 16
0000
0100
0001
0010
0000
0001
0010
0000
0001
0010
0000
0100
0010
0000
1000
1000
,  // measure 17
0000
1000
0000
0001
0001
0001
0000
0001
0000
0000
0002
0000
0000
0000
0000
0010
,  // measure 18
0003
0200
0000
0000
0000
0000
0000
2300
0000
0000
0000
0000
0010
0000
3000
0000
,  // measure 19
0000
0000
0000
0000
0200
0000
0000
0000
0000
1300
0020
0000
0000
0000
0000
0000
,  // measure 20
0032
0000
0000
0000
0000
0000
0010
0203
0000
0000
0000
0000
0000
2300
0000
0000
,  // measure 21
0000
0000
0100
0000
3020
0000
0000
0000
0000
0032
0000
0000
0000
0000
0000
0010
,  // measure 22
0200
0000
0003
0000
0000
0000
2000
0300
0000
0000
0000
0010
0000
0001
0000
0000
,  // measure 23
0100
0000
0000
0010
0000
0000
0000
0001
3000
0020
0000
0000
0030
0000
0000
0000
,  // measure 24
1000
0000
0000
0000
0100
0000
0020
0000
0000
0000
0030
0001
0010
0000
0100
0000
,  // measure 25
1000
0100
0020
0000
0000
0000
0000
0031
0000
0020
0000
0000
0130
0000
1000
0200
,  // measure 26
0000
0000
0000
0000
0301
0000
0020
0000
2030
0000
0000
3010
0002
0000
0000
0000
,  // measure 27
0000
0000
0203
0000
0000
0000
0000
1300
0000
0020
0000
0000
0000
0031
0000
0010
,  // measure 28
1000
0000
0100
0001
0010
0000
2000
0000
0000
3000
1000
0000
0100
0000
0010
0000
,  // measure 29
0001
0000
0020
0000
0000
0000
0000
1030
0200
0000
0000
0310
0000
0001
0020
0000
,  // measure 30
0000
0000
0000
0000
0000
1000
0030
1000
0000
1000
0000
0100
0000
0100
0000
0100
,  // measure 31
0000
0100
0000
0010
0000
0010
0000
0010
0000
0001
0000
0001
0000
0001
0000
0010
,  // measure 32
0000
0010
0000
0010
0000
0100
0000
0100
0000
0100
0000
1000
0000
1000
0000
1000
,  // measure 33
0000
1000
0000
1000
0000
1000
0000
1000
0000
0100
0000
0100
0000
0100
0000
0100
,  // measure 34
0000
0100
0000
0100
0000
0010
0000
0010
0000
0010
0000
0010
0000
0010
0000
0010
,  // measure 35
0000
0001
0000
0001
0000
0001
0000
0001
0000
0001
0000
0001
0000
0001
0000
1000
,  // measure 36
0001
1000
0001
1000
0001
1000
0001
0000
1000
0000
0000
1000
0100
0000
0000
0000
,  // measure 37
0010
0001
0000
0000
0000
0000
0001
0000
0010
0100
1000
0000
0100
0010
0000
0001
,  // measure 38
0000
0000
0000
0001
0010
0000
0000
0100
0000
1000
0100
0000
0000
0000
0000
0010
,  // measure 39
0000
0001
0000
0000
0010
0000
0100
1000
0100
0000
0000
0000
0000
0010
0002
0000
,  // measure 40
0000
0000
0013
2000
0000
0000
0000
0000
0000
3100
0010
0000
0001
0000
0010
0100
,  // measure 41
0000
1000
0000
0000
0000
0100
0000
0010
0000
0001
0000
0000
0010
0200
0000
0000
,  // measure 42
0000
0000
0000
2300
0000
0020
0000
3032
0000
0000
0020
0000
0000
0000
0033
0000
,  // measure 43
1000
0000
0000
0000
0000
0100
0000
0020
0000
0000
0000
0030
0001
0010
0000
0100
,  // measure 44
1000
0000
0100
0020
0000
0000
0000
0030
0001
0020
0000
0000
0230
0000
0000
1300
,  // measure 45
0200
0000
0000
0000
0300
0010
0001
0020
0000
0032
0000
0000
0013
0200
0000
0000
,  // measure 46
2300
0000
0000
3200
0000
0000
0000
0000
0310
0002
0000
0000
0000
0000
0013
0000
,  // measure 47
1000
0100
0000
0010
0001
0010
0000
2000
0000
0000
0000
3100
0000
0010
0000
0002
,  // measure 48
0000
0013
2000
0000
0000
0000
0000
3100
0010
0000
0001
0000
0010
0100
0000
1000
,  // measure 49
0200
0000
0000
0000
0310
0002
0000
0000
0023
0000
0031
0000
0020
0000
0000
0000
,  // measure 50
0000
1030
0000
0100
0010
0000
0002
0000
0013
0200
0000
0000
0000
0000
0000
1300
,  // measure 51
0100
0000
0010
0000
0001
0020
0000
0000
0000
0000
0031
0000
0100
1000
0000
0100
,  // measure 52
0010
0001
0000
0020
0000
0000
0000
0030
0000
0000
0000
0000
0000
0000
0000
0000
;
