#VERSION:0.83;
#TITLE:Schwarzweiß;
#SUBTITLE:;
#ARTIST:Unknown artist;
#TITLETRANSLIT:;
#SUBTITLETRANSLIT:;
#ARTISTTRANSLIT:;
#GENRE:;
#ORIGIN:;
#CREDIT:;
#BANNER:banner.png;
#BACKGROUND:15529_696684.jpg;
#PREVIEWVID:;
#JACKET:;
#CDIMAGE:;
#DISCIMAGE:;
#LYRICSPATH:;
#CDTITLE:;
#MUSIC:3- Schwarzweiß ~Kiri no mukou ni tsunagaru sekai~.mp3;
#OFFSET:0.000000;
#SAMPLESTART:-0.028420;
#SAMPLELENGTH:12.000000;
#SELECTABLE:YES;
#BPMS:0.000=182.000,
42.000=123.000,
78.500=182.000,
248.000=123.000,
286.500=182.000,
692.000=123.000,
734.000=55.000,
735.000=182.000;
#STOPS:;
#DELAYS:;
#WARPS:;
#TIMESIGNATURES:0.000=4=4;
#TICKCOUNTS:0.000=4;
#COMBOS:0.000=1;
#SPEEDS:0.000=1.000=0.000=0;
#SCROLLS:0.000=1.000;
#FAKES:;
#LABELS:0.000=Song Start;
#BGCHANGES:;
#KEYSOUNDS:;
#ATTACKS:
;

//---------------dance-single - ----------------
#NOTEDATA:;
#CHARTNAME:;
#STEPSTYPE:dance-single;
#DESCRIPTION:;
#CHARTSTYLE:;
#DIFFICULTY:Hard;
#METER:9;
#RADARVALUES:0.520549,0.697163,0.704842,0.278057,0.111546,1127.000000,909.000000,218.000000,86.000000,0.000000,1.000000,8.000000,0.000000,0.000000,0.520549,0.697163,0.704842,0.278057,0.111546,1127.000000,909.000000,218.000000,86.000000,0.000000,1.000000,8.000000,0.000000,0.000000;
#CREDIT:;
#NOTES:
// measure 0
0000
0000
1001
1010
,  // measure 1
1100
0011
0101
1100
,  // measure 2
1010
0011
0000
0101
,  // measure 3
1100
1100
0000
1010
,  // measure 4
0011
0011
0000
0101
,  // measure 5
0011
0101
1100
1010
,  // measure 6
1100
1010
0000
1100
,  // measure 7
0011
0101
0000
0101
,  // measure 8
1100
1010
0000
1010
,  // measure 9
0101
0011
0101
1100
,  // measure 10
1010
0000
0000
0000
0011
0000
0000
0000
0000
2000
0000
0000
0000
0000
0000
3000
,  // measure 11
0100
0000
0000
0010
0000
0000
0000
0001
0000
0000
0000
0010
0000
0000
0200
0000
,  // measure 12
0000
0000
0000
0300
0000
1000
0000
0000
0020
0000
0000
0000
0000
0000
0000
0000
,  // measure 13
0030
0000
0000
2002
0000
0000
0000
0000
0000
3003
0000
0010
0000
0000
0100
0000
,  // measure 14
0000
1000
0100
0000
0000
0000
0010
0000
0000
0001
0000
0000
0010
0000
0000
0000
,  // measure 15
0000
0100
0000
2000
0000
0000
0000
0000
0000
0000
3000
0000
0000
0000
2002
0000
,  // measure 16
0000
0000
0000
3003
0000
0000
0010
0000
0000
0100
0000
0000
0000
1000
0000
0000
,  // measure 17
0000
0001
0000
0000
0010
0000
0000
0000
0001
0000
0000
0000
0100
0000
0000
2000
,  // measure 18
0000
0000
0000
3000
0020
0000
0000
0000
0030
0200
0000
0000
0000
0000
0300
0000
,  // measure 19
0000
0010
0001
0010
0100
1000
0100
0010
0001
0000
1000
0000
0001
0000
1000
0000
,  // measure 20
0000
1001
0000
0000
1001
0000
0000
1001
,  // measure 21
0000
0000
1001
0000
0000
1001
0100
1000
,  // measure 22
0100
0010
0001
0010
0100
0000
0000
1000
,  // measure 23
0000
0100
0000
0010
0001
0000
0000
0011
,  // measure 24
0000
1000
0000
0000
0010
0000
0001
0000
,  // measure 25
0010
0010
0000
0000
0100
0100
0000
0000
,  // measure 26
0000
1001
0000
0000
1000
0000
0000
0100
,  // measure 27
0000
0010
0000
0001
0010
0000
0000
1000
,  // measure 28
0000
0100
0000
0000
0001
0010
0000
0000
,  // measure 29
0001
0010
0000
0000
1000
0100
0000
0000
,  // measure 30
0000
1001
0000
1001
1001
0000
0000
1010
,  // measure 31
0000
1010
0000
0101
0101
0000
1100
0000
,  // measure 32
1000
0010
0000
0001
0010
0000
0000
0100
,  // measure 33
0010
0010
0000
0000
1000
0001
0000
0000
,  // measure 34
0000
1000
0000
0010
0001
0000
0000
0100
,  // measure 35
0000
1000
0000
0100
0010
0000
0001
0000
,  // measure 36
0010
1000
0000
0000
0100
0010
0000
0000
,  // measure 37
0000
0001
0010
0100
1000
0100
0010
0001
,  // measure 38
0010
0010
0000
0000
1000
0000
0100
0000
,  // measure 39
0010
0000
0001
0010
,  // measure 40
1000
0000
0000
0010
0000
0000
0001
0000
,  // measure 41
0000
0100
0000
0000
0000
1001
0000
1010
,  // measure 42
0000
0011
0000
0000
0101
0000
0000
1100
,  // measure 43
0000
1010
0000
0000
0000
0011
0000
0011
,  // measure 44
0000
1100
0000
0000
1010
0000
0000
0022
,  // measure 45
0000
0000
0000
0000
0000
0000
0033
1000
,  // measure 46
0100
0010
0000
0000
1001
0000
0000
0001
,  // measure 47
0010
0100
0000
0000
1001
0000
0000
1000
,  // measure 48
0100
0010
0000
0000
0001
0000
0010
0000
,  // measure 49
0100
0000
0000
0000
1001
0000
0000
0010
,  // measure 50
0000
0001
0000
0000
0100
0000
0000
1000
,  // measure 51
0000
0020
0000
0000
0230
0000
0000
0000
,  // measure 52
2300
0000
3200
0320
,  // measure 53
0000
0000
0032
0000
,  // measure 54
0013
0000
1000
0000
0000
0100
0000
0010
,  // measure 55
0001
0001
0010
0100
,  // measure 56
0000
0000
1000
0000
0100
0000
0000
0010
,  // measure 57
0001
0010
0100
1000
,  // measure 58
1000
0000
0010
0001
0000
0010
0000
0100
,  // measure 59
0010
1000
0100
0010
,  // measure 60
0001
0010
0100
1000
0100
0010
0001
0010
,  // measure 61
0100
1000
0100
0010
0001
0010
0100
1000
,  // measure 62
0000
2002
0000
0000
0000
0000
3003
0000
0000
1010
0000
0000
0101
0000
0000
0000
,  // measure 63
1100
0000
0000
0000
1010
0000
0000
0022
0000
0000
0000
0000
0033
0000
0000
0101
,  // measure 64
0000
0000
0101
0000
0010
0000
0200
0000
0000
0300
0000
0000
2200
0000
0000
0000
,  // measure 65
0000
0000
3300
0000
0000
1010
0000
0011
0000
0000
0000
0101
0000
0000
1000
0100
,  // measure 66
0010
0000
0001
0000
0000
0000
0010
0000
0000
0100
0000
0000
2000
0000
0000
0000
,  // measure 67
0000
0000
0000
0000
0000
3000
0000
2002
0000
0000
0000
0000
0000
3003
0000
0000
,  // measure 68
1010
0000
0101
0000
0000
0000
1100
0000
0000
0000
0011
0000
0000
0101
0000
0000
,  // measure 69
0000
1010
0000
0000
0000
1100
0000
0000
0011
0000
0000
0000
0000
0101
0000
0000
,  // measure 70
0000
0000
1100
0000
0000
0000
0000
0000
0000
0000
1000
0100
0010
0001
0010
0000
,  // measure 71
0000
0100
1000
0000
0000
0100
0000
0010
0001
0000
1001
0000
0000
0000
1001
0000
,  // measure 72
0000
1001
0000
1001
0000
1001
0000
1001
,  // measure 73
0000
1001
1000
0010
0001
0000
0010
0100
,  // measure 74
0000
0000
1000
0000
0100
0000
0010
0001
,  // measure 75
0000
0000
0010
0000
0100
0000
0000
0010
,  // measure 76
0000
0100
0000
1001
1001
0000
0000
1001
,  // measure 77
1001
0000
0000
0000
1010
0000
0000
1100
,  // measure 78
0000
0000
0011
0000
0101
0000
1100
1100
,  // measure 79
0000
0000
1010
0000
0011
0000
0000
0001
,  // measure 80
0100
0000
0000
1000
0100
0000
0000
0001
,  // measure 81
0010
0000
0000
0000
0020
0000
0000
0130
,  // measure 82
0000
1000
0000
0000
0100
0000
0001
0010
,  // measure 83
0000
0100
0000
1000
0100
0000
0001
0010
,  // measure 84
0000
0100
1000
0100
0020
0000
0030
0001
,  // measure 85
0010
0000
0000
0000
0100
0000
0010
0100
,  // measure 86
0000
0000
1000
0000
0100
0000
0001
0010
,  // measure 87
0000
0100
0000
1000
0100
0000
0000
0001
,  // measure 88
0010
0000
0000
0000
0001
0010
1000
0100
,  // measure 89
0010
0001
0010
0000
1001
0000
0000
0020
,  // measure 90
0000
0230
0000
0302
0000
0000
0000
0023
,  // measure 91
0000
0230
0000
2300
0000
0000
3200
0000
,  // measure 92
0000
0302
0000
0013
0000
0000
0000
0200
,  // measure 93
0000
0320
0000
0000
0230
0000
0000
2300
,  // measure 94
0000
0000
3100
0010
0000
0000
0000
0000
,  // measure 95
0011
0000
0011
0000
2200
0000
3300
2020
,  // measure 96
0000
3030
0022
0000
0000
0000
0000
0000
,  // measure 97
0033
0000
0001
0010
0100
0000
1001
0000
,  // measure 98
0000
0010
0100
1000
0000
0000
1001
0000
,  // measure 99
0000
0000
1000
0100
0010
0000
0001
0010
,  // measure 100
0000
0000
0001
0000
0100
0000
0000
1100
,  // measure 101
0000
0000
0011
0000
0101
0000
0000
1010
,  // measure 102
0000
0000
1100
0000
2020
0000
0000
3030
,  // measure 103
0011
0000
0002
0013
,  // measure 104
0000
0200
0000
0000
0000
0000
0000
2300
,  // measure 105
0000
0000
3100
0010
,  // measure 106
0001
0000
0010
1000
0000
0100
0000
0010
,  // measure 107
0000
0001
0010
0100
1000
0010
0001
0010
,  // measure 108
0100
1000
0010
0001
0010
0100
0001
0000
,  // measure 109
0010
0100
1000
0100
,  // measure 110
0010
0001
0010
0100
0000
1000
0000
0100
,  // measure 111
0000
0001
0000
0010
0100
1000
0010
0001
,  // measure 112
0010
0100
1000
0100
0010
0000
0001
0000
,  // measure 113
0010
0000
0000
2002
0000
0000
0000
0000
,  // measure 114
3003
0010
0001
0010
0100
1000
0100
0010
,  // measure 115
0001
0010
1000
0100
0001
0010
0100
1000
,  // measure 116
0100
0001
0010
0100
1000
0010
0001
0010
,  // measure 117
0100
1000
0010
0001
0010
1000
0100
0000
,  // measure 118
0010
0000
0001
0000
0010
0000
1000
0100
,  // measure 119
0010
0001
0000
0010
0001
0010
0000
0100
,  // measure 120
0000
1000
0100
0010
0001
0000
0000
0000
,  // measure 121
0010
1000
0100
0010
0001
0100
0001
0010
,  // measure 122
0100
1000
0010
0100
0001
0100
0010
0100
,  // measure 123
1000
0100
0010
0001
0010
0100
0010
1000
,  // measure 124
0100
0010
0000
0000
0001
0010
1000
0100
,  // measure 125
0000
0000
0000
0022
0000
0000
0000
0000
,  // measure 126
0000
0000
0033
1000
0000
0001
1000
0000
,  // measure 127
0001
1000
0000
0001
1000
0000
0001
1000
,  // measure 128
0000
0001
1000
0000
0001
1000
0000
0001
,  // measure 129
1000
0001
1000
0100
0010
0001
0010
1000
,  // measure 130
0100
0010
0001
0010
1000
0100
0010
0001
,  // measure 131
0100
1000
0100
0010
0001
0010
0100
1000
,  // measure 132
0000
0010
0010
0010
0000
1000
1000
0010
,  // measure 133
0001
0000
0010
0100
1000
0100
0010
0001
,  // measure 134
0200
0000
0310
0001
0010
0000
1000
0000
,  // measure 135
0010
0001
0010
0100
1000
0010
0001
0010
,  // measure 136
1000
0010
0001
0010
1000
0100
0001
0010
,  // measure 137
0100
1000
0000
0001
0010
1000
1000
0100
,  // measure 138
0001
0010
0000
0000
1001
0000
0000
0000
,  // measure 139
0010
0001
0100
1000
0001
1000
0100
0001
,  // measure 140
1000
0010
0100
0001
0010
1000
0100
0001
,  // measure 141
1000
0100
0001
1000
0100
0010
0001
0010
,  // measure 142
1000
0100
0001
0010
1000
0001
0010
1000
,  // measure 143
0100
0010
0001
1000
0100
0001
1000
0100
,  // measure 144
0001
1000
0010
0001
0100
1000
0001
0000
,  // measure 145
0000
1001
0000
0000
1001
0000
0000
0000
,  // measure 146
1001
0000
0000
1001
0000
0000
1001
0000
,  // measure 147
1001
0000
1001
0000
1001
0000
0000
1001
,  // measure 148
0000
0000
1001
0000
0000
1001
0000
2002
,  // measure 149
0000
0000
0000
3003
,  // measure 150
0000
0000
4004
3003
0000
4004
3003
0000
,  // measure 151
4004
3003
4004
0000
0000
0000
0000
0000
,  // measure 152
0000
0000
0000
0000
,  // measure 153
0000
3003
0000
1100
0000
0010
0001
0000
,  // measure 154
0000
0010
0100
1000
0000
0100
0010
0000
,  // measure 155
0000
0000
0000
0000
1001
0000
1000
0010
,  // measure 156
0000
0001
0100
1000
0000
0100
0010
0000
,  // measure 157
0000
0000
0000
0000
1001
0000
0000
0001
,  // measure 158
0000
0010
0100
1000
0000
0100
0010
0000
,  // measure 159
0000
0000
0000
0001
0010
0100
1000
0100
,  // measure 160
0000
0001
0010
0100
0000
1000
0100
0000
,  // measure 161
0000
0000
0000
0000
1001
0000
0000
0010
,  // measure 162
0000
0001
0100
1000
0000
0100
0001
0000
,  // measure 163
0000
0000
0000
0000
0001
0000
0010
0100
,  // measure 164
1000
0100
0010
0001
0000
0010
0100
0000
,  // measure 165
0000
0000
0000
0000
1100
0000
0000
1010
,  // measure 166
0000
0001
0010
0100
0000
1000
0100
0100
,  // measure 167
0000
0000
0000
0000
1001
0000
0000
0010
,  // measure 168
0000
0100
1000
0100
0010
0001
0010
0000
,  // measure 169
0000
0000
0000
1000
0100
0000
0000
0010
,  // measure 170
0000
0001
0000
0010
0000
0100
2000
0000
,  // measure 171
0000
0000
0000
3000
0001
0000
0001
0000
,  // measure 172
0001
0001
0001
0001
,  // measure 173
1000
0000
0100
0000
0001
0000
0010
0000
0100
1000
0000
0000
0000
0000
0100
0000
,  // measure 174
0010
0000
0000
0001
0010
0000
0000
0000
0000
1000
0000
0100
0000
0000
0000
0001
,  // measure 175
0000
0000
0010
0000
0000
0100
0010
0000
0000
0000
1000
0100
0000
0000
0000
0000
,  // measure 176
0010
0001
0000
0000
0100
1000
0000
0000
0000
0010
0000
0000
0001
0000
0010
0100
,  // measure 177
0000
0000
0000
0000
1000
0000
0200
0000
0000
0000
0300
0001
0010
0000
0000
0000
,  // measure 178
0000
0001
0000
0000
0000
0010
0100
0000
1000
0100
0010
0000
0001
0000
0000
0010
,  // measure 179
0001
0000
0000
0000
0010
0000
1000
0000
0000
0100
1000
0000
0000
0000
0010
0000
,  // measure 180
0000
0001
0010
0000
0000
0100
0010
0000
0000
1000
0100
0010
0000
0011
0000
0000
,  // measure 181
0011
0000
0011
0000
0000
0000
0000
1000
0100
0000
0000
1000
0000
0000
0000
0010
,  // measure 182
0000
0000
0001
0000
0000
0001
0001
0000
0000
0010
0000
0000
0100
0010
0000
0000
,  // measure 183
0000
0100
0000
1000
0000
0000
0000
0000
2002
3003
0220
0330
0000
0000
1001
0000
,  // measure 184
0000
0000
0010
0000
0000
1000
0000
0100
,  // measure 185
0000
0000
0001
0000
0000
0010
0000
0100
,  // measure 186
0000
0000
1000
0000
0000
0010
0000
0001
,  // measure 187
0000
0000
0000
0010
0000
0100
0000
1000
,  // measure 188
0000
0100
0010
0001
,  // measure 189
0000
0000
0000
1001
0000
1001
0000
2002
,  // measure 190
0000
3003
2002
0000
3003
2002
0000
0000
,  // measure 191
0000
0000
0000
0000
3003
1000
0100
0010
,  // measure 192
0000
0000
1001
0000
0000
1000
0100
0010
,  // measure 193
0000
0000
1001
0000
0000
0001
0010
0100
,  // measure 194
0000
2000
3200
0320
,  // measure 195
0000
0030
0001
0000
0000
0010
0100
0000
,  // measure 196
0000
0000
1000
0000
0000
0100
0020
0000
,  // measure 197
0000
0030
0002
0000
0000
0000
0003
2200
,  // measure 198
0000
0000
3322
0000
0033
0202
0000
0000
,  // measure 199
0000
0303
2020
0000
0000
3030
1100
0000
,  // measure 200
0000
1010
0000
0011
0000
0101
0000
0000
,  // measure 201
0000
1100
0000
0101
0000
0011
0000
0000
,  // measure 202
0000
1010
0000
1100
0000
1010
0000
0011
,  // measure 203
0000
0101
0000
0011
0000
0101
0000
0000
,  // measure 204
0000
1100
0000
1100
0000
1100
0000
0000
,  // measure 205
0000
1010
0000
1010
0000
1010
0000
0000
,  // measure 206
0000
0011
0000
0011
0000
0011
0000
0101
,  // measure 207
0000
0101
0000
0101
0000
0101
0000
0000
,  // measure 208
0000
1100
0000
1100
0000
1100
0000
0000
,  // measure 209
0000
0011
0000
0011
0000
0011
0000
0000
,  // measure 210
0000
0101
0000
0101
0000
0101
0000
1010
,  // measure 211
0000
1100
0000
0011
0000
1100
0000
0000
,  // measure 212
0000
0101
0000
1100
0000
1010
0000
0000
,  // measure 213
0000
0011
0000
0101
0000
0011
0000
0000
,  // measure 214
0000
1100
0000
1010
0000
1100
0000
0011
,  // measure 215
0000
1100
0000
0011
0000
1100
0000
0000
;
