#TITLE:Scherzo;
#SUBTITLE:;
#ARTIST:Unknown artist;
#TITLETRANSLIT:;
#SUBTITLETRANSLIT:;
#ARTISTTRANSLIT:;
#GENRE:;
#CREDIT:;
#BANNER:banner.png;
#BACKGROUND:Scherzo.png;
#LYRICSPATH:;
#CDTITLE:;
#MUSIC:VOEZ - Scherzo.mp3;
#OFFSET:0.000000;
#SAMPLESTART:99.971581;
#SAMPLELENGTH:12.000000;
#SELECTABLE:YES;
#BPMS:0.000000=181.000000
;
#STOPS:
;
#BGCHANGES:;
#KEYSOUNDS:;
#ATTACKS:;

//---------------dance-single - ----------------
#NOTES:
     dance-single:
     :
     Hard:
     5:
     0.504614,0.656275,0.278378,0.538197,0.000000,571.000000,526.000000,45.000000,87.000000,0.000000,0.000000,0.504614,0.656275,0.278378,0.538197,0.000000,571.000000,526.000000,45.000000,87.000000,0.000000,0.000000:
// measure 0
0000
0000
0000
0000
,  // measure 1
0000
0000
0000
0000
,  // measure 2
0000
0000
0000
0000
,  // measure 3
0000
1010
0101
1100
,  // measure 4
0101
0000
0010
0000
0001
0010
0100
0000
,  // measure 5
1000
0100
0001
0010
,  // measure 6
0100
0011
1100
0110
,  // measure 7
1001
0000
0100
0000
0001
0010
0100
0000
,  // measure 8
1000
0100
0010
0001
,  // measure 9
0010
1100
1010
0101
,  // measure 10
1010
0000
0001
0000
0010
0100
1000
0000
,  // measure 11
1000
0100
0010
0001
,  // measure 12
0010
0001
0100
0010
,  // measure 13
1000
0100
0010
0001
,  // measure 14
0010
0000
0001
0001
0010
0100
1000
1100
,  // measure 15
0000
1100
0110
0011
,  // measure 16
1100
0000
0010
0000
0100
1000
0100
0000
,  // measure 17
0010
0000
0001
0010
0100
0000
1100
0000
,  // measure 18
0000
0010
0001
0010
0000
0100
0000
1000
,  // measure 19
0000
0100
0000
0010
0000
0001
0010
0100
,  // measure 20
0000
1000
0000
0100
0000
0010
0000
0001
,  // measure 21
0000
0010
0000
0100
0000
1000
0000
0100
,  // measure 22
0000
0010
0000
0100
0000
1000
0100
0010
,  // measure 23
0000
0001
0000
0010
0000
0100
0000
1000
,  // measure 24
0000
0100
0000
0010
0000
0001
0000
0010
,  // measure 25
0000
0100
0000
1000
0000
0100
0000
0010
,  // measure 26
0000
0001
0000
0010
0000
0100
0000
1000
,  // measure 27
0000
0100
0000
0011
0000
2200
0000
0000
,  // measure 28
0000
0300
0000
3200
0000
0320
0000
0000
,  // measure 29
0000
0000
0032
0023
,  // measure 30
0230
2300
3200
0320
,  // measure 31
0000
0000
0000
0000
0000
0032
0000
0013
,  // measure 32
0000
0200
0000
2300
0000
3200
0000
0320
,  // measure 33
0000
0032
0000
0023
0000
0230
0000
2300
,  // measure 34
0000
3200
0000
0320
0000
0032
0000
0023
,  // measure 35
0000
0230
0000
2300
0000
3200
0000
0310
,  // measure 36
0000
0002
0000
0013
0000
0000
1000
0100
,  // measure 37
1000
0000
0010
0001
0100
0000
1000
0100
,  // measure 38
0010
0000
0001
0010
0100
1000
0100
0010
,  // measure 39
0001
0010
0100
1000
0100
0010
1001
0000
,  // measure 40
1100
0000
0110
0000
0011
0000
0001
0010
,  // measure 41
0100
1000
0100
0010
,  // measure 42
0001
0010
0100
1000
,  // measure 43
0100
0000
0010
0000
0002
0000
0013
0100
,  // measure 44
2000
3200
0320
0032
,  // measure 45
0023
0230
2300
3200
,  // measure 46
0310
0000
0002
0000
0023
0000
0031
0010
,  // measure 47
0200
2300
3200
0320
,  // measure 48
0032
0000
0020
0003
0032
0000
0023
0000
,  // measure 49
0230
2300
3100
0020
,  // measure 50
0032
0023
0230
2300
,  // measure 51
3200
0000
2300
3020
,  // measure 52
0031
0000
0010
0100
1000
0100
0010
0001
,  // measure 53
0010
0100
1000
0100
0010
0001
0010
0100
,  // measure 54
0010
0100
0001
0100
1000
0100
0010
0100
,  // measure 55
1000
0100
0010
0100
0001
0010
0100
0010
,  // measure 56
0001
0100
1000
0100
0010
0100
1000
0100
,  // measure 57
0010
0001
0010
0100
0010
0100
1000
0100
,  // measure 58
0010
0000
1000
0100
0010
0000
0100
0010
,  // measure 59
0001
0000
0100
0010
0001
0000
0100
0001
,  // measure 60
0100
0000
1000
0100
1000
0000
0010
1000
,  // measure 61
0010
0100
0001
0010
0100
1000
0100
0010
,  // measure 62
0001
0010
0100
1000
0100
0010
0001
0010
,  // measure 63
0100
1000
0100
0010
0100
0010
0000
0001
,  // measure 64
0000
0010
0000
0100
0000
2000
0000
0000
,  // measure 65
0000
0000
0000
0000
,  // measure 66
0000
0000
3100
0010
0001
0010
0100
1000
,  // measure 67
0100
0010
0001
0010
0100
1000
0100
0010
,  // measure 68
0001
0010
0100
1000
0100
0010
0001
0010
,  // measure 69
0100
1000
0100
0010
0001
0010
0000
0001
,  // measure 70
0000
0010
0000
0100
0000
1000
0000
1000
,  // measure 71
0100
0010
0000
0001
0000
0010
0000
0001
,  // measure 72
0000
0010
0000
0000
0000
1100
0000
0110
,  // measure 73
0000
0011
0000
1100
0000
0010
0000
0001
,  // measure 74
0010
0100
0000
0001
0000
0010
0000
0100
,  // measure 75
0000
1000
0000
0100
0000
0011
0000
1100
,  // measure 76
0000
0100
0000
0010
0000
0100
0000
1000
,  // measure 77
0100
0010
0000
0001
0000
0010
0000
0001
,  // measure 78
0000
0100
0000
0010
0000
0001
0000
0010
,  // measure 79
0000
0100
0000
1000
0000
0100
0000
0010
,  // measure 80
0000
0001
0000
0010
0000
0100
0000
1000
,  // measure 81
0000
0100
0000
0000
0000
0011
0000
1100
,  // measure 82
0000
0110
0000
1001
0000
0100
0000
0010
,  // measure 83
0100
1000
0000
0001
0000
0100
0010
0001
,  // measure 84
0000
1001
0000
0000
0000
1100
0000
0110
,  // measure 85
0000
1010
0000
0101
0000
0001
0000
0010
,  // measure 86
0100
1000
0000
0000
0000
0100
0010
0001
,  // measure 87
0000
0101
0000
0000
0000
1100
0000
0110
,  // measure 88
0000
1010
0000
0101
0000
0001
0000
0000
,  // measure 89
0010
0100
1000
0000
0100
0000
0010
0000
,  // measure 90
0100
0010
1000
0100
,  // measure 91
0010
0001
0010
0100
,  // measure 92
1000
0100
0010
0002
,  // measure 93
0013
0200
0000
2300
,  // measure 94
3200
0000
0310
0000
0002
0000
0020
0003
,  // measure 95
0000
0000
0000
0230
,  // measure 96
2000
0300
0200
3000
0020
0300
0032
0000
,  // measure 97
0023
0000
0000
0000
0000
0000
0000
0030
,  // measure 98
0002
0000
0200
0003
2000
0300
0200
3000
,  // measure 99
0020
0300
0032
0000
0020
0003
0230
0000
,  // measure 100
2000
0300
0000
0000
0000
3100
0020
0000
,  // measure 101
0032
0000
0020
0003
0032
0000
0023
0000
,  // measure 102
0230
0000
2000
0300
0100
3000
0010
0000
,  // measure 103
0001
0010
0001
0000
0100
1000
0100
0000
,  // measure 104
0010
1000
0010
0000
0100
0001
0100
0001
,  // measure 105
0100
1000
0100
0010
0001
0010
1000
0100
,  // measure 106
1000
0100
0010
0001
0000
0010
0000
0001
,  // measure 107
0000
0010
0100
1000
0000
0100
0000
0010
,  // measure 108
0000
0001
0000
0010
0000
0100
0000
1000
,  // measure 109
0000
0100
0000
0010
0000
0001
0000
0010
,  // measure 110
0000
0001
0010
0100
0000
1000
0000
0100
,  // measure 111
0000
0010
0000
0100
0000
1000
0000
0100
,  // measure 112
0000
0010
0000
0001
0000
0010
0000
0100
,  // measure 113
0000
0010
0001
0010
0000
0100
0000
0010
,  // measure 114
0000
0100
0000
1000
0000
0100
0000
0010
,  // measure 115
0000
0001
0000
0010
0000
0100
0000
1000
,  // measure 116
0000
0100
0000
0010
0000
0001
0000
0010
,  // measure 117
0000
0100
0000
2002
0000
0000
0000
3003
;
