#VERSION:0.83;
#TITLE:SHAMISEN SISTERS;
#SUBTITLE:;
#ARTIST:Unknown artist;
#TITLETRANSLIT:;
#SUBTITLETRANSLIT:;
#ARTISTTRANSLIT:;
#GENRE:;
#ORIGIN:;
#CREDIT:;
#BANNER:banner.png;
#BACKGROUND:maxresdefault-6.jpg;
#PREVIEWVID:;
#JACKET:;
#CDIMAGE:;
#DISCIMAGE:;
#LYRICSPATH:;
#CDTITLE:;
#MUSIC:Splatoon - SHAMISEN SISTERS.mp3;
#OFFSET:0.000000;
#SAMPLESTART:99.971581;
#SAMPLELENGTH:12.000000;
#SELECTABLE:YES;
#BPMS:0.000=146.000;
#STOPS:;
#DELAYS:;
#WARPS:;
#TIMESIGNATURES:0.000=4=4;
#TICKCOUNTS:0.000=4;
#COMBOS:0.000=1;
#SPEEDS:0.000=1.000=0.000=0;
#SCROLLS:0.000=1.000;
#FAKES:;
#LABELS:0.000=Song Start;
#BGCHANGES:;
#KEYSOUNDS:;
#ATTACKS:
;

//---------------dance-single - ----------------
#NOTEDATA:;
#CHARTNAME:;
#STEPSTYPE:dance-single;
#DESCRIPTION:;
#CHARTSTYLE:;
#DIFFICULTY:Hard;
#METER:11;
#RADARVALUES:0.634827,0.986658,0.273123,0.405994,0.413376,602.000000,565.000000,37.000000,55.000000,0.000000,0.000000,0.000000,0.000000,0.000000,0.634827,0.986658,0.273123,0.405994,0.413376,602.000000,565.000000,37.000000,55.000000,0.000000,0.000000,0.000000,0.000000,0.000000;
#CREDIT:;
#NOTES:
// measure 0
0000
1001
0000
0000
0000
0000
0000
0000
1000
0000
0100
0000
0000
0000
0000
0000
,  // measure 1
0000
0001
0010
0000
0000
0000
1000
0010
,  // measure 2
0100
0010
0001
0100
0010
0001
0000
0000
,  // measure 3
0100
1000
0000
0000
0000
0100
0010
0001
,  // measure 4
0100
0010
0100
1000
0000
0000
0000
1000
,  // measure 5
0100
0000
0000
0001
0010
0000
0000
0000
,  // measure 6
0100
0010
0100
1000
0100
0010
0100
0001
,  // measure 7
0010
0100
0010
0001
0000
0000
0001
0010
,  // measure 8
0100
0000
0000
1000
0100
0010
0100
0010
,  // measure 9
1000
0000
0100
0000
0010
0000
0001
0000
0010
0000
0100
0000
0000
0000
1001
0010
,  // measure 10
0100
1000
0010
0100
1000
0100
0010
0000
0001
0100
1000
0000
1000
0100
0010
0001
,  // measure 11
1000
0100
0010
0001
1000
0100
0010
0001
0000
1000
0100
0010
0001
0000
0110
0000
,  // measure 12
1100
0000
1000
0100
0010
0001
0000
1000
0100
0010
0001
0000
0001
0000
0010
0100
,  // measure 13
1000
0001
1000
0010
0100
1000
0000
0000
0010
0100
1000
0000
0010
0100
1000
0000
,  // measure 14
0010
0100
1000
0000
0010
0100
1000
0000
0010
0100
1000
0100
0010
0001
0110
0000
,  // measure 15
0001
0010
0100
1000
0001
0010
0100
1000
0000
0000
1001
0000
0110
0000
0000
1100
,  // measure 16
0000
1000
0100
0010
0001
1000
0100
0010
0001
0000
0011
0000
0110
1000
0100
0010
,  // measure 17
0001
0000
0010
0100
1000
0010
0100
1000
0010
0100
1000
0010
0100
1000
0010
0100
,  // measure 18
1000
0000
0010
0002
0000
0000
0000
1000
0000
0100
0003
0000
0200
0000
0000
0000
,  // measure 19
0000
0000
0000
0000
0300
0001
0001
0010
,  // measure 20
0010
1000
2000
0000
3100
0000
0010
0002
,  // measure 21
0000
0010
0013
0100
1000
0100
0010
0002
,  // measure 22
0000
0000
0000
0023
0000
1030
0100
0002
,  // measure 23
0000
0000
0100
0013
1000
0100
0010
0001
,  // measure 24
0010
0100
1200
0000
0000
1300
0001
1000
,  // measure 25
0001
1000
0001
0000
1001
0000
1001
0000
,  // measure 26
1001
0000
0000
0000
2020
0000
0030
3001
,  // measure 27
0200
0000
0000
1300
0200
0000
0000
0300
,  // measure 28
0001
0010
1000
0100
0001
0020
0000
0000
,  // measure 29
0130
0020
0000
0000
1030
0100
0010
0001
,  // measure 30
1000
1001
0000
0000
0000
1000
0200
0000
,  // measure 31
0000
0301
0020
0000
0000
1030
0100
0010
,  // measure 32
0001
0010
0100
1000
0100
0010
0200
0000
,  // measure 33
1300
0001
2000
0000
0010
3001
0010
1000
,  // measure 34
0100
0001
0010
0001
0100
1000
0100
0020
,  // measure 35
0000
0000
0130
0020
0000
0000
1030
0002
,  // measure 36
0000
0000
1000
0013
0100
0010
0001
0020
,  // measure 37
0000
0000
0000
0130
0020
0000
0000
1030
,  // measure 38
0001
1000
0001
1000
1001
0000
0000
1000
,  // measure 39
0200
0000
0000
0001
0320
0000
0000
0000
,  // measure 40
0031
0100
1000
0100
0010
0100
1000
0100
,  // measure 41
0010
0002
0000
0013
0100
0020
0000
0031
,  // measure 42
0010
0100
1000
0100
0010
0100
0010
0100
,  // measure 43
1000
0000
0001
0000
0020
0000
0000
0000
0000
0000
0031
0010
0100
1000
0001
0010
,  // measure 44
0100
1000
0001
0010
0100
1000
0001
0010
0100
1000
0001
0010
0100
1000
0001
0010
,  // measure 45
0100
1000
0001
0010
0100
1000
0001
0010
0100
1000
0001
0010
0100
1000
0001
0010
,  // measure 46
0100
1000
0001
0010
0100
1000
0000
1001
0000
0011
0010
0100
1000
0001
0010
0100
,  // measure 47
1000
0001
0010
0100
1000
0001
0010
0100
1000
0001
0010
0100
1000
0001
0010
0100
,  // measure 48
1000
0001
0010
0100
1000
0001
0010
0100
1000
0001
0010
0100
1000
0001
0010
0100
,  // measure 49
1001
0000
1100
0000
0000
0110
1000
0100
0010
0001
1000
0100
0010
0001
1000
0100
,  // measure 50
0010
0001
1000
0100
0010
0001
1000
0100
0010
0001
1000
0100
0010
1000
0100
0010
,  // measure 51
1000
0100
0010
1000
0100
0010
1000
0100
0010
1001
0000
0000
0000
0000
0010
0000
,  // measure 52
0001
0020
0000
0000
0000
0000
0000
0000
,  // measure 53
1030
0001
1000
0001
1000
0200
0000
0310
,  // measure 54
0001
0020
0000
0000
0100
1030
0100
0010
,  // measure 55
0100
1000
0200
0000
0000
0000
0302
0000
,  // measure 56
0013
0100
0020
0000
0000
1000
0130
0001
,  // measure 57
0010
0100
0010
0001
0010
0100
0002
0000
,  // measure 58
0010
1003
0010
1000
0010
1000
0000
1001
,  // measure 59
0000
1001
0000
1001
0000
1100
0000
1100
,  // measure 60
0000
1100
0000
1100
0000
1100
1001
2002
,  // measure 61
0000
3003
0000
0000
,  // measure 62
2000
0000
0000
3001
0020
0000
0000
0130
,  // measure 63
2000
0000
0000
0010
3100
0010
0001
0010
,  // measure 64
0100
2000
0000
0000
3100
0010
0000
0000
,  // measure 65
0001
0010
0100
1000
0100
0012
0000
0000
,  // measure 66
0013
2000
0000
0000
0001
3200
0000
0000
,  // measure 67
1300
0100
1000
0001
0100
0010
0100
1000
,  // measure 68
0100
0010
2001
0000
0010
3001
0200
0000
,  // measure 69
1300
0100
0010
0001
0010
0100
1000
0100
,  // measure 70
0010
0100
2000
0000
0000
0000
3001
0020
,  // measure 71
0000
0000
0031
0200
0000
0000
1300
0100
,  // measure 72
0010
0100
1000
0010
0200
0000
0300
0010
,  // measure 73
0200
0000
0000
1300
0001
1000
0010
0001
,  // measure 74
1001
0000
0000
1000
0200
0000
0000
0301
,  // measure 75
0020
0000
0000
0031
0010
1000
0010
0100
,  // measure 76
0010
0001
0010
0100
1000
0200
0000
0301
,  // measure 77
0010
0002
0000
0013
1000
0010
0100
0001
,  // measure 78
0010
0100
1000
0100
0010
1001
0000
0000
;
