#TITLE:SERBIA STRONG!;
#SUBTITLE:;
#ARTIST:Unknown artist;
#TITLETRANSLIT:;
#SUBTITLETRANSLIT:;
#ARTISTTRANSLIT:;
#GENRE:;
#CREDIT:;
#BANNER:banner.png;
#BACKGROUND:132dc77d8d3cc3ad71c1db8e24a722e49491ae12.png;
#LYRICSPATH:;
#CDTITLE:;
#MUSIC:SERBIA STRONG!.mp3;
#OFFSET:0.000000;
#SAMPLESTART:99.971581;
#SAMPLELENGTH:12.000000;
#SELECTABLE:YES;
#BPMS:0.000000=133.000000
;
#STOPS:
;
#BGCHANGES:;
#KEYSOUNDS:;
#ATTACKS:;

//---------------dance-single - ----------------
#NOTES:
     dance-single:
     :
     Hard:
     6:
     0.397113,0.525332,0.041216,0.934228,0.737308,607.000000,598.000000,9.000000,204.000000,0.000000,0.000000,0.397113,0.525332,0.041216,0.934228,0.737308,607.000000,598.000000,9.000000,204.000000,0.000000,0.000000:
// measure 0
0000
0000
0010
0000
0010
1000
0000
1000
0000
1000
0000
1000
0000
0100
0000
0100
,  // measure 1
0000
0100
0000
0100
0000
0010
0000
0010
0000
0010
0000
0010
0000
0010
0002
0000
,  // measure 2
0000
0000
0000
0000
0000
0000
0003
0000
0000
0010
0000
0010
0000
0010
0000
0010
,  // measure 3
0000
0100
0000
0100
0000
0100
0000
0100
0000
0100
0000
1000
1000
0000
1000
0000
,  // measure 4
1000
1000
0000
1000
2000
0000
0000
0000
0000
3000
0000
0000
0000
0010
0000
0001
,  // measure 5
0000
0000
0010
0010
0000
0000
0000
0200
0000
0000
0000
0000
0000
0000
0000
0300
,  // measure 6
0000
1000
0000
0100
0000
0000
0010
0000
0000
0000
0002
0000
0000
0000
0000
0023
,  // measure 7
0000
0000
0000
0230
0000
0000
0000
0000
2300
0000
0000
0000
3100
0000
0000
0010
,  // measure 8
0000
0020
0000
0030
0002
0000
0000
0023
0000
0000
0000
0230
0000
0000
0000
0000
,  // measure 9
0000
0000
0000
0000
0000
0000
0000
0000
0000
0300
0000
0000
0000
1000
0000
0000
,  // measure 10
0100
0000
0020
0000
0000
0000
0002
0030
0000
0000
0000
0000
0000
0000
0003
0000
,  // measure 11
0000
0010
0000
0100
0000
2000
0000
0000
0000
0200
3000
0000
0000
0000
0320
0000
,  // measure 12
0000
0000
0000
0032
0000
0000
0000
0020
0003
0000
0000
0000
0130
0000
2000
0000
,  // measure 13
0000
0000
3200
0000
0000
0000
0320
0000
0000
0000
0000
0032
0000
0000
0000
0000
,  // measure 14
0000
0000
0000
0000
0000
0000
0000
0013
0000
0200
0000
0000
0000
0000
1300
0000
,  // measure 15
0100
0000
0000
0020
0000
0000
0000
0032
0000
0000
0000
0023
0000
0000
0000
0000
,  // measure 16
0031
0000
0010
0000
0000
0200
0000
0000
0000
0000
2300
0000
0000
0000
3200
0000
,  // measure 17
0000
0000
0000
0302
0000
0000
0000
0020
0003
0000
0000
0000
2030
0000
0000
0000
,  // measure 18
0000
3200
0000
0000
0000
0300
0020
0000
0000
0000
0032
0000
0000
0000
0000
0000
,  // measure 19
0000
0000
0000
0000
0000
0000
0000
0000
0000
0003
0000
0000
0000
1000
0000
0100
,  // measure 20
0000
0000
0020
0000
0000
0000
0032
0000
0000
0000
0000
0020
0003
0000
0000
0000
,  // measure 21
0031
0000
0000
0100
0000
2000
0000
0000
0000
0000
3200
0000
0000
0000
0300
0002
,  // measure 22
0000
0000
0000
0020
0003
0000
0000
0000
1030
0000
0000
0010
0000
0002
0000
0000
,  // measure 23
0000
0020
0003
0000
0000
0000
2030
0000
0000
0000
3200
0000
0000
0000
0000
0000
,  // measure 24
0000
0000
0000
0000
0300
0000
0000
0001
0000
0010
0000
1000
0000
0000
0100
0000
,  // measure 25
0010
0000
0001
0010
0000
0001
0000
0010
0000
0100
0000
0000
0010
0000
0100
0000
,  // measure 26
1000
0000
0100
0000
0010
0001
0000
0010
0000
0000
0100
0000
0010
0000
0100
0000
,  // measure 27
0000
0010
0000
0001
0000
1000
0000
0001
1000
0000
1000
0000
0010
0000
1000
0000
,  // measure 28
0000
0010
0000
1000
0000
0000
1000
0000
0100
1000
0000
0100
0000
1000
0000
0100
,  // measure 29
0000
0000
0010
0000
0001
0000
0010
0000
0001
0000
0000
0010
0100
0000
0010
0000
,  // measure 30
0100
0000
0001
0000
0100
0000
0000
1000
0000
0010
0000
0001
0000
0010
0001
0010
,  // measure 31
0000
0001
0000
0010
0000
1000
0000
0100
0000
0010
0000
0000
0001
0000
0010
0000
,  // measure 32
0100
0000
0010
0100
0000
1000
0000
0100
0000
0000
0010
0000
0001
0000
0010
0000
,  // measure 33
0000
0001
0010
0000
1000
0100
0000
1000
0000
0100
0000
1000
0000
1000
0000
1000
,  // measure 34
0000
0000
1000
0000
0010
0000
0001
0000
0100
0000
0000
0010
0000
0002
0000
0010
,  // measure 35
0003
0000
2000
0000
0000
0000
0200
3000
0000
0000
0000
0000
0000
0000
0000
0000
,  // measure 36
0302
0000
0000
0013
0000
2000
0000
0000
0000
3020
0000
0000
0000
0000
0032
0000
,  // measure 37
0000
0000
0200
0003
0000
0000
0000
2300
0000
0000
3100
0000
0002
0000
0000
0000
,  // measure 38
0020
0003
0000
0000
0000
2030
0000
0000
0000
0000
3200
0000
0000
0000
0000
0000
,  // measure 39
0000
0000
0000
0300
0000
0010
0000
0001
0010
0001
0000
0010
0000
0100
0000
0000
,  // measure 40
0010
0000
0200
0000
0000
0000
2300
0000
0000
0000
0002
3000
0000
0000
0000
0000
,  // measure 41
1003
0000
0001
0000
0000
2000
0000
0000
0000
3020
0000
0000
0000
0000
0032
0000
,  // measure 42
0000
0000
0200
0003
0000
0000
0000
1300
0000
0000
0010
0000
0002
0000
0000
0000
,  // measure 43
0000
0023
0000
0000
0000
2030
0000
0000
0000
0000
3200
0000
0000
0000
0000
0000
,  // measure 44
0000
0000
0000
0000
0300
0000
0010
0001
0000
0010
0000
0010
0000
0000
0100
0000
,  // measure 45
0010
0000
0200
0000
0000
0000
2300
0000
0000
0000
0000
3002
0000
0000
0000
0000
,  // measure 46
1003
0000
0010
0000
2000
0000
0000
0000
0000
3200
0000
0000
0000
0000
0302
0000
,  // measure 47
0000
0000
0020
0003
0000
0000
0000
0031
0000
0200
0000
0000
2300
0000
0000
0000
,  // measure 48
0000
3200
0000
0000
0000
0302
0000
0000
0000
0000
0023
0000
0000
0000
0000
0000
,  // measure 49
0000
0000
0000
0030
0000
0000
1001
0000
1001
0000
0000
1001
0000
1000
0000
0100
,  // measure 50
0000
0020
0000
0000
0000
0000
0032
0000
0000
0000
0000
0000
0000
0000
0000
0023
,  // measure 51
0000
0000
1030
0000
0200
0000
0000
0000
0000
0320
0000
0000
0000
0032
0000
0000
,  // measure 52
0000
0000
0023
0000
0000
0000
0000
0032
0000
0100
0003
0000
2000
0000
0000
0000
,  // measure 53
3200
0000
0000
0000
0000
0302
0000
0000
0000
0000
0023
0000
0000
0000
0000
0000
,  // measure 54
0000
0000
0000
0030
0000
0000
0000
0000
0000
1000
0000
0001
0000
1000
0000
0100
,  // measure 55
0000
0010
0000
0001
0010
0000
0100
0000
0000
0010
0000
0100
0000
0010
0000
0000
,  // measure 56
1000
0100
1000
0000
0100
1000
0000
0010
0000
0001
0000
0100
0000
0000
0010
0000
,  // measure 57
0001
0000
0000
0010
0010
0000
0010
0010
0000
0000
1000
0000
0100
0000
0010
0000
,  // measure 58
0001
0000
0000
0010
0000
0100
0000
0010
0100
0010
0000
0100
0000
1000
0000
0100
,  // measure 59
0000
0000
0000
1000
0000
0000
0000
0000
0001
0000
0010
0000
1000
0100
0000
0001
,  // measure 60
0000
0100
0000
0000
1000
0000
0100
0000
0000
0001
0000
0010
0000
1000
0010
1000
,  // measure 61
0000
0010
0000
1000
0000
0100
0000
0001
0000
0000
0100
0000
0001
0000
0100
0001
,  // measure 62
0100
0000
0002
0000
0000
0103
0000
1000
0000
0010
0000
0000
0001
0000
0010
0000
,  // measure 63
0001
0000
0010
0100
0010
0100
0100
0000
0010
0000
0100
0000
1000
0000
0000
0200
,  // measure 64
0000
0000
0300
0002
0000
0000
0013
0000
1000
0100
0000
0010
0000
0001
0000
0010
,  // measure 65
0000
0000
2000
0000
0000
0000
3200
0000
0000
0000
0000
0000
0000
0000
0000
0302
,  // measure 66
0000
0000
0013
0000
2000
0000
0000
0000
0020
3000
0000
0000
0000
0230
0000
0000
,  // measure 67
0000
0000
0302
0000
0000
0000
0000
0103
0000
0010
0000
0000
2000
0000
0000
0000
,  // measure 68
0200
3000
0000
0000
0000
0320
0000
0000
0000
0000
0032
0000
0000
0000
0000
0000
,  // measure 69
0000
0000
0000
0000
0000
0013
0000
1000
0100
0010
0000
0000
0200
0000
0000
0302
,  // measure 70
0000
0023
0000
0000
0000
0000
0230
0000
0000
0000
0000
0000
0000
0000
0000
2300
,  // measure 71
0000
0000
3100
0000
0020
0000
0000
0000
0000
0230
0000
0000
0000
0000
0320
0000
,  // measure 72
0000
0000
0230
0000
0000
0000
0000
1300
0000
0100
0000
0020
0000
0000
0000
0000
,  // measure 73
0032
0000
0000
0000
0020
0003
0000
0000
0000
0230
0000
0000
0000
0000
0000
0000
,  // measure 74
0000
0000
0000
0000
0000
0300
1000
0100
0002
0000
0000
0000
0000
0013
0000
1000
,  // measure 75
0000
0200
0000
0000
0000
0000
0320
0000
0000
0000
0000
0000
0000
0000
0000
0032
,  // measure 76
0000
0000
0103
0000
2000
0000
0000
0000
0000
3200
0000
0000
0000
0302
0000
0000
,  // measure 77
0000
0000
0023
0000
0000
0000
0030
1000
0000
0010
0000
0002
0000
0000
0000
0000
,  // measure 78
0203
0000
0000
0000
2300
0000
0000
0000
0000
3020
0000
0000
0000
0000
0000
0000
,  // measure 79
0000
0000
0000
0000
0000
0130
0010
0000
0100
0010
0200
0000
0000
0300
1000
0000
,  // measure 80
0100
0000
0002
0000
0000
0000
0203
0000
0000
0000
0000
0000
0000
0000
0000
1300
,  // measure 81
0000
0000
1000
2000
0000
0000
0000
0000
3020
0000
0000
0000
0000
0032
0000
0000
,  // measure 82
0000
0000
0203
0000
0000
0300
0100
0000
0000
0100
0000
0200
0000
0000
0000
0000
,  // measure 83
0320
0000
0000
0000
0030
0200
0000
0000
0000
0320
0000
0000
0000
0000
0000
0000
,  // measure 84
0000
0000
0000
0000
0000
0000
0000
0000
0030
0000
0000
0000
0000
1000
0100
0010
,  // measure 85
0001
0000
0010
0000
0100
0000
0010
0000
0001
0000
0000
1000
0000
0001
0000
0000
,  // measure 86
1000
0010
0001
0100
1000
0000
0100
0000
0000
0001
0000
0010
0000
0100
0000
0010
,  // measure 87
0000
0000
1000
0100
0010
0000
0001
0010
0000
0100
0000
0010
0000
0000
0001
0000
,  // measure 88
0010
0000
0000
0100
0000
1000
0000
0100
0010
0000
0001
0000
0010
0000
0100
0000
,  // measure 89
1000
0000
0000
0100
0000
0010
0000
0001
0000
0010
1000
0010
0000
0001
0000
0100
,  // measure 90
0000
1000
0000
0100
0000
0000
0001
0010
1000
0000
0100
0000
1000
0010
0000
0001
,  // measure 91
0000
2000
0000
3000
0001
0000
2000
0000
3001
0000
0000
1000
0000
0010
1000
0000
,  // measure 92
0010
1000
0010
0000
1000
0000
0100
0000
0000
1000
0100
0000
1000
0100
0000
0000
,  // measure 93
0100
0001
0000
0100
0001
0000
0100
0000
0000
0010
0100
0000
0000
0010
0100
0000
,  // measure 94
0010
0000
0000
0100
1000
0000
0000
0100
0000
0001
0010
0000
1000
1000
0000
0010
,  // measure 95
0000
0002
0000
0000
0000
0203
0000
0000
0000
0000
0000
0000
0000
0000
0300
1000
,  // measure 96
0000
0010
0000
0002
0000
0000
0000
0000
0023
0000
0000
0000
0030
2000
0000
0000
,  // measure 97
0000
3200
0000
0000
0300
0000
1001
0000
0000
1001
0000
1001
0000
0000
0000
0000
,  // measure 98
2001
0000
0000
3000
0000
2020
0000
0000
3030
0202
0000
0000
0000
0000
0000
0000
,  // measure 99
0000
0000
0303
0000
0000
1000
0010
1000
0010
0000
1000
0010
0010
0000
0000
0001
,  // measure 100
0000
0200
0000
0000
0000
2300
0000
0000
0000
0000
0000
0000
3000
0000
0000
0010
,  // measure 101
0000
0010
0000
0200
0000
0000
0000
0320
0000
0000
0000
0000
0230
0000
0000
0000
,  // measure 102
0000
0320
0000
0000
0000
0000
1030
0000
0002
0000
0000
2003
0000
0000
0000
0002
,  // measure 103
3000
2003
3002
0000
,  // measure 104
0000
0000
0000
0000
0000
1003
0010
0001
0200
0000
0000
0000
1300
0000
0100
0000
,  // measure 105
0000
0002
0000
0000
0000
0023
0000
0000
0000
0000
0000
0000
0000
0000
0000
1030
,  // measure 106
0000
0200
0000
0000
0320
0000
0000
0000
0230
0000
0000
0000
0320
0000
0000
0000
,  // measure 107
0030
0200
0000
0000
0300
0000
0000
0010
0000
0200
0000
0320
0000
0000
0000
0230
,  // measure 108
0000
0000
0000
0300
2000
0000
0000
0000
0000
3002
0000
0000
0000
0000
0000
0000
,  // measure 109
0000
0000
0000
0000
0000
0000
0000
0000
0000
0000
0000
0010
0003
0000
1000
0000
,  // measure 110
0200
0000
0320
0000
0000
0000
0000
0032
,  // measure 111
0000
0103
0000
2000
0000
0000
0000
0000
3200
0000
0000
0000
0000
0302
0000
0000
,  // measure 112
0000
0023
0000
0000
0000
0000
0130
0000
0000
0010
0000
0200
0000
0000
0000
0002
,  // measure 113
0300
0000
0000
0000
0023
0000
0000
0000
0000
0230
0000
0000
0000
0000
0000
0000
,  // measure 114
0000
0000
0000
0000
1300
0000
0010
0001
0100
0000
1000
0000
0100
0000
0001
0000
,  // measure 115
0000
0020
0000
0000
0000
2030
0000
0000
0000
0000
0000
0000
0000
0000
3010
0000
,  // measure 116
0002
0000
0200
0003
0000
0000
0000
2300
0000
0000
0000
0000
3200
0000
0000
0000
,  // measure 117
0000
0302
0000
0000
0000
0000
0013
0000
0000
2000
0000
3020
0000
0000
0000
0032
,  // measure 118
0000
0023
0000
0000
,  // measure 119
0000
0000
0000
2030
0000
0000
0000
0000
0000
0000
0000
0000
0000
0000
0000
0000
,  // measure 120
0000
0000
0000
3000
;
