#TITLE:Revolution;
#SUBTITLE:;
#ARTIST:Unknown artist;
#TITLETRANSLIT:;
#SUBTITLETRANSLIT:;
#ARTISTTRANSLIT:;
#GENRE:;
#CREDIT:;
#BANNER:banner.png;
#BACKGROUND:ws_Revolution_2560x1600.jpg;
#LYRICSPATH:;
#CDTITLE:;
#MUSIC:Revolution - TËЯRA.mp3;
#OFFSET:0.000000;
#SAMPLESTART:99.971581;
#SAMPLELENGTH:12.000000;
#SELECTABLE:YES;
#BPMS:0.000000=166.000000
;
#STOPS:
;
#BGCHANGES:;
#KEYSOUNDS:;
#ATTACKS:;

//---------------dance-single - ----------------
#NOTES:
     dance-single:
     :
     Hard:
     8:
     0.593447,0.601492,0.737163,0.737163,0.000000,958.000000,788.000000,170.000000,170.000000,0.000000,12.000000,0.593447,0.601492,0.737163,0.737163,0.000000,958.000000,788.000000,170.000000,170.000000,0.000000,12.000000:
// measure 0
0000
0000
0000
0000
1000
0100
0010
0001
,  // measure 1
0010
0100
1000
0100
0010
0001
0010
0100
,  // measure 2
1000
0100
0001
0010
0100
1000
0100
0010
,  // measure 3
0001
0010
1000
0100
0010
0001
0010
0100
,  // measure 4
1000
0100
0001
0010
0100
1000
0100
0010
,  // measure 5
0001
0010
1000
0100
0010
0001
0010
0100
,  // measure 6
1000
0010
0001
0010
0100
1000
0010
0001
,  // measure 7
0010
0100
1000
0010
0100
1000
0100
0010
,  // measure 8
0001
0100
0010
0001
0010
0100
1000
0100
,  // measure 9
0010
1000
0100
0010
0001
0100
0010
0001
,  // measure 10
0010
0100
1000
0010
0100
1000
0100
0010
,  // measure 11
0001
0010
1000
0100
0010
0001
0010
0100
,  // measure 12
1000
0010
0001
0010
0100
1000
0001
0010
,  // measure 13
1000
0100
1000
0010
0001
1000
0100
0001
,  // measure 14
0010
1000
0100
1000
0010
0001
1000
0100
,  // measure 15
0001
0010
1000
0100
0010
0100
0010
0100
,  // measure 16
0010
0100
1000
0010
0001
0010
1000
0100
,  // measure 17
0010
0001
1000
0010
0001
1000
0100
0001
,  // measure 18
0010
1000
0100
0010
0001
1000
0100
0001
,  // measure 19
0010
1000
0100
1000
0001
0100
1000
0100
,  // measure 20
0010
0001
0010
1000
0100
0010
0001
0010
,  // measure 21
0100
1000
0010
0001
0010
0100
1000
0010
,  // measure 22
0001
0010
0100
1000
0100
0001
0010
0000
,  // measure 23
1001
0000
1001
2002
0000
0000
0003
0020
,  // measure 24
0000
3230
0000
0000
0000
2300
0000
3100
,  // measure 25
0000
0010
0001
0000
0010
0000
0100
1000
,  // measure 26
0000
0000
0000
1000
0001
1000
2002
0000
,  // measure 27
0003
3220
0000
0000
0330
2002
0000
3003
,  // measure 28
0110
0000
1000
0100
0000
0010
0000
0001
,  // measure 29
0010
0000
0200
0000
0300
1000
0100
0001
,  // measure 30
0020
0000
0000
2030
0000
0000
0000
3020
,  // measure 31
0000
0000
2030
0000
3100
0010
0000
0001
,  // measure 32
0000
0010
0100
0000
2000
0000
3000
0100
,  // measure 33
0010
0001
0010
0002
0000
0000
0023
0000
,  // measure 34
0000
2030
0000
0000
3100
0000
1000
0000
,  // measure 35
0100
0010
0000
0001
0000
0010
0200
0000
,  // measure 36
0000
0000
0000
0300
,  // measure 37
1000
0100
0000
1000
0100
1000
0100
1000
,  // measure 38
0100
1000
0010
1000
0001
0100
1000
0000
,  // measure 39
0100
0010
0001
0010
0100
0010
0000
0100
,  // measure 40
1000
0100
0010
0100
0010
0100
1000
0100
,  // measure 41
1000
0100
0000
0000
1000
0010
0001
0100
,  // measure 42
0010
0000
0010
0001
0010
0100
0001
0000
,  // measure 43
0000
0010
0000
0100
1000
0010
0100
1000
,  // measure 44
0001
0010
0100
0010
0101
1010
0000
0000
,  // measure 45
1100
0010
0001
0010
0100
0001
0010
1000
,  // measure 46
0100
0010
0000
0100
1000
0010
0001
0010
,  // measure 47
1000
0100
0010
0100
0010
0100
0000
0000
,  // measure 48
0000
1000
0100
0010
0100
1000
0000
0100
,  // measure 49
0010
0001
0010
0100
0000
0000
0010
0001
,  // measure 50
0100
1000
0100
0001
0010
0100
0000
0010
,  // measure 51
0100
0000
0010
0220
0000
0000
2332
0000
,  // measure 52
0000
3003
0220
0000
0330
1001
0000
1001
,  // measure 53
0000
1001
1010
0000
1100
0000
1100
0000
,  // measure 54
0011
0000
0001
0010
0100
1000
1100
0000
,  // measure 55
0000
0011
0000
0000
0202
0000
0303
1010
,  // measure 56
0000
1100
0000
0011
0101
0000
1010
0000
,  // measure 57
1100
0022
0000
0033
0010
0001
0100
1000
,  // measure 58
2200
0000
0300
3022
0000
0033
0202
0000
,  // measure 59
0000
1313
0000
1100
0000
0011
0000
0101
,  // measure 60
1010
0000
1100
0000
0011
0000
0010
0001
,  // measure 61
0100
1000
0000
2200
0000
3300
0220
0000
,  // measure 62
0330
0022
0000
0033
0101
0000
0100
0000
,  // measure 63
0010
0100
0000
0010
0100
0000
2002
0000
,  // measure 64
0000
0000
0000
3003
0000
1000
0100
0010
,  // measure 65
0001
0000
0010
0001
0000
0010
0100
0000
,  // measure 66
0010
0100
1000
0000
0100
0010
0000
0001
,  // measure 67
0000
0010
0000
0100
0000
0010
0000
0100
,  // measure 68
0000
1010
0001
0200
0000
0000
0000
0000
,  // measure 69
0000
0000
0000
0300
1000
0100
0010
0001
,  // measure 70
0010
0100
0010
0100
0010
1000
0100
0000
,  // measure 71
0010
0001
0010
0100
1000
0010
0001
0010
,  // measure 72
0001
0100
0010
0100
0000
0000
1000
0100
,  // measure 73
0001
0010
0100
0000
1000
0100
0010
0100
,  // measure 74
1000
0000
0000
0001
0010
0100
0001
0010
,  // measure 75
0100
0001
0010
0100
1000
0010
0100
1000
,  // measure 76
0000
0100
1000
0010
0001
0010
1000
0001
,  // measure 77
1000
0000
0001
0000
0000
0000
1000
1000
,  // measure 78
0100
0100
0100
0010
0010
0000
0001
0002
,  // measure 79
0000
0000
0003
0010
1000
0100
0010
0000
,  // measure 80
0000
0010
0001
0001
0001
0001
0000
0010
,  // measure 81
0100
1000
0100
0100
0100
0100
1000
1000
,  // measure 82
0010
0010
0000
0001
0000
0022
0000
0033
,  // measure 83
2200
0000
3300
0202
0000
0000
0303
1010
,  // measure 84
0000
1100
0011
0000
0101
0000
1010
1100
,  // measure 85
0000
0011
0000
0000
0001
0010
0100
1000
,  // measure 86
2200
0000
3300
0022
0000
0033
2200
0000
,  // measure 87
3300
0011
0000
0101
0000
1010
0000
1100
,  // measure 88
1100
0000
1100
0011
0000
0000
0001
0010
,  // measure 89
0100
1000
2200
0000
3300
0022
0000
0033
,  // measure 90
0202
0000
0300
1013
0000
1100
0000
0011
,  // measure 91
0101
0000
1010
0000
1100
0011
0000
0000
,  // measure 92
0010
0001
0100
1000
2002
0000
0000
3223
,  // measure 93
0000
0000
0330
2002
0000
3003
0120
0000
,  // measure 94
1031
0000
1001
1010
0000
1100
0011
0000
,  // measure 95
0202
0000
0000
0000
0300
0003
1000
0100
,  // measure 96
0000
0010
0000
0001
0010
0000
0100
0000
,  // measure 97
0010
0000
0100
1000
0100
0000
0010
0001
,  // measure 98
0000
0010
0100
0010
0100
0000
1000
0100
,  // measure 99
0000
0010
0001
0010
0100
0000
0010
0100
,  // measure 100
0000
1000
0100
0000
0010
0001
0010
0100
,  // measure 101
0010
0000
0100
1000
0100
0010
0001
0010
,  // measure 102
0000
0100
0020
0000
0000
1030
0100
0010
,  // measure 103
0001
0010
1000
0100
0010
0001
0010
1000
,  // measure 104
0100
0010
0100
0010
1000
0100
1000
0100
,  // measure 105
0010
0100
1000
0001
0010
0200
0000
0000
,  // measure 106
0000
0000
0300
0000
0000
0100
1000
0010
,  // measure 107
0001
0100
1000
0100
0010
0002
0000
0000
,  // measure 108
0003
0010
0100
1000
0100
0001
0010
0100
,  // measure 109
0010
0000
0120
0000
0000
0030
1000
0100
,  // measure 110
0010
0021
0000
0000
1030
0000
0100
0010
,  // measure 111
1000
0000
0000
0100
0001
0010
0100
0010
,  // measure 112
0001
0100
0010
0001
0010
0100
0010
0000
,  // measure 113
0220
0000
0000
2332
0000
0000
3003
2002
,  // measure 114
0000
3003
2020
0000
3030
0000
2200
0000
,  // measure 115
3300
0022
0000
0033
0202
0000
0303
2020
,  // measure 116
0000
3030
2200
0000
0000
3322
0000
0000
,  // measure 117
0033
2200
0000
3300
0022
0000
0000
0033
,  // measure 118
0202
0000
0303
2020
0000
3030
0202
0000
,  // measure 119
0000
0323
0000
0030
2200
0000
0000
3300
,  // measure 120
0022
0000
0033
0202
0000
0000
0303
2020
,  // measure 121
0000
3030
2200
0000
3300
0022
0000
0033
,  // measure 122
2200
0000
0300
3022
0000
0000
0033
0202
,  // measure 123
0000
0303
0020
0000
0030
2200
0000
0000
,  // measure 124
3300
0022
0000
0033
0000
0000
0000
0000
,  // measure 125
0000
0000
0000
0000
0101
0000
0000
1000
,  // measure 126
0100
0020
0000
0000
0230
0000
0000
0320
,  // measure 127
0000
0000
0000
2030
0000
3100
0000
0011
,  // measure 128
0110
0110
1001
0110
,  // measure 129
1000
0100
0010
0001
0020
0000
0000
2030
,  // measure 130
0000
0000
3200
0000
0000
0320
0000
0030
,  // measure 131
0101
1010
1100
0000
1010
0000
0110
0000
,  // measure 132
1001
0000
0000
1000
0100
0001
0010
2002
,  // measure 133
0000
3003
0220
0000
0330
2002
0000
3003
,  // measure 134
0110
0000
1001
0000
1001
1001
0000
1010
,  // measure 135
0000
1100
0011
0000
0000
0001
0010
1000
,  // measure 136
0000
2200
0000
3300
0022
0000
0033
2200
,  // measure 137
0000
3300
0101
0000
1100
0000
0011
1100
,  // measure 138
0000
1100
0000
0101
1001
0000
0000
1000
,  // measure 139
0100
0010
0001
0020
0000
0000
2030
0000
,  // measure 140
0000
3200
0000
0000
0310
0000
0101
0000
,  // measure 141
0011
0101
0000
0110
0000
0101
0011
0000
,  // measure 142
0000
0000
0110
1000
0100
0020
0000
0000
,  // measure 143
0032
0000
0000
0023
0000
0000
0032
0000
,  // measure 144
0013
0000
1010
0000
0110
1010
0000
0101
,  // measure 145
0000
0020
0030
0000
1000
0100
0010
1000
,  // measure 146
0002
0023
0000
2030
,  // measure 147
0000
3100
0000
1010
0101
0000
0110
0000
,  // measure 148
0101
1010
0000
0110
0000
0000
1000
0100
,  // measure 149
0010
0001
2000
0000
0000
3002
0000
0000
,  // measure 150
2003
0000
0000
3002
0000
0013
0000
0110
,  // measure 151
1010
0000
0110
0000
1000
2200
0000
0000
,  // measure 152
0000
0000
0000
0300
3000
0100
1000
0010
,  // measure 153
0100
0010
0001
0010
0100
1000
1000
1001
,  // measure 154
1001
1001
0000
0000
0000
0000
0000
0000
;
