#TITLE:Renard;
#SUBTITLE:;
#ARTIST:Unknown artist;
#TITLETRANSLIT:;
#SUBTITLETRANSLIT:;
#ARTISTTRANSLIT:;
#GENRE:;
#CREDIT:;
#BANNER:banner.png;
#BACKGROUND:Renard-Wallpaper-lapfox-30504537-900-563.jpg;
#LYRICSPATH:;
#CDTITLE:;
#MUSIC:Stag Party ft. Futret (GABBERSTÀˆG) - Renard.mp3;
#OFFSET:0.000000;
#SAMPLESTART:99.971581;
#SAMPLELENGTH:12.000000;
#SELECTABLE:YES;
#BPMS:0.000000=144.000000
,46.500000=122.000000
,52.000000=200.000000
,54.000000=133.000000
,57.500000=122.000000
,62.000000=200.000000
,66.000000=133.000000
,69.000000=122.000000
,74.000000=200.000000
,77.500000=133.000000
,80.000000=122.000000
,85.000000=200.000000
,89.000000=75.000000
,90.500000=300.000000
,188.000000=200.000000
,220.000000=155.000000
,241.000000=75.000000
,242.500000=300.000000
,332.500000=75.000000
,334.125000=155.000000
,359.000000=177.000000
,383.500000=75.000000
,385.000000=300.000000
,571.000000=122.000000
,573.000000=100.000000
,603.500000=75.000000
;
#STOPS:
;
#BGCHANGES:;
#KEYSOUNDS:;
#ATTACKS:;

//---------------dance-single - ----------------
#NOTES:
     dance-single:
     :
     Hard:
     13:
     0.763450,1.092520,0.160935,0.011099,0.391238,963.000000,934.000000,29.000000,2.000000,0.000000,0.000000,0.763450,1.092520,0.160935,0.011099,0.391238,963.000000,934.000000,29.000000,2.000000,0.000000,0.000000:
// measure 0
0000
0000
1000
0100
1000
0000
0010
0100
0001
0000
0010
0100
1000
0000
0000
0000
,  // measure 1
0100
0010
0001
0000
0010
0100
0010
0000
0100
0000
0000
1100
0000
0000
0000
0000
,  // measure 2
0011
0000
0000
0000
0000
1000
0100
0000
0010
0001
0010
0000
0100
1000
0000
0000
,  // measure 3
0100
0010
0000
0001
0010
0000
0000
0100
0010
0000
0100
0000
0000
1000
0100
0010
,  // measure 4
0000
0001
0010
0100
0000
1000
0000
0000
1100
0000
0000
0000
1100
0000
0000
0000
,  // measure 5
1100
0000
0000
1000
0000
0100
0010
0000
0001
0010
0100
0000
0010
0000
0001
0010
,  // measure 6
0000
0100
0010
0000
0000
1000
0000
0100
1000
0000
0000
0010
0000
0001
0010
0000
,  // measure 7
0100
0000
0010
0100
0000
0000
1100
0000
0000
0000
0000
0011
0000
0000
0000
0000
,  // measure 8
0000
0100
1000
0000
0010
0001
0000
0010
0100
0000
1000
0000
0100
0000
0010
0001
,  // measure 9
0010
0000
0000
0100
0010
0000
0100
0000
0000
1000
0100
1000
0000
0100
1000
0010
,  // measure 10
1000
0000
0000
0001
1000
0000
0000
0000
1001
0000
0000
0000
1001
0000
0000
1000
,  // measure 11
0100
0000
0010
0001
0000
0010
0000
0100
0000
0000
0000
1000
0100
0010
0001
0000
,  // measure 12
0000
0010
0100
1000
0000
0100
0000
0010
0001
0010
0100
0010
0000
0100
0000
0000
,  // measure 13
1001
0000
0000
0000
0000
0000
1001
0000
0000
0100
0000
1000
0000
0100
0010
0001
,  // measure 14
0010
0100
1000
0000
0000
0000
1000
0100
1000
0100
0000
0000
0010
0001
0010
0000
,  // measure 15
0000
0100
0010
0100
0000
0010
0100
0000
0000
0000
1001
0000
0000
0000
0000
0000
,  // measure 16
1001
0000
0000
0000
0000
0000
1001
0000
0000
1000
0100
0000
0010
0001
0010
0100
,  // measure 17
0000
1000
0000
0000
1000
0100
0010
0000
0001
0000
0010
0100
0000
1000
0000
1000
,  // measure 18
0100
0010
0000
0001
0010
0100
0000
0000
1001
0000
0000
0000
0000
0000
0000
0000
,  // measure 19
1001
0000
0000
0000
0000
0000
1000
0000
0100
0010
0001
0000
0010
0100
0000
1000
,  // measure 20
0000
0100
0010
0001
0000
0010
0000
0100
0000
0010
0100
0000
1000
0100
0000
1000
,  // measure 21
0100
1000
0000
0010
0000
0000
1001
0000
0000
0000
0000
0000
1001
0000
0000
0000
,  // measure 22
0000
0000
1001
0000
0000
0000
0000
0000
0000
1000
0000
0100
0000
0010
0000
0001
0000
0010
0000
0000
0000
0000
0000
0000
0000
0000
0000
0000
0000
0000
0000
0000
,  // measure 23
1000
0001
1000
0100
0001
1000
0010
0001
,  // measure 24
0100
1000
0001
1000
0100
0001
1000
0100
,  // measure 25
0010
0001
1000
0010
0001
1000
0010
0100
,  // measure 26
0001
1000
0100
0010
1000
0010
0100
0010
,  // measure 27
0001
1000
0010
0100
0010
0100
0000
0000
,  // measure 28
0110
0000
0110
0110
0000
0000
0100
1000
,  // measure 29
0100
0010
0001
1000
0010
0100
0010
1000
,  // measure 30
0100
1000
0010
0001
1000
0100
0001
0000
,  // measure 31
1001
0000
1001
1001
0000
1001
0000
1000
,  // measure 32
0100
0010
1000
0100
0010
1000
0010
1000
,  // measure 33
0000
0010
1000
0010
1000
0100
0000
0010
,  // measure 34
0001
0010
0100
0010
0000
0000
0100
0010
,  // measure 35
0000
0000
0000
0000
1000
0100
0000
0000
,  // measure 36
0000
0010
0001
0000
0000
0000
0000
0000
,  // measure 37
0001
0010
0100
0000
1000
0100
0010
0000
,  // measure 38
0000
0001
0000
0000
0010
0100
0000
0000
,  // measure 39
0000
0000
0100
1000
0000
0000
0000
0000
,  // measure 40
0010
0001
0000
0010
0100
0000
0000
0010
,  // measure 41
0100
0000
0000
0000
1000
0100
0000
0000
,  // measure 42
0000
0000
0010
0001
0000
0000
0000
0000
,  // measure 43
0001
0010
0000
0100
1000
0000
0010
0100
,  // measure 44
0000
0000
0000
0010
0001
0000
0000
0000
,  // measure 45
0000
0000
0001
0010
0000
0100
0000
1000
,  // measure 46
0000
0100
0000
0010
0000
0000
0000
0001
,  // measure 47
0000
0010
0000
0100
1000
0100
0010
0001
,  // measure 48
0010
0100
1000
0100
0000
0010
0000
0100
,  // measure 49
0010
0100
0000
1000
0001
1000
0001
1000
,  // measure 50
0000
0010
1000
0000
1010
0000
0000
0100
,  // measure 51
0000
1000
0000
0100
0010
0001
0010
0100
,  // measure 52
1000
0100
0010
0001
0000
0010
0000
0100
,  // measure 53
0010
0100
0000
1000
0100
0001
0010
0000
,  // measure 54
0000
0001
0010
0000
0100
0010
0000
0100
,  // measure 55
0000
1000
0100
0010
0001
0010
0100
0010
,  // measure 56
0100
0000
1000
0100
0010
0001
0010
0100
,  // measure 57
0010
0001
0010
0001
0010
0001
0010
0000
,  // measure 58
0010
0100
0000
0010
0100
0010
1000
0100
,  // measure 59
0010
0001
0010
0000
0100
1000
0100
0010
,  // measure 60
0001
0000
0000
0000
0010
0000
0000
0000
0000
1000
0100
0000
0010
0000
0001
0000
0010
0000
0100
0000
0000
0000
0000
0000
1000
0000
0000
0000
0010
0000
0000
0000
,  // measure 61
0100
0010
0001
0010
1000
0100
1000
0010
,  // measure 62
0100
0010
0001
0010
1000
0100
0010
0001
,  // measure 63
0100
0010
0100
1000
0010
0100
1000
0010
,  // measure 64
1000
0001
0010
1000
0100
0001
1000
0001
,  // measure 65
0000
1000
0100
0000
0010
0001
0000
0000
,  // measure 66
0100
1000
0100
1000
0010
0100
0010
0001
,  // measure 67
0100
1000
0001
0100
1000
0001
1000
0010
,  // measure 68
1000
0001
0100
1000
0100
1000
0001
0010
,  // measure 69
1000
0000
0100
0010
0000
0100
0000
0010
,  // measure 70
0100
0010
0000
0100
0000
1000
0000
0100
,  // measure 71
0010
0001
0010
0000
0100
1000
0000
0100
,  // measure 72
0010
0001
0000
0010
0000
0000
0100
0010
,  // measure 73
0000
0000
0100
1000
0000
0100
0010
0000
,  // measure 74
0001
0010
0000
0100
0000
0010
0100
0000
,  // measure 75
0010
0100
1000
0000
0100
0000
0000
1000
,  // measure 76
0000
0001
0000
0000
1000
0000
0001
0000
,  // measure 77
0000
1000
0010
0000
0001
0100
1000
0000
,  // measure 78
0100
0010
0001
0000
0010
0000
0100
0010
,  // measure 79
0000
0100
0010
0000
0000
1000
0100
0000
,  // measure 80
0100
0000
0000
1000
0100
0000
1000
0010
,  // measure 81
0000
0001
0010
1000
0000
0000
0000
1000
,  // measure 82
0000
0001
0000
1000
0000
0001
0000
0000
,  // measure 83
1000
0000
0000
0000
0000
0000
1000
0100
0000
0000
0010
0000
0000
0001
0000
0000
0000
0000
0000
0000
1000
0000
0000
0000
0001
0000
0000
0000
1000
0000
0000
0000
,  // measure 84
0010
0100
1000
0010
0001
0010
0100
0010
,  // measure 85
0100
1000
0100
0010
0001
0010
0100
0010
,  // measure 86
0100
0010
0000
0100
1000
0100
1000
0000
,  // measure 87
0100
0001
0010
0100
0010
0100
0010
0000
,  // measure 88
1000
0100
0010
0001
0010
0100
0010
0100
,  // measure 89
0010
0100
1000
0100
0010
0000
0001
0010
,  // measure 90
0000
0100
1000
0100
0010
0001
0100
0010
,  // measure 91
0100
0000
1000
0000
0100
0001
0100
0010
,  // measure 92
0001
0010
0100
0010
0000
0100
1000
0100
,  // measure 93
1000
0000
1000
0000
0010
1000
0010
0001
,  // measure 94
0010
0100
0010
0001
0010
0001
0000
0010
,  // measure 95
0001
0000
0000
0000
0010
0000
0000
0000
0100
0000
0000
0000
0000
0000
0000
0000
0010
0000
0000
0000
0100
0000
0000
0000
0000
0000
0000
0000
0000
1000
0000
0000
,  // measure 96
0100
0010
0000
0000
0001
0010
0000
0000
0000
0000
0000
0000
1000
0000
0000
0000
0000
0000
0000
0000
0100
0000
0000
0000
0000
0000
0000
0000
0000
0000
0000
0000
,  // measure 97
0010
0001
0000
0010
0100
0010
1000
0100
,  // measure 98
0001
0010
0100
1000
0010
0100
0000
0000
,  // measure 99
1000
0000
0000
0001
0000
1000
0010
0000
,  // measure 100
0001
0000
0100
0000
0010
0100
0010
0000
,  // measure 101
0000
1000
0000
0100
0000
0000
0010
0001
,  // measure 102
0000
0000
0010
0000
0000
0100
0000
0000
,  // measure 103
0010
1000
0100
1000
0010
0100
0010
0100
,  // measure 104
0001
0010
1000
0100
0010
0000
0000
0001
,  // measure 105
0000
0000
0000
0010
0100
0000
1000
0000
,  // measure 106
0100
0000
0010
0100
0000
0010
0100
0000
,  // measure 107
0000
0001
0000
1000
0000
0000
0001
1000
,  // measure 108
0000
0000
1000
0100
0000
0000
0000
0000
,  // measure 109
0010
0001
0000
0000
0000
0000
0001
0010
,  // measure 110
0000
0000
0000
0000
0100
0010
0100
0010
,  // measure 111
0000
0000
1000
0100
0000
0000
0000
0000
,  // measure 112
0010
0001
0000
0000
0000
0000
0000
0010
,  // measure 113
0100
0000
0000
0000
1000
0100
0000
0010
,  // measure 114
0001
0010
0100
0000
0000
0000
0000
0010
,  // measure 115
0100
0000
0000
0000
0000
0000
0010
0001
,  // measure 116
0010
0000
0100
0010
0000
0001
0000
0010
,  // measure 117
0000
0000
0001
0000
0010
0100
0000
0000
,  // measure 118
1000
0000
0100
0000
1000
0000
0100
1000
,  // measure 119
0000
0000
0010
1000
0000
0000
0001
0000
,  // measure 120
0000
0010
0000
0000
0100
0000
1000
0100
,  // measure 121
1000
0100
0010
0001
0000
0010
0000
0000
,  // measure 122
0100
1000
0010
0100
0010
0000
0001
0010
,  // measure 123
0100
0010
0100
1000
,  // measure 124
0100
0000
0010
0001
0000
0000
0010
0000
,  // measure 125
0100
0010
0000
0100
1000
0000
0100
0010
,  // measure 126
0000
0001
0000
0010
0100
1000
0010
0100
,  // measure 127
1000
0100
0001
0010
1000
0100
0010
1000
,  // measure 128
0010
0100
0010
0000
0001
0010
0000
0100
,  // measure 129
0000
1000
0000
0100
1000
0000
0000
0100
,  // measure 130
1000
0000
0000
0010
0000
0001
0000
0010
,  // measure 131
0001
0100
1000
0010
0100
0010
0000
0001
,  // measure 132
0010
0000
0100
0000
0010
0100
0000
0010
,  // measure 133
0000
0000
1000
0100
1000
0100
0000
0000
,  // measure 134
0010
1000
0010
0000
0001
0000
1000
0001
,  // measure 135
0000
1000
0000
0010
0000
0001
0000
0010
,  // measure 136
0000
0100
0000
0010
0100
0000
0000
1000
,  // measure 137
0100
0010
0100
0001
0010
0001
0100
1000
,  // measure 138
0100
0000
0000
0010
0001
0000
0010
0001
,  // measure 139
0000
0010
0000
0100
0010
0000
0100
0000
,  // measure 140
1000
0100
0000
0100
1000
0000
0100
1000
,  // measure 141
0000
0010
0000
1000
0000
0001
0000
1000
,  // measure 142
0000
0000
0000
0000
0001
0000
0000
0000
0010
0000
0000
0000
0000
1000
0100
0010
,  // measure 143
0000
0001
0010
0100
1000
0000
1000
0000
0100
0000
0010
0001
0010
0100
0010
0100
,  // measure 144
0010
0100
1000
0000
0100
0000
0010
0001
0010
0000
0001
0010
0100
1000
0100
0000
,  // measure 145
1000
0100
0000
1000
0100
0000
1000
0000
0010
0000
1000
0010
0001
0000
0100
0010
,  // measure 146
0001
0010
0100
0000
0010
0000
0100
0010
0100
1000
0100
1000
0100
0000
1000
0000
,  // measure 147
0010
0001
0000
0010
0001
0000
0010
0000
0100
0000
0010
0100
1000
0100
0010
0001
,  // measure 148
0010
0100
0010
0000
0100
0000
0010
0100
1000
0000
0001
1000
0001
1000
0010
0000
,  // measure 149
1000
0100
0000
1100
0000
0000
0010
0000
0001
0000
0010
0100
1000
0100
0010
0001
,  // measure 150
0010
0100
0010
0000
0100
0000
0010
0100
1000
0000
0100
0000
0010
0001
1000
0100
,  // measure 151
0010
0000
0000
0001
0000
0010
0000
0000
2002
0000
0000
0000
0000
0000
3003
0000
0000
0000
0000
0000
0000
0000
0000
0000
0000
0000
0000
0000
0000
0000
0000
0000
;
