#TITLE:Reach Out to the Truth;
#SUBTITLE:;
#ARTIST:Unknown artist;
#TITLETRANSLIT:;
#SUBTITLETRANSLIT:;
#ARTISTTRANSLIT:;
#GENRE:;
#CREDIT:;
#BANNER:banner1.png;
#BACKGROUND:302786.jpg;
#LYRICSPATH:;
#CDTITLE:;
#MUSIC:Persona 4 Arena BGM_ Reach Out to the Truth.mp3;
#OFFSET:0.000000;
#SAMPLESTART:99.971581;
#SAMPLELENGTH:12.000000;
#SELECTABLE:YES;
#BPMS:0.000000=169.000000
;
#STOPS:
;
#BGCHANGES:;
#KEYSOUNDS:;
#ATTACKS:;

//---------------dance-single - ----------------
#NOTES:
     dance-single:
     :
     Hard:
     7:
     0.560475,0.762373,0.395575,0.752241,0.000000,605.000000,544.000000,61.000000,116.000000,0.000000,4.000000,0.560475,0.762373,0.395575,0.752241,0.000000,605.000000,544.000000,61.000000,116.000000,0.000000,4.000000:
// measure 0
0000
0000
0000
0110
1001
0000
0000
2020
,  // measure 1
0000
3030
0100
0000
0000
0010
0000
0200
,  // measure 2
0000
0320
0000
0000
0030
0001
1000
0001
,  // measure 3
0000
0000
1000
0010
0000
0002
0000
0000
,  // measure 4
0013
0000
0100
0000
1000
0000
1000
0100
,  // measure 5
0000
0010
0000
0000
0010
0001
0100
0000
,  // measure 6
0100
0010
1000
0000
0010
0000
0001
0000
,  // measure 7
0010
0100
1000
0010
0000
0011
0000
0001
,  // measure 8
0010
0100
1000
0100
0010
0100
1001
0000
,  // measure 9
0100
0010
0001
0010
0100
0000
0110
1001
,  // measure 10
0000
0220
0000
0000
0000
0330
1000
0000
,  // measure 11
0010
0001
0010
0100
1000
0100
0010
0000
,  // measure 12
0011
0100
0010
0001
0010
0100
1000
0000
,  // measure 13
1100
0010
0100
1000
0100
1001
0000
1010
,  // measure 14
0000
0022
0000
0033
0000
1100
0000
1000
,  // measure 15
0010
1000
0010
0000
0001
0000
0010
0001
,  // measure 16
0010
0001
0010
0000
0001
0000
0100
1000
,  // measure 17
0100
0001
0010
0000
1000
0000
0000
1000
,  // measure 18
0000
0100
0010
0001
0010
0000
1000
0000
,  // measure 19
0100
0010
0001
0100
1000
0000
0100
0010
,  // measure 20
0001
0010
0100
0001
0010
0000
0100
0000
,  // measure 21
1000
0100
0000
0010
1000
0000
0001
0010
,  // measure 22
0100
1000
0100
0001
0010
0000
1001
1000
,  // measure 23
0100
0010
0001
0010
0100
1000
0000
0100
,  // measure 24
0010
0001
0100
0010
0001
0010
0000
1000
,  // measure 25
0100
0010
0100
1100
0000
1001
1010
0000
,  // measure 26
0022
0000
0000
0000
0033
0101
0000
1000
,  // measure 27
0100
0001
0010
0100
1000
0100
0000
0010
,  // measure 28
0001
0010
1000
0100
0010
0100
0010
1000
,  // measure 29
0010
0001
0010
0100
0010
0100
0010
0100
,  // measure 30
0010
0100
2001
0000
3000
2010
0000
3000
,  // measure 31
0022
0000
0033
0101
0000
2200
0000
0300
,  // measure 32
0020
0000
3000
0032
0000
0103
2000
0000
,  // measure 33
3010
0000
0002
0000
0203
0000
0000
2300
,  // measure 34
0000
3100
0000
0002
0000
0013
2000
0000
,  // measure 35
3020
0000
0030
0001
0010
0100
0000
2000
,  // measure 36
0000
3200
0000
0320
0000
0032
0000
0000
,  // measure 37
0000
0023
0000
0000
1030
0200
0000
0000
,  // measure 38
0300
0000
0000
0001
1000
0002
0000
0013
,  // measure 39
2000
0000
0000
3010
0001
0200
0000
1300
,  // measure 40
0200
0000
0000
0301
0010
2000
0000
3010
,  // measure 41
0002
0000
0013
0000
0002
0000
0000
0013
,  // measure 42
0000
2000
0000
3020
0000
0031
0200
0000
,  // measure 43
2300
0000
0000
3100
0010
0002
0000
0023
,  // measure 44
0030
1000
0020
0000
2030
0000
3000
0010
,  // measure 45
0001
0010
0100
0010
0100
0020
0030
1000
,  // measure 46
0100
0000
0001
1000
0002
0000
0000
1003
,  // measure 47
0020
0000
0030
1000
1000
0020
0000
0031
,  // measure 48
0200
0000
0300
1000
1000
0200
0000
0310
,  // measure 49
0002
0000
0013
0000
0002
0000
0000
0013
,  // measure 50
0200
0000
2300
0000
0000
3120
0000
0032
,  // measure 51
0000
0000
0000
0103
0020
0000
0032
0000
,  // measure 52
0020
0003
1030
0200
0000
0000
0000
0300
,  // measure 53
0002
0000
0000
0010
0003
2000
0000
0000
,  // measure 54
0000
0000
0000
3012
0000
0010
0010
0010
,  // measure 55
0000
0000
1003
0100
0100
0000
0010
0002
,  // measure 56
0000
0000
0010
0010
2003
0000
0100
0100
,  // measure 57
0000
0010
0000
0002
0000
0003
0010
0000
,  // measure 58
3002
0000
0103
0000
1000
0020
0000
0032
,  // measure 59
0000
0000
0010
0010
1000
0000
0100
0000
,  // measure 60
0010
0100
0000
2000
0003
0010
3001
0100
,  // measure 61
1000
0100
0001
0010
2000
0000
3010
0002
,  // measure 62
0000
0103
1000
0100
0000
0010
0001
0010
,  // measure 63
0100
1000
0100
1001
0000
1000
0010
0001
,  // measure 64
0010
1000
0100
0011
0000
0010
0001
0100
,  // measure 65
1000
0100
0010
1001
0000
1010
0000
0022
,  // measure 66
0000
0033
0000
1100
0000
0100
0001
0010
,  // measure 67
0100
1000
0101
0000
0000
1000
0010
0001
,  // measure 68
0010
0100
1000
0101
0000
0010
0001
0100
,  // measure 69
1000
0100
1000
0010
0001
0000
2000
0000
,  // measure 70
0000
3000
1000
0000
0100
0010
0001
0010
,  // measure 71
0000
0001
0000
0010
0100
1000
0100
0010
,  // measure 72
0000
0100
0000
0001
0000
1000
0010
0001
,  // measure 73
0100
1000
0000
0000
0001
0000
1000
0010
,  // measure 74
0001
0010
0000
1000
0000
0100
0010
0100
,  // measure 75
1000
0100
0000
0001
0010
0100
0010
0001
,  // measure 76
0010
0100
0000
1000
0100
0010
0100
1000
,  // measure 77
0100
0010
0001
0010
0000
0100
0020
0000
,  // measure 78
0000
0030
0000
1001
0000
1000
0001
0100
,  // measure 79
1000
0100
0001
0000
0010
1000
1000
0000
,  // measure 80
0010
0001
0100
0000
0001
0010
1000
0100
,  // measure 81
1000
0010
0001
1000
1010
0000
0022
0000
,  // measure 82
0000
0033
1000
0000
0100
0010
0001
0010
,  // measure 83
0100
1000
0100
0010
0100
1000
0100
0010
,  // measure 84
0100
1000
0001
0000
0010
0100
0010
0001
,  // measure 85
0010
0100
0000
0010
0100
0010
0100
1001
,  // measure 86
0000
1000
0000
0020
0000
0000
2030
0000
,  // measure 87
0000
3100
0000
0002
0000
0000
0010
0020
,  // measure 88
0003
2030
0000
0010
0010
0000
0002
3203
,  // measure 89
0000
0320
0000
0000
0000
1000
0000
1030
,  // measure 90
0200
0000
0301
0020
0000
0032
0000
0000
,  // measure 91
0100
1003
0020
0000
0032
0000
0000
2003
,  // measure 92
0000
3200
0300
0020
0000
0000
0032
0000
,  // measure 93
0000
0000
0013
2000
0000
0000
0000
0000
,  // measure 94
0100
3010
0001
0000
0100
0020
0000
0000
,  // measure 95
1030
0100
0100
0000
0100
0001
0200
0000
,  // measure 96
0301
0010
2000
0000
3000
0012
0000
0020
,  // measure 97
0003
2030
0000
0000
3100
0000
0010
0000
,  // measure 98
0002
0000
0000
2013
0000
3020
0000
0000
,  // measure 99
0031
0100
2000
0000
3200
0000
0301
0020
,  // measure 100
0000
0032
0000
0010
1003
0100
0010
0001
,  // measure 101
0010
0100
1000
0000
0100
0010
0000
0000
,  // measure 102
0001
0010
0001
0010
0011
0011
0000
0000
,  // measure 103
1100
1100
1100
0000
1100
1100
0000
0000
,  // measure 104
1010
1010
1010
0000
1010
1010
0000
0011
,  // measure 105
0000
0202
0000
0303
1100
0000
1010
0000
,  // measure 106
0011
0000
0011
0011
0000
0202
0000
0303
;
