#VERSION:0.83;
#TITLE:REBELLIUM;
#SUBTITLE:;
#ARTIST:Unknown artist;
#TITLETRANSLIT:;
#SUBTITLETRANSLIT:;
#ARTISTTRANSLIT:;
#GENRE:;
#ORIGIN:;
#CREDIT:;
#BANNER:banner.png;
#BACKGROUND:Rebellium.jpg;
#PREVIEWVID:;
#JACKET:;
#CDIMAGE:;
#DISCIMAGE:;
#LYRICSPATH:;
#CDTITLE:;
#MUSIC:VOEZ - REBELLIUM.mp3;
#OFFSET:0.000000;
#SAMPLESTART:99.971581;
#SAMPLELENGTH:12.000000;
#SELECTABLE:YES;
#BPMS:0.000=200.000;
#STOPS:;
#DELAYS:;
#WARPS:;
#TIMESIGNATURES:0.000=4=4;
#TICKCOUNTS:0.000=4;
#COMBOS:0.000=1;
#SPEEDS:0.000=1.000=0.000=0;
#SCROLLS:0.000=1.000;
#FAKES:;
#LABELS:0.000=Song Start;
#BGCHANGES:;
#KEYSOUNDS:;
#ATTACKS:
;

//---------------dance-single - ----------------
#NOTEDATA:;
#CHARTNAME:;
#STEPSTYPE:dance-single;
#DESCRIPTION:;
#CHARTSTYLE:;
#DIFFICULTY:Hard;
#METER:9;
#RADARVALUES:0.856420,1.140218,1.163197,0.081342,0.000000,737.000000,594.000000,143.000000,10.000000,0.000000,0.000000,4.000000,0.000000,0.000000,0.856420,1.140218,1.163197,0.081342,0.000000,737.000000,594.000000,143.000000,10.000000,0.000000,0.000000,4.000000,0.000000,0.000000;
#CREDIT:;
#NOTES:
// measure 0
0000
0000
0000
0000
,  // measure 1
0000
0000
0000
0000
,  // measure 2
0000
0000
0000
0000
0000
1001
0000
1001
,  // measure 3
1001
0000
0000
0000
0000
0000
1001
1001
,  // measure 4
1001
0000
0000
0000
0000
0000
0000
1001
,  // measure 5
1001
0000
0000
0000
0000
1001
1001
1001
,  // measure 6
0000
0000
0000
0000
0000
0000
0000
1001
,  // measure 7
1001
0000
0000
0000
0000
1001
1001
1001
,  // measure 8
0000
0000
0000
0000
0000
0000
1001
1001
,  // measure 9
0000
0000
0000
0000
0000
1001
1001
1001
,  // measure 10
0000
0000
0000
0000
0000
0000
0000
1001
,  // measure 11
1000
0001
1000
0100
0010
0001
0010
0100
,  // measure 12
1000
0100
0010
0001
0010
0100
1000
0100
,  // measure 13
0010
0001
0010
0100
0001
0010
0100
1000
,  // measure 14
0100
0010
0100
1000
0100
0010
0001
0010
,  // measure 15
0100
0010
0001
0010
0100
1000
0100
0010
,  // measure 16
0100
1000
0100
0010
0100
1000
0100
0010
,  // measure 17
0001
0010
0100
0010
0001
0010
0100
1000
,  // measure 18
0100
0010
0100
0020
0000
0000
0000
0000
,  // measure 19
0000
0000
0000
2000
0030
0000
0000
0000
,  // measure 20
0200
0000
3000
0320
0000
0000
0032
0000
,  // measure 21
0013
0000
4004
0000
,  // measure 22
0000
3003
0000
0100
0000
1000
0010
0001
,  // measure 23
0010
0100
1000
0010
0001
0010
0100
1000
,  // measure 24
0100
0010
0001
0010
0100
1000
0010
0100
,  // measure 25
1000
0100
0010
0001
0010
0100
0010
0001
,  // measure 26
0010
0100
0010
0100
0010
0100
0010
1000
,  // measure 27
0001
1000
0001
1000
0100
1000
0100
1000
,  // measure 28
0010
1000
0010
1000
1000
0010
0001
0100
,  // measure 29
1000
0001
0010
0001
0010
0001
0100
0001
,  // measure 30
0010
1000
0100
0001
0100
1000
0010
0001
,  // measure 31
0100
1000
0100
0001
1000
0100
1000
0010
,  // measure 32
0001
0100
1000
0100
0001
0010
1000
0100
,  // measure 33
1000
0010
0001
0100
1000
0010
0001
0100
,  // measure 34
1000
0010
0001
0100
0001
0010
1000
0100
,  // measure 35
0001
1000
0100
0001
0010
1000
0100
1000
,  // measure 36
0010
0001
0100
1000
0010
0001
0100
1000
,  // measure 37
0001
0100
1000
0010
0001
0010
1000
0100
,  // measure 38
0001
0010
1000
1100
1100
0000
1010
1010
,  // measure 39
0000
1010
1010
0000
1010
1010
0000
1001
,  // measure 40
0000
1001
0000
1001
1001
0000
1001
1001
,  // measure 41
0000
1001
1001
0000
1001
1001
0000
1001
,  // measure 42
0000
1001
0000
1001
1001
0000
1001
1001
,  // measure 43
0000
1001
1001
0000
1001
1001
0000
1001
,  // measure 44
0000
1001
0000
1001
1001
0000
1001
1001
,  // measure 45
0000
1001
1001
0000
1001
1001
0000
1001
,  // measure 46
0000
1001
1100
1100
0000
1100
1100
0000
,  // measure 47
0000
1100
1100
0000
1100
1100
0000
1010
,  // measure 48
0000
0011
0000
0011
0011
0000
0011
0011
,  // measure 49
0000
0011
0011
0000
0011
0000
0101
0000
,  // measure 50
0000
1100
0000
1100
0000
0000
1100
1100
,  // measure 51
0000
1100
1100
0000
1100
1100
0000
1010
,  // measure 52
0000
0101
0000
0101
0101
0000
0101
0101
,  // measure 53
0000
0011
0011
0000
1010
1010
1100
1100
,  // measure 54
0000
1100
1100
0000
1010
0000
2000
0000
,  // measure 55
0000
0010
0010
0000
0001
3000
0010
0000
,  // measure 56
0000
0000
1000
0100
0010
0001
0010
0100
,  // measure 57
1000
0010
0001
0010
0100
1000
0010
0001
,  // measure 58
0010
0100
1000
0010
0001
0010
0100
0001
,  // measure 59
0010
0100
1000
0010
0100
1000
0010
0100
,  // measure 60
1000
0100
0010
0100
0001
0010
0100
0010
,  // measure 61
0100
0010
1000
0001
1000
0001
1000
0001
,  // measure 62
1000
0100
0001
0010
1000
0010
0001
0100
,  // measure 63
1000
0100
0001
0100
0010
0001
0010
0001
,  // measure 64
0010
0001
0001
0010
0100
0001
0010
0100
,  // measure 65
0001
0010
0001
0010
0100
1000
0010
0100
,  // measure 66
0010
0000
0100
1000
0100
1000
0010
0100
,  // measure 67
1000
0010
0100
1000
0010
0100
1000
0040
,  // measure 68
4000
0000
3030
0100
0010
0001
0010
0100
,  // measure 69
0010
0001
0010
0100
0010
0001
0010
0100
,  // measure 70
0010
0001
0010
0110
0110
0110
0110
0110
,  // measure 71
0110
0110
0110
0110
0110
2002
0000
0000
,  // measure 72
0000
3003
0001
0010
1000
0010
0001
0100
,  // measure 73
1000
0100
0001
1000
0100
1000
0010
0001
,  // measure 74
0100
1000
0001
0010
1000
0100
1000
0010
,  // measure 75
0101
1000
0100
0001
0010
0100
1000
0001
,  // measure 76
0010
0100
1000
0001
0010
0100
1000
0001
,  // measure 77
0010
0100
1000
0001
0010
0100
1000
0001
,  // measure 78
0010
0100
1000
0010
1000
0001
0010
0100
,  // measure 79
0001
0010
0001
0010
0001
0010
0100
0010
,  // measure 80
0100
0010
0100
0010
1000
0010
0100
0010
,  // measure 81
0100
0010
0100
1000
0010
1000
0010
1000
,  // measure 82
0010
0001
0010
0001
1000
0100
0001
1000
,  // measure 83
0001
0100
0010
0001
0010
1000
0100
0010
,  // measure 84
0001
0010
0100
0001
0010
0100
0001
0001
,  // measure 85
0010
0100
0010
0001
0010
0100
1000
0010
,  // measure 86
0100
1000
0010
1000
0010
0100
1000
0010
,  // measure 87
0100
1000
0100
1000
0010
0001
0010
0100
,  // measure 88
0001
0100
0001
0010
0001
0010
0100
0001
,  // measure 89
0010
0001
0010
0100
0001
0010
0100
0001
,  // measure 90
0100
0001
0010
1001
1001
0000
0000
0110
,  // measure 91
0110
0000
1010
1010
0000
1001
1001
0000
,  // measure 92
1001
1001
0000
1001
1001
0000
1001
1001
,  // measure 93
0000
1001
1001
0000
1001
1001
0000
1001
,  // measure 94
1001
0000
1001
1001
0000
1001
1001
0000
,  // measure 95
1001
1001
2002
0000
0000
0000
0000
0000
,  // measure 96
0000
0000
0000
0000
,  // measure 97
0000
0000
0000
0000
,  // measure 98
0000
0000
0000
0000
,  // measure 99
0000
0000
0000
0000
,  // measure 100
0000
3003
0000
0000
0000
0000
0000
0000
;
