#VERSION:0.83;
#TITLE:Purification Chamber;
#SUBTITLE:;
#ARTIST:Unknown artist;
#TITLETRANSLIT:;
#SUBTITLETRANSLIT:;
#ARTISTTRANSLIT:;
#GENRE:;
#ORIGIN:;
#CREDIT:;
#BANNER:banner.png;
#BACKGROUND:wp2863681.jpg;
#PREVIEWVID:;
#JACKET:;
#CDIMAGE:;
#DISCIMAGE:;
#LYRICSPATH:;
#CDTITLE:;
#MUSIC:Pokémon XD_ Gale of Darkness - Purification Chamber.mp3;
#OFFSET:0.000000;
#SAMPLESTART:-0.028420;
#SAMPLELENGTH:12.000000;
#SELECTABLE:YES;
#BPMS:0.000=130.000;
#STOPS:;
#DELAYS:;
#WARPS:;
#TIMESIGNATURES:0.000=4=4;
#TICKCOUNTS:0.000=4;
#COMBOS:0.000=1;
#SPEEDS:0.000=1.000=0.000=0;
#SCROLLS:0.000=1.000;
#FAKES:;
#LABELS:0.000=Song Start;
#BGCHANGES:;
#KEYSOUNDS:;
#ATTACKS:
;

//---------------dance-single - ----------------
#NOTEDATA:;
#CHARTNAME:;
#STEPSTYPE:dance-single;
#DESCRIPTION:;
#CHARTSTYLE:;
#DIFFICULTY:Hard;
#METER:5;
#RADARVALUES:0.507275,0.464727,0.106528,0.153873,0.000000,300.000000,291.000000,9.000000,13.000000,0.000000,0.000000,0.000000,0.000000,0.000000,0.507275,0.464727,0.106528,0.153873,0.000000,300.000000,291.000000,9.000000,13.000000,0.000000,0.000000,0.000000,0.000000,0.000000;
#CREDIT:;
#NOTES:
// measure 0
0000
0100
1000
0100
0001
0010
0100
1000
,  // measure 1
0000
0100
0010
0100
0010
0100
0000
0000
,  // measure 2
0000
1000
0100
0010
0001
0010
1000
0100
,  // measure 3
0000
0010
0010
0001
0001
0011
0000
0000
,  // measure 4
0000
0100
0100
1000
0010
0001
0020
0000
,  // measure 5
0030
0100
1000
1000
0010
0020
0000
0000
,  // measure 6
0030
0001
0001
0100
0010
1200
0000
0000
,  // measure 7
0300
0000
0010
0100
1000
0102
0000
0000
,  // measure 8
0003
0000
1000
0010
0001
0010
1000
0100
,  // measure 9
0010
0001
0100
0010
0001
0100
2000
0000
,  // measure 10
0000
3100
0010
0001
0010
1000
0010
0001
,  // measure 11
0010
1000
0100
0010
0001
0001
0010
0100
,  // measure 12
0010
1000
0100
0010
0001
0001
0010
0100
,  // measure 13
1000
0010
1000
0100
0001
0010
0100
0001
,  // measure 14
0010
0100
0010
0100
1000
0100
0010
0001
,  // measure 15
0000
0010
0100
0100
1010
0001
0000
0000
,  // measure 16
0000
0001
0010
1000
0010
0001
0010
0110
,  // measure 17
0100
1000
0001
0001
1000
1000
0000
0000
,  // measure 18
0000
0010
0100
0010
0011
0100
2000
0000
,  // measure 19
3000
0100
0100
0010
0001
0010
0001
0000
,  // measure 20
0000
0100
0100
1000
0010
0010
0200
0000
,  // measure 21
0300
1000
1000
0001
1000
0001
0200
0000
,  // measure 22
0300
0000
1000
0100
0001
1000
0100
0001
,  // measure 23
0010
0100
1000
0010
0001
0100
1000
0010
,  // measure 24
0001
0010
1000
0100
0010
0001
0100
1000
,  // measure 25
0010
0100
1000
0010
0100
0001
0010
0100
,  // measure 26
0001
0001
0010
1000
0100
0001
0010
0001
,  // measure 27
0100
1000
0010
0001
0010
1000
0010
0001
,  // measure 28
0010
1000
0100
1000
0010
0001
0100
0010
,  // measure 29
0100
1000
0100
0100
0011
2000
0000
3000
,  // measure 30
0000
0100
1000
0001
1000
0100
0001
0000
,  // measure 31
0010
0100
0010
0010
1100
0010
0010
0000
,  // measure 32
0000
0001
0001
0010
0100
0001
0020
0000
,  // measure 33
0030
0000
1000
1000
0001
0100
0020
0000
,  // measure 34
0030
0000
0001
0001
0010
1000
0200
0000
,  // measure 35
0300
0000
1000
1000
0001
0010
0200
0000
,  // measure 36
0300
0000
1000
0010
0001
0100
1000
0100
,  // measure 37
0010
0001
0100
1000
0010
0001
0100
0001
,  // measure 38
0100
1000
0010
0100
1000
0010
0001
0010
,  // measure 39
0100
0001
0010
0100
1000
0010
0001
0100
,  // measure 40
0010
0001
0100
1000
0010
1000
0100
0010
,  // measure 41
0001
0100
0001
0010
1000
0001
0010
1000
,  // measure 42
0001
0010
0100
1000
0001
0100
0010
0000
,  // measure 43
0100
1000
0100
0100
0011
0010
0000
0000
;
