#VERSION:0.83;
#TITLE:OwO What's Dis????!!??;
#SUBTITLE:;
#ARTIST:Unknown artist;
#TITLETRANSLIT:;
#SUBTITLETRANSLIT:;
#ARTISTTRANSLIT:;
#GENRE:;
#ORIGIN:;
#CREDIT:;
#BANNER:banner.png;
#BACKGROUND:nfs4owvc7moy.jpg;
#PREVIEWVID:;
#JACKET:;
#CDIMAGE:;
#DISCIMAGE:;
#LYRICSPATH:;
#CDTITLE:;
#MUSIC:Bolgy Wolgy OwO What's This Notices Animation Meme (Flipaclip).mp3;
#OFFSET:0.000000;
#SAMPLESTART:-0.028420;
#SAMPLELENGTH:12.000000;
#SELECTABLE:YES;
#BPMS:0.000=185.000;
#STOPS:;
#DELAYS:;
#WARPS:;
#TIMESIGNATURES:0.000=4=4;
#TICKCOUNTS:0.000=4;
#COMBOS:0.000=1;
#SPEEDS:0.000=1.000=0.000=0;
#SCROLLS:0.000=1.000;
#FAKES:;
#LABELS:0.000=Song Start;
#BGCHANGES:0.021=Bolgy Wolgy OwO Whats This Notices Animation Meme (Flipaclip).mp4=1.000=0=0=1=====,
99999=-nosongbg-=1.000=0=0=0 // don't automatically add -songbackground-
;
#KEYSOUNDS:;
#ATTACKS:
;

//---------------dance-single - ----------------
#NOTEDATA:;
#CHARTNAME:;
#STEPSTYPE:dance-single;
#DESCRIPTION:;
#CHARTSTYLE:;
#DIFFICULTY:Hard;
#METER:3;
#RADARVALUES:0.573564,0.598408,0.111526,0.055763,0.000000,144.000000,140.000000,4.000000,2.000000,0.000000,0.000000,0.000000,0.000000,0.000000,0.573564,0.598408,0.111526,0.055763,0.000000,144.000000,140.000000,4.000000,2.000000,0.000000,0.000000,0.000000,0.000000,0.000000;
#CREDIT:;
#NOTES:
// measure 0
0000
0000
0000
1001
0000
1001
2002
0000
,  // measure 1
0000
0000
0000
3003
1001
0000
0000
0000
,  // measure 2
0000
1000
0100
0010
0001
0100
0010
0100
,  // measure 3
0010
0001
0010
0100
0010
1000
0100
0010
,  // measure 4
0100
0000
0000
0000
0000
0001
0010
0100
,  // measure 5
1000
0010
0001
0010
0100
1000
0000
0100
,  // measure 6
0010
0100
1000
0000
0100
0000
0000
0000
,  // measure 7
0000
0001
0010
0001
0100
0010
0100
0010
,  // measure 8
0100
0000
1000
0100
1000
0100
1000
0100
,  // measure 9
0010
1000
0000
0000
0010
0001
0010
0100
,  // measure 10
0010
1000
0100
0010
0100
0100
0100
0000
,  // measure 11
1000
1000
1000
0010
0010
0000
0010
0001
,  // measure 12
0010
0100
0010
0001
0010
0100
1000
0010
,  // measure 13
0100
0010
0100
0010
0100
0000
0010
0100
,  // measure 14
0010
0000
1000
0001
1000
0001
1000
0100
,  // measure 15
0010
0100
0001
0010
0100
0010
0001
0100
,  // measure 16
0010
0100
0010
0100
0010
1000
0000
1000
,  // measure 17
1000
0001
0001
0001
0010
0000
0000
0000
,  // measure 18
0000
0001
0000
0010
0100
1000
0100
0010
,  // measure 19
0000
0001
0010
0001
0100
0010
0100
0010
,  // measure 20
0000
0010
0000
0000
0000
0100
1000
0100
,  // measure 21
0010
0001
0010
0100
0010
0000
0000
0001
,  // measure 22
0000
0000
0000
1000
0000
0000
0000
0000
,  // measure 23
1000
0000
0000
0100
,  // measure 24
0000
0000
0000
0010
0000
0010
0000
0000
,  // measure 25
0001
0001
0000
0000
;
