#VERSION:0.83;
#TITLE:Out There Somewhere;
#SUBTITLE:;
#ARTIST:Unknown artist;
#TITLETRANSLIT:;
#SUBTITLETRANSLIT:;
#ARTISTTRANSLIT:;
#GENRE:;
#ORIGIN:;
#CREDIT:;
#BANNER:abanner.png;
#BACKGROUND:maxresdefault-6.jpg;
#PREVIEWVID:;
#JACKET:;
#CDIMAGE:;
#DISCIMAGE:;
#LYRICSPATH:;
#CDTITLE:;
#MUSIC:【ゆめにっき】Behind There Somewhere.mp3;
#OFFSET:0.000000;
#SAMPLESTART:99.971581;
#SAMPLELENGTH:12.000000;
#SELECTABLE:YES;
#BPMS:0.000=200.000,
110.000=155.000,
138.000=200.000,
174.000=155.000,
189.000=200.000,
198.000=155.000,
205.000=200.000,
210.000=155.000,
213.000=200.000,
216.000=155.000,
218.000=200.000,
437.000=155.000,
465.000=200.000,
501.500=155.000,
516.000=200.000,
525.000=155.000,
532.000=200.000,
537.000=155.000,
540.500=200.000,
543.000=155.000,
545.000=200.000;
#STOPS:;
#DELAYS:;
#WARPS:;
#TIMESIGNATURES:0.000=4=4;
#TICKCOUNTS:0.000=4;
#COMBOS:0.000=1;
#SPEEDS:0.000=1.000=0.000=0;
#SCROLLS:0.000=1.000;
#FAKES:;
#LABELS:0.000=Song Start;
#BGCHANGES:0.021=【ゆめにっき】Behind There Somewhere.mp4=1.000=0=0=1=====,
99999=-nosongbg-=1.000=0=0=0 // don't automatically add -songbackground-
;
#KEYSOUNDS:;
#ATTACKS:
;

//---------------dance-single - ----------------
#NOTEDATA:;
#CHARTNAME:;
#STEPSTYPE:dance-single;
#DESCRIPTION:;
#CHARTSTYLE:;
#DIFFICULTY:Hard;
#METER:8;
#RADARVALUES:0.624430,0.715753,0.310827,0.281687,0.000000,900.000000,836.000000,64.000000,58.000000,0.000000,0.000000,0.000000,0.000000,0.000000,0.624430,0.715753,0.310827,0.281687,0.000000,900.000000,836.000000,64.000000,58.000000,0.000000,0.000000,0.000000,0.000000,0.000000;
#CREDIT:;
#NOTES:
// measure 0
0000
1000
1000
1000
0000
0000
0100
1000
,  // measure 1
0010
0001
0010
0100
0100
0100
0000
0020
,  // measure 2
0000
0030
0000
0001
0001
0001
0000
0000
,  // measure 3
1000
0100
0001
0010
0100
0001
0001
0001
,  // measure 4
0000
0000
0002
0000
0000
0003
1000
0100
,  // measure 5
0010
0100
0001
0010
1000
0100
1000
0010
,  // measure 6
0100
0010
0100
0001
0010
0000
0000
0000
,  // measure 7
0010
0001
0010
0100
1000
0100
0000
0010
,  // measure 8
0001
0000
0000
0010
0100
0010
0002
0000
,  // measure 9
0000
0003
0000
1000
1000
1000
0100
0010
,  // measure 10
0000
0001
0100
0010
0000
0001
0001
0001
,  // measure 11
0010
0000
0000
0000
0000
1000
0100
0010
,  // measure 12
0001
0100
0010
0000
0100
0010
0000
0001
,  // measure 13
0010
0100
0000
1000
0000
0000
0000
0010
,  // measure 14
0010
0010
0000
0100
1000
0010
0001
0010
,  // measure 15
0010
0010
0010
0000
0000
0200
0000
0000
,  // measure 16
0300
1000
1000
1000
0000
0000
0100
0010
,  // measure 17
0001
0010
0100
1000
1000
1000
0000
0200
,  // measure 18
0000
0000
0300
0000
0001
0010
0000
0100
,  // measure 19
1000
0100
0010
0001
0000
1000
0001
0001
,  // measure 20
1000
0000
0001
0000
0000
0000
1000
0001
,  // measure 21
0001
0000
0001
1000
1000
0000
0000
1000
,  // measure 22
0001
1000
0001
1000
0001
0000
0000
0000
,  // measure 23
0001
1000
1000
0000
1000
0001
0001
1000
,  // measure 24
0000
0000
1000
0100
0010
0001
0020
0000
,  // measure 25
0000
0030
1000
0001
1001
0000
0000
1000
,  // measure 26
0001
1001
0000
0000
1000
0001
1000
0001
,  // measure 27
1000
0000
0000
0000
0000
1000
0100
0010
,  // measure 28
0001
0010
0100
0010
0000
0000
0001
0010
,  // measure 29
0100
0010
0000
1000
0100
0010
0001
0010
,  // measure 30
0100
1000
0000
0000
1100
0010
0000
0001
,  // measure 31
0000
1000
0100
0010
0001
0010
0100
0010
,  // measure 32
0000
0000
0001
0010
0100
1000
0000
0100
,  // measure 33
0000
0010
0001
0010
0100
0010
0001
0000
,  // measure 34
0010
0100
1000
0100
0000
1000
1000
1000
,  // measure 35
0000
0010
0100
1000
0100
0010
0000
1000
,  // measure 36
0100
0010
0000
0000
0002
0000
0000
0003
,  // measure 37
0010
0010
0010
0000
0010
0100
0010
0100
,  // measure 38
0010
0000
0100
0100
0100
0000
2000
0000
,  // measure 39
0000
3000
1000
0100
0000
0010
0001
0010
,  // measure 40
0000
0001
0010
0000
1000
0100
1000
0100
,  // measure 41
0020
0000
0000
0030
0000
0001
0010
0100
,  // measure 42
1000
0100
0000
0010
0000
0001
0001
0010
,  // measure 43
0100
1000
0010
0200
0000
0300
1000
0000
,  // measure 44
0100
0010
0001
0010
0100
0010
0000
0001
,  // measure 45
0010
0100
0000
1000
1000
0000
0100
0010
,  // measure 46
0100
1000
0100
0010
0000
0001
0010
0100
,  // measure 47
0000
0010
0000
0001
0010
0100
1000
0100
,  // measure 48
0000
0000
0010
0100
0000
1000
0100
0010
,  // measure 49
0000
0001
0000
0000
0000
0001
0000
0010
,  // measure 50
0100
0001
0010
0100
0000
0100
1000
0010
,  // measure 51
0000
0100
0000
1000
1000
0100
0010
0001
,  // measure 52
0010
0000
0100
0010
0100
0001
0100
0010
,  // measure 53
0100
0000
0100
0000
1000
0100
0010
0001
,  // measure 54
0010
0000
0100
1000
0100
0000
0010
0001
,  // measure 55
0100
0001
0010
0000
0000
1000
0100
1000
,  // measure 56
0100
0000
1000
0000
0000
0000
1001
1001
,  // measure 57
1001
0000
0000
1001
1001
1001
0000
1000
,  // measure 58
0001
1000
1000
0001
1000
0000
0000
0000
,  // measure 59
1001
1001
1001
0000
0000
1001
1001
1001
,  // measure 60
0000
1000
0100
0000
0010
0001
0020
0000
,  // measure 61
0000
0030
0000
1001
1001
1001
0000
1001
,  // measure 62
1001
1001
0000
0000
1000
0100
0010
0001
,  // measure 63
0020
0000
0000
0030
0000
2000
0000
3100
,  // measure 64
0000
0010
0001
0010
0100
1000
0100
0010
,  // measure 65
0001
0010
1000
0100
1000
0100
0010
0001
,  // measure 66
0010
1000
0100
1000
0100
0010
0001
0010
,  // measure 67
0001
0100
1000
0100
0010
0001
0010
0100
,  // measure 68
1000
1000
0100
0010
0001
0010
0100
1000
,  // measure 69
1000
0100
0010
0001
0010
0100
1000
0100
,  // measure 70
0010
0001
0001
0010
0100
1000
0100
0010
,  // measure 71
0001
0010
1000
0100
1000
0100
0010
0001
,  // measure 72
0010
1000
0100
1000
0000
0000
0100
0100
,  // measure 73
0100
0000
0100
1000
0100
0010
0001
0010
,  // measure 74
0010
0010
0000
0000
2002
0000
0000
3003
,  // measure 75
0100
0100
0100
0000
0010
0001
0010
0100
,  // measure 76
0001
0000
0010
0010
0010
0000
0200
0000
,  // measure 77
0000
0300
0000
1000
0100
0010
0000
0001
,  // measure 78
0010
0100
0010
0000
0010
0010
0010
0000
,  // measure 79
0200
0000
0000
0300
0000
1000
1000
1000
,  // measure 80
0000
0100
0010
0001
0010
0000
0001
0001
,  // measure 81
0001
0000
0000
0022
0000
0000
0033
1100
,  // measure 82
1100
1100
0000
0000
0001
0010
0100
0000
,  // measure 83
0000
1001
1001
1001
0000
2002
0000
0000
,  // measure 84
0000
3003
1001
1001
1001
0000
0001
1000
,  // measure 85
0001
1000
0000
1001
1001
1001
0000
2002
,  // measure 86
0000
0000
0000
3003
1000
0100
0010
0000
,  // measure 87
0001
0010
0000
0100
0010
0000
0100
0010
,  // measure 88
1000
0100
0020
0000
0000
0030
0000
1000
,  // measure 89
0100
0010
0001
0010
0000
0001
0010
0000
,  // measure 90
0000
0100
0010
0100
0020
0000
0000
0030
,  // measure 91
1000
0001
1000
0001
1000
0100
0010
0000
,  // measure 92
0010
0001
0000
0010
0001
0010
0200
0000
,  // measure 93
0000
0300
0000
1000
0100
0010
0100
1000
,  // measure 94
0000
0000
0100
0010
0000
0001
0010
0000
,  // measure 95
0100
0020
0000
0030
0000
1001
0000
1001
,  // measure 96
0000
1100
0000
0110
0000
0011
0000
0110
,  // measure 97
0000
1001
0000
0020
0000
0000
0030
0000
,  // measure 98
0011
0000
0000
0011
0000
0000
0011
0000
,  // measure 99
0000
1100
0000
1100
0000
2200
0000
0000
,  // measure 100
3300
0000
1000
0100
1000
0000
0010
0100
,  // measure 101
0010
0000
0000
0010
0001
0010
0010
0002
,  // measure 102
0000
0000
0003
0000
0100
1000
0100
0000
,  // measure 103
1000
0010
1000
0000
0000
1000
0001
1000
,  // measure 104
0000
0001
2000
0000
3000
0000
1001
1001
,  // measure 105
1001
0000
0000
1001
1001
1001
0000
0000
,  // measure 106
1000
0001
1000
0001
2000
0000
0000
3000
,  // measure 107
0000
1001
1001
1001
0000
1000
0001
1000
,  // measure 108
0001
0000
1000
0100
0010
0001
0020
0000
,  // measure 109
0000
0030
0002
0000
0013
0100
1000
0100
,  // measure 110
0010
0001
0010
0000
0010
0100
0000
1000
,  // measure 111
0000
0100
0000
0010
0001
0100
1000
0100
,  // measure 112
0000
0000
0010
0100
0010
0100
0000
1000
,  // measure 113
0000
0100
0010
0001
0100
0010
0000
1000
,  // measure 114
0000
0010
0001
0100
0010
0001
0000
0010
,  // measure 115
0100
1000
0100
0001
0010
0000
0001
0010
,  // measure 116
0100
0000
0010
0000
1000
0001
1000
0000
,  // measure 117
1000
0100
0010
0001
0000
1000
0001
1000
,  // measure 118
0000
0000
2200
0000
0000
3300
1000
0100
,  // measure 119
1000
0000
0000
1000
0010
1000
0010
0000
,  // measure 120
1000
0100
0010
0000
0022
0000
0033
0000
,  // measure 121
1000
0100
0000
0010
0001
0010
0000
0100
,  // measure 122
0010
0000
0100
0010
0100
1000
0200
0000
,  // measure 123
0000
0300
0001
0000
0010
0100
1000
0100
,  // measure 124
0000
0010
0000
0001
0000
0010
0100
1000
,  // measure 125
0200
0000
0000
0300
0001
0010
0100
0000
,  // measure 126
0110
0000
0010
0000
0100
1000
0100
0010
,  // measure 127
0000
0001
0000
0010
0000
0001
0001
0010
,  // measure 128
0100
0100
0000
0010
0100
0010
0000
0100
,  // measure 129
0000
1000
0100
0010
0001
0010
0000
0000
,  // measure 130
0100
0010
0000
0100
0000
1000
0100
0020
,  // measure 131
0000
0030
0000
0001
0000
0010
0001
0010
,  // measure 132
0001
0100
0000
0000
1000
0100
0010
0100
,  // measure 133
0000
0000
1000
0100
0010
0001
0010
0000
,  // measure 134
0100
0000
0010
0000
0001
0010
0100
0010
,  // measure 135
0100
0000
1000
0100
0010
0001
0010
0000
,  // measure 136
0100
0010
0100
0000
1000
0100
0010
0010
,  // measure 137
0010
0000
0010
1000
1000
1000
0000
1000
,  // measure 138
2000
0000
3000
0000
0100
0100
0100
0000
,  // measure 139
0010
0010
0010
0010
0000
0001
0010
0001
,  // measure 140
0010
0000
0002
0000
0003
0000
0010
0100
,  // measure 141
0010
0100
0000
1000
0010
0001
0000
1000
,  // measure 142
0100
0000
0010
0001
0020
0000
0030
0000
,  // measure 143
1000
0001
0100
1000
0000
1000
1000
0001
,  // measure 144
1000
0000
1000
0001
0010
0001
0020
0000
,  // measure 145
0000
0030
0000
0200
0000
0000
0000
0000
,  // measure 146
0000
0000
0000
0000
,  // measure 147
2300
0000
0000
0000
0000
0020
0000
0000
,  // measure 148
0000
0000
0000
0000
0000
3000
0000
0000
,  // measure 149
0000
0000
0000
0032
0000
0000
0000
0000
,  // measure 150
0200
0000
0000
0000
,  // measure 151
0000
0003
0000
0000
,  // measure 152
0000
2300
0000
0000
,  // measure 153
0000
0000
0000
0000
,  // measure 154
0000
0000
0000
3000
1000
1000
1000
0000
,  // measure 155
0001
1000
0100
0001
0000
1000
0001
1000
,  // measure 156
0000
0000
2002
0000
0000
3003
1000
0100
,  // measure 157
0001
0000
0000
1000
0100
0010
0001
0000
,  // measure 158
0100
0100
0100
0000
0020
0000
0000
0030
,  // measure 159
0000
1000
0001
1000
0000
0100
1000
0100
,  // measure 160
0010
0000
0010
0100
0010
0000
0020
0000
,  // measure 161
0000
0000
0030
1000
0001
1000
0000
1000
,  // measure 162
0100
0010
0001
0000
0010
0010
0010
0000
,  // measure 163
0000
2002
0000
0000
0000
0000
3003
0000
;
