#VERSION:0.83;
#TITLE:Miror B.'s Retro Groove;
#SUBTITLE:;
#ARTIST:Unknown artist;
#TITLETRANSLIT:;
#SUBTITLETRANSLIT:;
#ARTISTTRANSLIT:;
#GENRE:;
#ORIGIN:;
#CREDIT:;
#BANNER:banner.png;
#BACKGROUND:wallpaper.png;
#PREVIEWVID:;
#JACKET:;
#CDIMAGE:;
#DISCIMAGE:;
#LYRICSPATH:;
#CDTITLE:;
#MUSIC:Miror B.'s Retro Groove - Pokémon Colosseum.mp3;
#OFFSET:0.000000;
#SAMPLESTART:99.971581;
#SAMPLELENGTH:12.000000;
#SELECTABLE:YES;
#BPMS:0.000=177.000;
#STOPS:;
#DELAYS:;
#WARPS:;
#TIMESIGNATURES:0.000=4=4;
#TICKCOUNTS:0.000=4;
#COMBOS:0.000=1;
#SPEEDS:0.000=1.000=0.000=0;
#SCROLLS:0.000=1.000;
#FAKES:;
#LABELS:0.000=Song Start;
#BGCHANGES:;
#KEYSOUNDS:;
#ATTACKS:
;

//---------------dance-single - ----------------
#NOTEDATA:;
#CHARTNAME:;
#STEPSTYPE:dance-single;
#DESCRIPTION:;
#CHARTSTYLE:;
#DIFFICULTY:Hard;
#METER:6;
#RADARVALUES:0.599687,0.620943,0.468157,0.148250,0.000000,538.000000,478.000000,60.000000,19.000000,0.000000,0.000000,0.000000,0.000000,0.000000,0.599687,0.620943,0.468157,0.148250,0.000000,538.000000,478.000000,60.000000,19.000000,0.000000,0.000000,0.000000,0.000000,0.000000;
#CREDIT:;
#NOTES:
// measure 0
0000
0001
1000
0001
1000
0001
1001
0000
,  // measure 1
1001
0000
0000
0000
0000
0100
1000
0100
,  // measure 2
0010
1001
0000
1001
0000
0000
0000
1001
,  // measure 3
0000
1000
0100
0010
0001
0010
0100
0000
,  // measure 4
0000
0100
1000
0010
0001
0010
0100
0010
,  // measure 5
0100
0000
0000
1000
1000
0000
1000
0010
,  // measure 6
0000
0100
0010
0001
0010
0100
0010
0200
,  // measure 7
0000
0000
0000
0000
0000
0000
0000
0300
,  // measure 8
0000
0100
1000
0100
0010
0001
0010
0100
,  // measure 9
1000
0000
0000
0000
0100
0010
0001
0100
,  // measure 10
1000
0100
1000
0100
0010
1000
0010
0100
,  // measure 11
0001
0010
0100
0000
0000
0010
0100
0010
,  // measure 12
0200
0000
0000
0000
,  // measure 13
0300
0000
0000
1000
0001
1000
0001
0000
,  // measure 14
1001
0000
1001
0000
0000
0000
1000
0100
,  // measure 15
1000
0100
0000
1100
0000
1100
0000
0000
,  // measure 16
1000
0000
0010
0001
0100
0010
0100
0000
,  // measure 17
0010
0000
0000
0000
1000
0001
1000
0001
,  // measure 18
0000
1001
0000
1001
0000
0000
0000
0010
,  // measure 19
0100
0010
0100
0110
0000
0110
0000
0000
,  // measure 20
0000
1000
0001
1000
0001
0000
1001
0000
,  // measure 21
1001
0000
0100
1000
0010
0002
0000
0000
,  // measure 22
0013
0000
0100
1000
0100
0010
0100
0010
,  // measure 23
0000
1000
1000
0100
0010
0001
0010
0100
,  // measure 24
0010
0001
0020
0000
0000
0030
1000
0100
,  // measure 25
0010
0100
0001
0010
0100
0010
0100
0010
,  // measure 26
0100
0010
0000
1000
0100
0100
0100
0001
,  // measure 27
0010
0100
0000
0010
0100
1000
0100
0010
,  // measure 28
0001
0010
0100
0010
0021
0000
0000
0000
,  // measure 29
0030
1000
0100
0010
0100
1000
0100
0010
,  // measure 30
0001
0010
0100
1000
0100
0010
0001
0010
,  // measure 31
0100
1000
0100
0010
0002
0000
0000
0003
,  // measure 32
0100
0010
0100
0010
0110
0000
0110
0000
,  // measure 33
0000
0000
1000
0001
1000
0001
0000
1001
,  // measure 34
0000
1001
0000
0000
1000
0100
0010
0001
,  // measure 35
0000
0110
0000
0110
0000
0000
0000
0000
,  // measure 36
1000
0001
1000
0001
1001
0000
1001
0000
,  // measure 37
0000
1000
0000
0100
0010
0001
0010
0100
,  // measure 38
0010
0200
0000
0300
1000
0100
0010
0001
,  // measure 39
0010
0100
0000
0012
0000
0003
0010
0010
,  // measure 40
0000
0100
1000
0000
0100
0100
0010
0001
,  // measure 41
0000
0012
0000
0000
0000
0000
0000
0000
,  // measure 42
0003
0000
0000
0000
1000
0100
0010
0001
,  // measure 43
0010
0100
0010
0100
0100
0000
1000
0100
,  // measure 44
0010
0100
0010
0000
0100
0010
0100
1000
,  // measure 45
0000
0100
0010
0001
0010
0000
0000
1100
,  // measure 46
0000
0110
0000
0012
0000
0000
0000
0000
,  // measure 47
0000
0000
0003
0000
0000
0000
1000
0001
,  // measure 48
1000
0001
0000
1001
0000
1001
0000
0000
,  // measure 49
0000
0010
0100
0010
0100
0110
0000
0110
,  // measure 50
0000
0000
0000
1000
0100
0000
0010
0001
,  // measure 51
0010
0100
0010
0000
0000
0000
0000
1000
,  // measure 52
0001
1000
0001
1000
0001
1001
0000
0000
,  // measure 53
0000
0010
0100
0010
0100
0000
0110
0110
,  // measure 54
0000
0000
0000
0000
1000
0001
1000
0001
,  // measure 55
0000
1001
1001
0000
0000
0100
1000
0020
,  // measure 56
0000
0000
0030
0001
0010
0100
0010
0001
,  // measure 57
0010
0010
0000
0000
1000
0100
0010
0000
,  // measure 58
0100
0010
0100
1000
0200
0000
0000
0300
,  // measure 59
1000
0010
0000
1000
0001
0010
0001
0010
,  // measure 60
0001
0010
0100
0000
0110
0000
0000
1000
,  // measure 61
1000
0010
0001
0010
0000
0100
0000
0010
,  // measure 62
0000
0100
1000
1000
1000
0100
0010
0020
,  // measure 63
0000
0000
0030
0001
0010
0100
0010
0100
,  // measure 64
0010
0100
0010
0100
0010
0100
0000
1000
,  // measure 65
1000
0100
0010
0001
0010
0100
0010
0001
,  // measure 66
0000
0000
1000
0001
1000
0001
0000
1001
,  // measure 67
0000
1001
0000
0000
0010
0100
0010
0100
,  // measure 68
0000
0110
0000
0110
0000
0000
1000
1000
,  // measure 69
0100
0010
0001
0000
0011
0011
0000
0000
,  // measure 70
0000
0000
1000
0100
0100
1000
0000
1100
,  // measure 71
1100
0000
0000
0000
1000
0000
0010
0001
,  // measure 72
0010
0100
0010
0100
0020
0000
0030
1000
,  // measure 73
0100
0010
0001
0010
0100
0010
0001
0010
,  // measure 74
0000
1000
1000
0000
0100
0010
0000
0001
,  // measure 75
0010
0001
0010
0000
0002
0000
0000
0000
,  // measure 76
0000
0000
0000
0003
0000
0000
1000
0100
,  // measure 77
0010
0001
0010
0100
0010
0100
0100
0000
,  // measure 78
0000
1000
0100
0100
0010
0001
0000
0010
,  // measure 79
0100
0010
0001
0010
0100
1000
0100
0020
,  // measure 80
0000
0030
0001
0010
0001
0020
0000
0000
,  // measure 81
0000
0000
0030
0000
,  // measure 82
1000
0000
0001
1000
0001
0000
1001
0000
,  // measure 83
1001
0000
0000
0010
0100
0100
0010
0000
,  // measure 84
0110
0000
0110
0000
0000
0000
1000
0100
,  // measure 85
0000
0001
0010
0100
0000
0010
0000
0000
,  // measure 86
0000
1000
0001
0000
1001
0000
1010
0000
,  // measure 87
1010
0000
0000
0000
1000
0100
1000
0110
,  // measure 88
0000
1010
0000
0000
0000
0000
0000
0011
,  // measure 89
0000
0011
0000
0101
0000
0101
0000
0100
,  // measure 90
1000
0020
0000
0000
0030
0001
0010
0000
,  // measure 91
0100
0010
0001
0010
0100
1000
0000
1000
,  // measure 92
0100
0010
0001
0010
0000
0001
0010
0200
,  // measure 93
0000
0000
0300
1000
0000
0001
0000
0000
;
