#VERSION:0.83;
#TITLE:Machine Muzik;
#SUBTITLE:;
#ARTIST:Unknown artist;
#TITLETRANSLIT:;
#SUBTITLETRANSLIT:;
#ARTISTTRANSLIT:;
#GENRE:;
#ORIGIN:;
#CREDIT:;
#BANNER:banner.png;
#BACKGROUND:machine_muzik_by_deino3330_d2y5ija-pre.jpg;
#PREVIEWVID:;
#JACKET:;
#CDIMAGE:;
#DISCIMAGE:;
#LYRICSPATH:;
#CDTITLE:;
#MUSIC:初音ミク3DPVmachine muzik 若干高画質.mp3;
#OFFSET:0.000000;
#SAMPLESTART:101.391556;
#SAMPLELENGTH:12.000000;
#SELECTABLE:YES;
#BPMS:0.000=177.000,
306.000=100.000,
323.500=177.000;
#STOPS:;
#DELAYS:;
#WARPS:;
#TIMESIGNATURES:0.000=4=4;
#TICKCOUNTS:0.000=4;
#COMBOS:0.000=1;
#SPEEDS:0.000=1.000=0.000=0;
#SCROLLS:0.000=1.000;
#FAKES:;
#LABELS:0.000=Song Start;
#BGCHANGES:0.000=machine_muzik_by_deino3330_d2y5ija-pre.jpg=1.000=0=0=0=StretchNoLoop====,
0.021=【初音ミク・3DPV】machine muzik (若干高画質).mp4=1.000=0=0=1=====,
99999=-nosongbg-=1.000=0=0=0 // don't automatically add -songbackground-
;
#KEYSOUNDS:;
#ATTACKS:
;

//---------------dance-single - ----------------
#NOTEDATA:;
#CHARTNAME:;
#STEPSTYPE:dance-single;
#DESCRIPTION:;
#CHARTSTYLE:;
#DIFFICULTY:Hard;
#METER:8;
#RADARVALUES:0.472043,0.612308,0.135598,0.474592,0.017842,926.000000,888.000000,38.000000,133.000000,0.000000,0.000000,0.000000,0.000000,0.000000,0.472043,0.612308,0.135598,0.474592,0.017842,926.000000,888.000000,38.000000,133.000000,0.000000,0.000000,0.000000,0.000000,0.000000;
#CREDIT:;
#NOTES:
// measure 0
0000
0000
0000
0000
,  // measure 1
0000
0000
0000
0000
,  // measure 2
0000
0000
0000
0000
,  // measure 3
0000
0100
1000
0100
0010
0000
0001
0010
,  // measure 4
0100
1000
0100
0010
0001
0001
0001
0010
,  // measure 5
0010
0010
0010
0100
0100
0100
0100
1000
,  // measure 6
0000
0100
0010
0001
0000
0000
0010
0001
,  // measure 7
0000
0000
0010
0010
0010
0100
0100
0100
,  // measure 8
1000
1000
1000
0000
0100
0000
0010
0001
,  // measure 9
0000
0010
0000
0100
0010
0000
0000
1000
,  // measure 10
1000
1000
0100
0100
0100
0010
0010
0010
,  // measure 11
0010
0000
0001
0000
0010
0100
0000
0000
,  // measure 12
0001
0010
0000
0001
0001
0001
0010
0010
,  // measure 13
0010
0100
0100
0100
1000
1000
1000
0100
,  // measure 14
0100
0010
0001
0010
0000
0000
0000
0000
,  // measure 15
0001
0010
0000
0100
0000
1000
0100
0010
,  // measure 16
0001
0000
0010
0000
0000
0100
0000
1000
,  // measure 17
0100
0000
0000
0000
1010
0000
0000
0101
,  // measure 18
0000
1100
0000
0000
0011
0000
0000
0101
,  // measure 19
0000
0000
1100
0000
1000
0010
0000
0000
,  // measure 20
0000
0000
0001
0010
0100
0000
1000
1000
,  // measure 21
0100
0100
0010
0010
0001
0000
0000
0010
,  // measure 22
0000
0001
0010
0000
0000
0000
0110
0000
,  // measure 23
0000
1001
0000
0000
0110
0000
1001
0000
,  // measure 24
0000
1010
0000
0000
1100
0000
1000
0100
,  // measure 25
0000
0000
0000
0000
0001
0010
0100
0000
,  // measure 26
1000
1000
0100
0100
0010
0010
0001
0000
,  // measure 27
0000
0010
0000
0001
0100
0000
0000
0000
,  // measure 28
0011
0000
0000
0101
0000
0000
0011
0000
,  // measure 29
0101
0000
0000
1100
0000
0000
1010
0000
,  // measure 30
1000
0100
0000
0000
0000
0000
1010
1000
,  // measure 31
0100
0000
0010
0010
0001
0001
0010
0010
,  // measure 32
0100
0000
0000
0010
0000
0100
0010
0000
,  // measure 33
0000
0000
1001
0000
0000
1010
0000
0101
,  // measure 34
0000
0000
0011
0000
0000
1100
0000
1000
,  // measure 35
0010
0000
0001
0010
0000
0000
0000
0000
,  // measure 36
0000
0001
0001
0100
0100
0010
0010
0100
,  // measure 37
0100
1000
1000
0000
0100
0000
0000
1000
,  // measure 38
1000
0000
0000
0000
0000
1000
0000
1000
,  // measure 39
0010
0010
0001
0001
0100
0100
0000
0002
,  // measure 40
0000
0000
0013
0000
0100
0100
0000
0000
,  // measure 41
0000
0000
1000
0000
0010
0001
0100
0000
,  // measure 42
1000
0100
0001
0000
0010
0000
0100
0000
,  // measure 43
0000
0010
0010
0000
0000
0000
0000
0000
,  // measure 44
1000
1000
0100
0100
0010
0010
0001
0001
,  // measure 45
0000
0010
0000
0100
0000
0000
1000
0100
,  // measure 46
0000
0010
0001
0000
0000
0000
0000
0000
,  // measure 47
0000
0000
0000
0000
,  // measure 48
0000
0000
0000
1000
0100
0000
0010
0001
,  // measure 49
0000
0000
0000
0000
,  // measure 50
0000
0000
0000
1000
0001
0000
1000
0000
,  // measure 51
0010
0001
0000
0000
0010
0001
0000
0010
,  // measure 52
0100
0010
0100
0010
0100
0010
0100
0000
,  // measure 53
1001
0000
1000
0000
0000
0010
1000
0000
,  // measure 54
0000
0000
1001
0000
0000
1010
0000
1001
,  // measure 55
0000
0000
0011
0000
0000
1001
0000
1000
,  // measure 56
0000
0000
0100
0010
0000
0000
0000
0000
,  // measure 57
0001
0001
0001
0010
0010
0010
0010
0100
,  // measure 58
0100
0100
1000
0000
0100
0000
0000
0001
,  // measure 59
0010
0000
0000
0000
0000
1000
1000
1000
,  // measure 60
1000
0100
0100
0100
0100
0010
0010
0010
,  // measure 61
0010
0001
0000
0000
0010
0001
0000
0000
,  // measure 62
0000
0000
0000
0001
0100
1000
0010
0000
,  // measure 63
0001
0010
1000
0000
1000
0000
0100
0010
,  // measure 64
0000
0001
0010
0000
0000
0000
0000
0100
,  // measure 65
0000
0100
0010
0010
0000
1000
1000
0001
,  // measure 66
0001
0000
0010
1000
0000
0100
0010
0010
,  // measure 67
0000
0000
0000
0000
0000
0001
0100
1000
,  // measure 68
0100
0010
0001
0010
0000
1000
0100
0000
,  // measure 69
1000
0000
0100
1000
0000
0000
0000
0000
,  // measure 70
0000
1000
0000
1000
0100
0100
1000
0010
,  // measure 71
0010
0001
0000
0010
0001
0010
0000
0000
,  // measure 72
0101
0100
0000
0000
0000
0000
1000
0100
,  // measure 73
0010
0000
0001
0010
0000
0100
1000
0000
,  // measure 74
1000
0100
0100
0000
0000
0001
0010
0000
,  // measure 75
0000
0000
0000
0000
0001
0100
1000
0010
,  // measure 76
0000
0000
0001
0000
0010
0000
1000
0000
0000
2000
0000
0000
3200
0000
0000
0320
,  // measure 77
0000
0002
0030
0000
0020
0003
0200
0000
0030
2000
0000
0300
0000
0200
3000
0000
,  // measure 78
0320
0000
0000
0032
0000
0000
0023
0000
0000
0230
0000
0000
2300
0000
0000
0000
,  // measure 79
0000
0000
0000
0000
3000
0000
0000
0000
2002
0003
0000
3200
0000
0000
0320
0000
,  // measure 80
0000
0032
0000
0000
0000
0000
0023
0000
0000
0230
0000
0000
2300
0000
0000
0000
,  // measure 81
3000
1000
0100
0010
0001
0000
0010
0010
,  // measure 82
0000
0000
0000
0000
1000
0000
0100
0010
,  // measure 83
0001
0001
0010
0100
1000
0000
1000
0000
,  // measure 84
0100
0000
0000
0011
0000
0000
0000
0000
,  // measure 85
0000
0001
0001
0001
0010
0010
0100
0100
,  // measure 86
0100
1000
0000
1000
0000
0100
0000
0000
,  // measure 87
0011
0000
0000
1000
,  // measure 88
1000
0100
0100
0100
0010
0010
0001
0000
,  // measure 89
0001
0000
0010
0000
0000
1100
0000
0000
,  // measure 90
0000
0000
0000
1000
1000
1000
0010
0010
,  // measure 91
0010
0010
0100
0100
0000
0001
0000
0010
,  // measure 92
0000
0001
0010
0000
0000
0000
0000
0000
,  // measure 93
0001
0001
0010
0100
0100
0010
0000
0010
,  // measure 94
1000
0000
1000
0000
0100
0000
0000
1100
,  // measure 95
0000
0000
0000
0000
0000
1000
1000
0010
,  // measure 96
0010
0010
0001
0001
0001
0001
0000
0100
,  // measure 97
0000
0010
0000
0000
1100
0000
0000
0000
,  // measure 98
0000
0000
1000
1000
0010
0010
0010
0001
,  // measure 99
0001
0010
0010
0100
0000
0000
1000
0000
,  // measure 100
0000
0100
0000
0000
0000
0000
0000
0001
,  // measure 101
0010
0100
1000
0100
1000
0010
0001
0010
,  // measure 102
0000
0100
0000
1000
0000
0100
1000
0000
,  // measure 103
0000
0000
0000
0000
1000
0010
0000
0100
,  // measure 104
0001
0010
0000
0100
0000
0000
1000
0100
,  // measure 105
0010
0000
0000
0001
0010
0000
0000
0000
,  // measure 106
0000
2000
0000
0000
0000
3200
0000
0320
,  // measure 107
0000
0000
0031
0000
0010
0100
1000
0000
,  // measure 108
0100
0010
0000
0000
0000
0002
0000
0000
,  // measure 109
0000
0000
0023
0000
0000
0230
0000
0300
,  // measure 110
1000
1000
0100
0000
0010
0001
0020
0000
,  // measure 111
0030
0000
2000
0000
0000
0000
0000
3200
,  // measure 112
0000
0020
0300
0000
0032
0000
0000
0000
,  // measure 113
0013
0000
0200
0000
2300
0000
0000
3000
,  // measure 114
0001
0001
0000
0010
0010
0000
0100
0100
,  // measure 115
1000
2000
0000
0000
3001
1000
0000
0002
,  // measure 116
0000
1003
0000
0001
0000
1000
0100
1000
,  // measure 117
0100
0100
0010
0001
0010
0001
0010
0000
,  // measure 118
0010
0001
0001
0001
0000
0100
0100
1000
,  // measure 119
0000
0000
1000
0000
1000
0100
0100
0100
,  // measure 120
0010
0010
0010
0002
0000
0003
1000
0001
,  // measure 121
2000
0000
0000
3001
1000
0000
0000
0010
,  // measure 122
0010
0001
0010
0001
0100
0100
0100
1000
,  // measure 123
2000
0000
0000
0000
0000
3200
0000
0310
,  // measure 124
0002
0000
0000
0000
0000
0003
0000
0000
,  // measure 125
1000
0001
0000
1001
0000
2000
0000
0000
,  // measure 126
0000
3002
0023
0000
,  // measure 127
0000
0000
0030
0000
1000
0001
0000
1000
,  // measure 128
0001
1000
2000
0000
0000
0000
0000
3200
,  // measure 129
0002
0300
0023
0000
0000
0000
0000
1030
,  // measure 130
0100
0000
0000
0001
0000
0010
0100
2000
,  // measure 131
0000
0000
0000
0000
3002
0000
0023
0230
,  // measure 132
0000
0000
0000
0000
0300
0000
0000
1000
,  // measure 133
0001
1000
0010
0000
0002
0000
0000
0000
,  // measure 134
0023
2030
3200
0310
,  // measure 135
0002
0000
0000
0013
1000
0100
0000
0020
,  // measure 136
0000
0032
0000
2000
0003
0000
0000
0000
,  // measure 137
0000
3002
0000
0000
0000
0000
2003
0000
,  // measure 138
0000
0000
0000
3020
0000
0000
0000
0000
,  // measure 139
0230
0000
0000
0000
0000
0002
0300
0000
,  // measure 140
0000
0000
0000
0023
0000
0000
0000
0000
,  // measure 141
2030
0000
0000
0000
0000
3002
0000
0000
,  // measure 142
0000
2003
0000
0000
,  // measure 143
3020
0000
0000
0230
,  // measure 144
0302
0000
0023
0000
2030
0000
3000
0100
,  // measure 145
0010
0001
0000
0000
2000
0000
3002
0000
,  // measure 146
0000
1003
0100
0010
0000
0000
0002
0000
,  // measure 147
0020
0003
0000
1030
0100
0000
0020
0000
,  // measure 148
0000
0230
0000
2300
0000
0000
3100
0010
,  // measure 149
0002
0000
0000
0023
0000
0000
0230
0000
,  // measure 150
1300
0000
0100
0020
0000
0030
0002
0000
,  // measure 151
0023
0000
0030
0001
0010
0200
0000
0000
,  // measure 152
2300
0000
0000
3200
0000
1300
0000
0100
,  // measure 153
0020
0000
0000
0032
0000
0020
0003
0000
,  // measure 154
0031
0010
0100
0000
2000
0000
3200
0000
,  // measure 155
0000
0320
0000
0031
0000
0020
0000
0000
,  // measure 156
2030
0000
3000
0200
0000
0300
0010
0000
,  // measure 157
0000
0002
0000
0023
0000
0000
0230
0000
,  // measure 158
0000
2300
0000
3200
0000
0000
0301
0000
,  // measure 159
0000
0010
0001
0010
0100
0000
2000
0000
,  // measure 160
0000
3200
0000
0320
0000
0032
0000
0000
,  // measure 161
0023
0000
0030
1000
0100
0000
0010
0001
,  // measure 162
0010
0100
0000
2000
0000
3200
0000
0000
,  // measure 163
0320
0000
0032
0000
0000
0023
0000
0030
,  // measure 164
2000
0000
3200
0000
0000
0320
0000
0030
,  // measure 165
0002
0000
0013
0000
0000
1000
0100
0000
,  // measure 166
0000
0000
0000
1000
1000
1000
0100
0100
,  // measure 167
0010
0010
0010
0001
0001
0001
0010
0000
,  // measure 168
0100
1000
1000
1000
0000
0000
0000
0100
,  // measure 169
0000
1000
0010
0001
0000
0100
1000
0100
,  // measure 170
0000
0001
0010
0001
0000
0010
0000
0001
,  // measure 171
0010
0000
0000
0000
0000
1000
0100
0000
,  // measure 172
0010
0001
0010
0100
1000
1000
0100
0010
,  // measure 173
0001
0000
0010
0001
0010
0000
0100
1000
,  // measure 174
0100
0010
0001
0100
1000
0100
0010
0000
,  // measure 175
0001
0010
0100
0000
1000
0100
0010
0001
,  // measure 176
0000
0010
0100
0010
0000
0100
1000
1000
,  // measure 177
0000
0100
0010
0010
0000
0001
0001
0000
,  // measure 178
0010
0100
1000
0100
0000
0010
0001
0010
,  // measure 179
0100
1000
0000
1000
1000
0000
0100
0100
,  // measure 180
0100
0000
0010
0010
0010
0000
0001
0010
,  // measure 181
0100
0000
1000
0100
0010
0001
0000
0001
,  // measure 182
0010
0010
0000
0100
0100
1000
0000
1000
,  // measure 183
1000
0100
0000
0010
0001
0010
0100
0000
,  // measure 184
1000
0100
0010
0100
0000
1000
0100
0100
,  // measure 185
0010
0010
0000
0001
0001
0000
0010
0010
,  // measure 186
0100
1000
0100
0000
0010
0001
1000
0001
,  // measure 187
0000
1000
0010
1000
0000
0100
1000
0100
,  // measure 188
0001
0000
0010
0001
0010
0001
0100
0000
,  // measure 189
0001
0100
1000
0100
0000
1000
0010
1000
,  // measure 190
0010
0000
0001
0010
0001
0010
0000
0000
,  // measure 191
1000
0010
0000
1000
0001
1000
0001
0000
,  // measure 192
0100
1000
0100
0000
0001
1000
0001
0010
,  // measure 193
0000
0001
0010
0001
1000
0000
0010
1000
,  // measure 194
0000
1000
0001
0000
1000
0100
1000
0100
,  // measure 195
0000
0001
1000
0001
1000
0000
0010
1000
,  // measure 196
0100
0010
0000
0001
0020
0000
0230
0000
,  // measure 197
0000
2300
0000
3200
0000
0000
0320
0000
,  // measure 198
0032
0000
0000
0023
0000
0000
2030
0000
,  // measure 199
3200
0000
0000
0302
0000
1003
0000
0001
,  // measure 200
1000
0002
0000
2003
0000
3002
0000
0000
,  // measure 201
1003
0001
0000
1000
0002
0000
0000
0003
;
