#TITLE:Loud Chimera;
#SUBTITLE:;
#ARTIST:Unknown artist;
#TITLETRANSLIT:;
#SUBTITLETRANSLIT:;
#ARTISTTRANSLIT:;
#GENRE:;
#CREDIT:;
#BANNER:;
#BACKGROUND:;
#LYRICSPATH:;
#CDTITLE:;
#MUSIC:【東方Electro/Complextro】 Loud Chimera 「Rolling Contact」.mp3;
#OFFSET:0.000000;
#SAMPLESTART:100.000000;
#SAMPLELENGTH:12.000000;
#SELECTABLE:YES;
#BPMS:0.000000=155.000000
,78.000000=122.000000
,109.000000=133.000000
,142.000000=144.000000
,199.000000=155.000000
,208.000000=177.000000
,210.000000=188.000000
,212.000000=199.000000
,214.000000=211.000000
,216.000000=233.000000
,219.000000=177.000000
,396.500000=155.000000
,474.000000=166.000000
,483.000000=177.000000
,494.500000=188.000000
,518.500000=199.000000
,536.500000=205.000000
,544.000000=215.000000
,551.500000=222.000000
,558.000000=244.000000
,563.000000=266.000000
,570.500000=177.000000
;
#STOPS:
;
#BGCHANGES:;
#KEYSOUNDS:;
#ATTACKS:;

//---------------dance-single - ----------------
#NOTES:
     dance-single:
     :
     Hard:
     8:
     0.437673,0.601576,0.072346,0.654263,0.000000,974.000000,951.000000,23.000000,208.000000,0.000000,0.000000,0.437673,0.601576,0.072346,0.654263,0.000000,974.000000,951.000000,23.000000,208.000000,0.000000,0.000000:
0000
0000
1000
0100
,
0010
0000
0001
0010
0000
0100
1000
0000
,
0100
0010
0001
0010
0000
0100
0000
1000
,
0100
0010
0000
0001
0010
0100
0010
0000
,
0000
0001
0010
0100
1000
0100
0000
0010
,
0100
0000
1000
0000
0100
0010
0001
0010
,
0100
0000
0010
0000
1000
0001
1000
0001
,
0000
1000
0100
0010
0000
0000
0001
0001
,
0010
0010
0000
0100
0100
1000
0000
1000
,
0000
0100
0010
0001
0001
0010
0000
0010
,
0100
2000
0000
3200
0000
0300
0010
0001
,
0010
0000
0100
1000
0100
0010
0001
0000
,
0010
0100
0010
1000
0000
0100
0000
0010
,
0001
0010
0100
1000
0000
0000
0100
0010
,
0001
0000
0010
0100
1000
0100
0000
0000
,
1001
1001
1010
0000
1010
0011
0001
0001
,
0000
0000
0100
1000
0100
0010
0000
0001
,
0010
0100
0000
1000
1000
0000
0100
0100
,
0010
0010
0010
0000
0000
0001
0001
0001
,
0010
0000
0010
0010
0200
0000
2300
0000
,
3200
0320
0000
0032
0000
0020
0003
0230
,
0000
2300
0000
3200
0000
0320
0000
0032
,
0000
0023
0030
0200
2300
0000
3200
0000
,
0320
0000
0032
0023
,
0230
0000
2300
0000
3200
0320
0000
0032
,
0000
0000
0023
0230
0000
2300
0000
3200
,
0000
0320
0000
0032
0000
0023
0000
0230
,
0000
0000
0000
2300
0000
3200
0000
0320
,
0000
0032
0000
0023
0000
0230
0000
2300
,
0000
3200
0000
0320
0000
0032
0000
0020
,
0003
0230
2300
3200
,
0320
0000
0032
2003
,
3002
0203
0320
0230
,
0310
0020
2000
0030
0000
3200
0000
0320
,
0000
0032
0000
0023
0000
0032
0000
0023
,
0000
0032
0000
0000
0000
0203
0000
2300
,
0000
3200
0000
0000
0320
0000
0230
0000
,
0302
0000
0000
0023
0000
0032
0000
0023
,
0000
0230
0000
0300
0020
0000
0032
0000
,
0023
0000
0032
0000
0000
0023
0000
0000
,
0000
0230
0000
0320
0000
0230
0000
0000
,
0320
0000
0230
0000
0000
2300
0000
3200
,
0000
2300
0000
3200
0000
0000
0320
0000
,
0032
0000
0023
0000
0032
0000
0000
0023
,
0000
0230
0000
0000
0000
2300
0000
3000
,
0002
2003
3002
2003
,
0000
3020
0000
2030
0000
3002
0000
2003
,
0000
3200
2300
3200
,
0300
1000
0001
1000
0001
1000
0001
1000
,
0000
0001
1000
0001
1000
0001
1000
0001
,
1000
0001
1000
0001
1000
0001
1000
0001
,
1000
0001
1000
0001
1000
0001
1000
0001
,
1000
0001
0001
1000
0001
1000
1000
0001
,
1000
0001
0001
1000
1000
0001
0001
1000
,
0001
2002
0000
0000
3003
1000
0000
0010
,
0001
0100
0010
0100
0010
0100
0100
0000
,
1000
0000
0100
0010
0001
0000
0010
0100
,
1000
0000
0000
1000
0100
0000
1000
0100
,
1000
1000
1000
1000
1000
0000
0000
0010
,
0000
0001
0000
0000
0010
0000
0000
0100
,
0000
1000
0000
0100
0010
0001
0001
0001
,
0001
0001
0001
0001
0010
0000
0100
1000
,
0100
0000
0010
0001
0000
0010
0000
0100
,
0000
1000
0100
0000
0010
0010
0010
0010
,
0010
0000
0000
0001
0000
0010
0000
0000
,
0100
1000
0000
0100
0000
0010
0000
0001
,
0010
0000
0100
0100
0100
0100
0100
0000
,
0000
1000
0100
0010
0000
0001
0010
0100
,
0000
1000
0000
0000
1000
0100
0010
0000
,
0001
0001
0001
0001
0001
0000
0000
0010
,
0100
1000
0000
0100
0010
0000
0001
0010
,
0000
0000
1000
0100
0000
0010
0100
0100
,
0100
0100
0100
0100
0000
1000
0000
0100
,
0010
0001
0000
0010
0100
1000
0000
0000
,
1000
0100
0000
0010
0010
0010
0010
0010
,
0010
0010
0000
0001
0000
0000
0010
0000
,
0100
0000
0000
1000
0000
0000
2000
0000
,
3000
0100
0010
0001
0010
0000
0100
1000
,
0000
1000
0000
0100
0010
0001
0000
0010
,
0100
1000
0000
0000
1000
0000
0100
0010
,
0001
0000
0001
0001
0001
0000
0000
0010
,
0000
0100
1000
0000
0100
0010
0001
0000
,
0010
0000
0010
0000
0100
0010
0100
0000
,
1000
1000
1000
0000
1000
0000
0100
0010
,
0001
0000
0010
0100
0010
0000
0001
0000
,
0010
0000
0010
0100
0000
0100
0100
1000
,
1000
1000
0000
0000
1000
0100
0010
0000
,
0100
1000
0100
0000
0010
0000
0001
0000
,
0010
0100
0010
0000
0001
0001
0001
0001
,
0000
0000
0010
0010
0100
0000
0100
1000
,
0000
1000
1000
0000
0000
1000
0100
0010
,
0000
0001
0001
0000
0001
0001
0000
0000
,
0010
0100
0010
0000
0100
0001
0000
0010
,
0100
0000
0000
1000
0100
0000
0010
0100
,
1000
0000
0100
0100
0000
0000
1000
0100
,
0000
0100
0010
0010
0000
0010
0001
0000
,
0000
0001
0000
0001
0010
0010
0000
0100
,
0100
0100
0000
0000
1000
0000
1000
0100
,
0100
0000
0010
0010
0010
0000
0100
0100
,
0000
2000
3200
0320
,
0000
0030
0000
0002
0000
0000
0000
0000
,
0023
0000
0230
0000
0000
1300
0100
0000
,
0010
0001
0010
0100
0000
0020
0000
2030
,
0000
3200
0000
0000
0320
0000
0032
0000
,
0000
0000
0003
0010
0100
1000
0100
0000
,
0020
0000
0031
0000
0010
0200
0000
1300
,
0100
0000
0020
0000
0000
0032
0000
0000
,
0000
0013
0100
2000
0000
3200
0000
0320
,
0000
0000
0000
0030
0000
0002
0000
0000
,
0003
0010
0100
0000
1000
0000
0000
0000
,
0000
0100
0000
0000
0000
0000
0010
0000
,
0001
0000
0010
0000
0100
1000
0100
0010
,
0000
0001
0020
0000
0230
0000
0300
2000
,
0000
3200
0000
0320
0000
0000
0000
0000
,
0031
0010
0000
0100
1000
0100
0000
0000
,
0010
0001
0010
0100
0000
1000
0100
0020
,
0000
0000
0032
0000
0000
0000
0013
0100
,
0000
2000
3200
0000
0000
0320
0000
0000
,
0032
0000
0023
0000
0030
0200
0000
2300
,
0000
0000
3200
0000
0320
0000
0000
0032
,
0000
0023
0000
0000
0230
0000
0000
2300
,
0000
3200
0000
0000
0320
0000
0000
0032
,
0000
0020
0003
0000
0230
0000
0000
2300
,
0000
0000
0000
0000
0000
3200
0000
0320
,
0000
0000
0032
0000
0000
0023
0000
0000
,
0230
0000
0000
2300
0000
0000
3200
0000
,
0000
0320
0000
0000
0032
0000
0000
0023
,
0000
0000
0230
0000
0000
2300
0000
0000
,
3200
0000
0000
2300
0000
3200
0000
0000
,
0000
0000
0000
0320
0000
0000
0230
0000
,
0000
0000
0320
0000
0000
0230
0000
0000
,
0302
0000
0000
0200
0003
0000
0302
0000
,
0000
0203
0000
0000
0302
0000
0000
0000
,
0023
0000
0000
0032
0000
0000
0023
0000
,
0000
0230
0000
0000
0320
0000
0000
0230
,
0000
0000
0000
2300
,
0000
3200
0000
0000
0320
0000
0000
0032
,
0000
0000
0000
0023
0000
0000
0230
0000
,
0000
2300
0000
0000
0000
3200
0000
0000
,
0300
2002
0000
0000
0000
0000
0000
0000
,
0000
0000
0000
0000
,
0000
3003
0000
0000
0000
0000
0000
0000
,
0000
0000
0000
0000
2002
0000
0000
3003
,
2000
0000
3020
0000
0000
0031
0100
0000
,
1000
0100
0000
0010
0100
1000
1000
0100
,
0010
0010
0100
1000
0000
0000
1000
1000
,
0000
0100
0100
0100
0100
0100
0100
0100
,
0000
0010
0000
0000
0001
0000
0000
0010
,
0000
0100
0000
0000
1000
0100
0000
1000
,
1000
1000
1000
1000
1000
1000
0000
0100
,
0010
0000
0001
0010
0000
0100
0010
0001
,
0000
0000
1000
0000
0100
0010
0100
0100
,
0100
0100
0100
0100
0100
1000
0000
0000
,
0100
0000
0000
0010
0001
0000
0010
0000
,
1000
0000
0100
0010
0010
0010
0010
0010
,
0010
0010
0000
0001
0000
0010
0100
1000
,
0000
0100
0010
0000
0001
0000
0001
0000
,
1000
1000
1000
1000
1000
1000
1000
1000
,
0000
1000
0000
0000
0100
0000
0000
0010
,
0000
0000
0001
0000
0001
0000
0010
0100
,
0100
0100
0100
0100
0100
0100
0000
0000
,
1000
0100
0010
0000
0001
0010
0100
1000
,
0000
0000
1000
0000
0000
0100
0010
0010
,
0010
0010
0010
0010
0000
0000
1001
0000
,
0110
0000
0000
1001
0000
0000
0110
0000
,
0000
2000
0000
3000
0100
0010
0001
0010
,
0100
0010
0000
0000
1000
0100
0010
0000
,
0001
0010
0000
0100
0010
0001
0000
0010
,
0000
0000
0100
0100
0100
0100
0100
0100
,
0000
0000
1000
0100
0000
0010
0001
0000
,
0010
0100
1000
0000
0000
1000
0000
0100
,
0010
0010
0000
0010
0010
0010
0000
0000
,
0001
0000
0010
0100
1000
0000
0100
0010
,
0000
0001
0000
1000
0000
0001
1000
0000
,
1000
1000
1000
0000
1000
0000
0000
1000
,
0000
0100
0000
0010
0001
0010
0000
0100
,
0000
1000
0000
0100
0010
0000
0001
0001
,
0001
0000
0001
0000
0010
0000
0100
0010
,
0000
0100
0010
0100
0000
0010
0000
1000
,
0000
0100
1000
0000
1000
1000
0000
1000
,
1000
0000
0000
0100
0010
0000
0001
0010
,
0100
0010
0000
0001
0000
0010
0000
0100
,
0010
0100
0000
0100
0100
0100
0100
0000
,
0000
1000
0001
1000
0000
0001
1000
0001
,
0000
1000
0000
0000
1000
0100
0010
0000
,
0010
0010
0010
0010
0000
0000
0000
0001
,
0010
0100
0000
1000
0100
0010
0000
0002
,
0000
0003
2000
0000
3000
1000
0100
0010
,
0000
0001
0010
0000
0000
0100
1000
0000
,
0100
0010
0001
0000
0010
0100
0000
0000
,
1000
0100
0000
0010
0100
0000
1000
0100
,
0010
0000
0000
0001
0000
0000
0010
0000
,
0100
0000
0000
1000
0000
0000
1000
0100
,
0000
0010
0001
0010
0100
0010
0000
0100
,
0000
0001
0000
0010
0100
1000
0000
0100
,
0010
0001
0000
0000
1001
0000
0000
0110
,
0000
0000
1001
0000
0110
0000
0000
1000
,
0000
0000
0100
0010
0001
0010
0000
0100
,
0020
0000
2030
0000
3000
0100
0010
0000
,
0001
0010
0000
0100
0000
1001
0000
1000
,
0010
0000
0001
0100
1000
0000
0100
0000
,
0000
2000
0000
3100
0000
0010
0001
0010
,
0200
0000
0000
0300
1000
0000
0100
0000
,
0000
0010
0000
0000
0001
0000
0000
1001
,
0000
0000
1000
0100
0010
0000
0001
0010
,
0000
0000
1001
1000
0000
0010
0100
0001
,
0000
0010
0100
0000
0000
1001
0000
0000
,
1010
1000
1000
0000
0100
0010
0000
0000
,
0001
0010
0000
0100
1000
0100
0010
0000
,
2002
0000
3003
2020
0000
0000
0000
0000
,
0000
0000
0000
0000
,
0000
0000
0000
0000
,
0000
0000
3030
0000
;

//---------------dance-single - ----------------
#NOTES:
     dance-single:
     :
     Challenge:
     11:
     0.591802,1.071356,0.666845,0.575626,0.213894,1317.000000,1105.000000,212.000000,183.000000,0.000000,0.000000,0.591802,1.071356,0.666845,0.575626,0.213894,1317.000000,1105.000000,212.000000,183.000000,0.000000,0.000000:
// measure 0
0000
0000
0000
0220
0330
1000
0100
0010
,  // measure 1
0001
0010
0001
0010
0000
0010
0100
1000
,  // measure 2
0100
0010
0001
0010
1000
0100
0010
0100
,  // measure 3
1000
0100
0010
0000
0001
0010
0100
1000
,  // measure 4
0000
1000
0100
0010
0000
0001
0010
0100
,  // measure 5
1000
1000
0001
1000
0010
0100
0010
0001
,  // measure 6
0010
0100
1000
0000
1000
0100
0010
0000
,  // measure 7
0000
0001
0010
0100
0010
1000
0100
1000
,  // measure 8
0100
0000
0000
0000
0010
0000
0001
0000
0010
0000
0100
0000
0000
0000
1000
0100
,  // measure 9
0000
0000
0010
0001
0000
0000
0001
0010
0000
1000
0010
0000
0001
0000
0010
0000
,  // measure 10
0000
0100
1000
0100
0000
0000
0001
0010
,  // measure 11
0100
0000
0100
1000
0100
0010
0000
0010
,  // measure 12
0001
0010
0100
0000
1000
0100
0010
0001
,  // measure 13
0000
0001
0010
0100
1000
0000
1000
0100
,  // measure 14
0010
0001
0000
0001
0010
0100
0000
0000
,  // measure 15
1000
0100
0010
0000
0000
0001
0010
0100
,  // measure 16
0000
1000
0100
0010
0001
0000
0001
0000
,  // measure 17
0010
0001
0100
1000
0001
0100
1000
0000
,  // measure 18
0010
0100
0010
0100
0000
1000
0100
0010
,  // measure 19
0001
0020
2030
3200
,  // measure 20
0302
0023
0230
2300
,  // measure 21
3200
0320
0000
0032
0000
0023
0000
0230
,  // measure 22
0000
2300
0000
3200
0000
0320
0032
0000
,  // measure 23
0023
0000
0230
2300
,  // measure 24
3200
0320
0032
0023
,  // measure 25
0032
0023
0032
0203
,  // measure 26
0302
0203
0000
2300
0000
3020
0000
0032
,  // measure 27
0000
0000
0000
0023
0000
2030
0000
3200
,  // measure 28
0000
2300
0000
3200
0000
0320
0000
0230
,  // measure 29
0000
0320
0000
0032
0000
0000
0023
0000
,  // measure 30
0032
0203
0302
0203
,  // measure 31
2300
0000
3020
0032
,  // measure 32
0200
0003
2000
0300
0000
3020
0000
0032
,  // measure 33
0000
0023
0000
2030
0000
3200
0000
0302
,  // measure 34
0000
0100
0203
2300
0000
3020
0000
0032
,  // measure 35
0000
0023
0000
0000
0000
0000
2030
0000
,  // measure 36
3200
0000
0302
0000
0023
0000
0030
0200
,  // measure 37
0000
2300
0000
3200
0000
0302
0000
0023
,  // measure 38
0000
2030
3200
0320
,  // measure 39
0000
0032
0000
0203
0000
2300
0000
0000
,  // measure 40
0000
3020
0000
0000
,  // measure 41
0031
0100
1000
0020
0000
0000
0000
0230
,  // measure 42
0000
0000
0320
0000
,  // measure 43
2030
0000
0000
0000
0000
3002
0000
0000
,  // measure 44
0000
2003
0000
0000
0000
0000
3010
0100
,  // measure 45
0010
1000
0100
1000
0010
0001
0000
0001
,  // measure 46
0010
0100
1000
0100
0010
0100
0000
0000
,  // measure 47
0001
0010
0100
0010
0001
0010
1000
0100
,  // measure 48
0000
1000
0100
0010
0100
1000
0100
1000
,  // measure 49
0010
0001
0010
0100
0010
0100
0010
0100
,  // measure 50
0010
0100
0001
1000
0001
1000
0001
1000
,  // measure 51
0001
0000
1000
0000
0001
0000
1000
0000
0001
0000
1000
0000
0001
1000
0001
1000
,  // measure 52
0001
1000
0001
1000
0001
1000
0001
1000
0001
1000
0001
1000
0001
1000
0001
1000
,  // measure 53
0001
1000
0001
1000
0001
1000
0001
1000
0001
0000
4004
0000
0000
0000
0000
0000
,  // measure 54
0000
0000
0000
0000
3003
0110
0000
0000
,  // measure 55
1000
0100
1000
0100
1000
0100
1000
0100
1000
0100
1000
0100
1000
0000
0000
0000
,  // measure 56
0001
0010
0000
0100
1000
0000
0100
0010
,  // measure 57
0000
0000
0001
0000
0000
0000
1001
0000
0000
0000
0000
0000
1000
0001
1000
0001
,  // measure 58
1000
0001
1000
0001
1000
0001
1000
0001
1000
0001
1000
0000
1010
0000
0000
0000
,  // measure 59
0000
0101
0000
0000
1100
0000
0000
0011
,  // measure 60
0000
0000
0101
0000
0000
0000
0000
0000
0010
0100
0010
0100
0010
0100
0010
0100
,  // measure 61
0010
0100
0010
0100
0010
0000
0000
0000
1000
0000
1000
0000
0100
0000
0010
0000
,  // measure 62
0100
0001
0010
0100
1000
1001
0000
1000
,  // measure 63
0000
0000
0000
0000
0001
1000
0001
1000
0001
1000
0001
1000
0001
1000
0001
1000
,  // measure 64
0001
0000
1100
0000
0000
0011
0000
0000
,  // measure 65
0101
0000
0000
1010
0000
0000
1000
0000
,  // measure 66
0100
1000
0100
1000
0100
1000
0100
1000
0100
1000
0100
1000
0100
0000
0000
0000
,  // measure 67
0000
1000
0100
1000
0010
0001
0010
0000
,  // measure 68
0100
0000
1000
0000
0000
0000
0000
0000
0001
0000
0000
0000
0001
0010
0001
0010
,  // measure 69
0001
0010
0001
0010
0001
0010
0001
0010
0001
0010
0001
0000
0000
0000
0101
0000
,  // measure 70
0000
1010
0000
0000
1100
0000
0000
0011
,  // measure 71
0000
0000
0000
0000
0110
0000
0000
0000
0000
0000
0010
0100
0010
0100
0010
0100
,  // measure 72
0010
0100
0010
0100
0010
0100
0010
0000
0000
0000
1000
0000
0100
0000
0001
0000
,  // measure 73
0010
0001
0010
1000
0100
1000
0000
0000
,  // measure 74
1100
0000
0000
0000
0000
0000
1000
0100
1000
0100
1000
0100
1000
0100
1000
0100
,  // measure 75
1000
0100
1000
0000
0000
0000
1010
0000
0000
0000
0000
0000
0101
0000
0000
0000
,  // measure 76
0011
0000
0000
1100
0000
0000
1010
0000
,  // measure 77
0000
1100
1100
0000
1100
1100
0000
0000
,  // measure 78
0000
1000
0000
0100
0010
0001
0000
0010
,  // measure 79
0100
0000
1000
0000
0011
0000
0000
0101
,  // measure 80
0000
0101
0101
0101
0000
0011
0000
1010
,  // measure 81
0000
0000
0110
0000
0000
0011
0000
0000
,  // measure 82
0110
0000
1001
0000
0000
1010
1010
1010
,  // measure 83
1010
0101
0101
0000
0000
0000
0100
0010
,  // measure 84
0100
1000
0010
0100
0001
1000
0001
0000
,  // measure 85
0000
1100
0000
0011
0000
0011
0011
0011
,  // measure 86
0000
0011
0000
1100
0000
0000
0011
0000
,  // measure 87
0000
0101
0000
0000
1010
0000
0000
1100
,  // measure 88
0000
1000
0100
0010
0001
0010
0100
1000
,  // measure 89
0000
0000
1000
0100
0010
0000
0001
0010
,  // measure 90
0100
0000
1000
0000
0000
1100
0000
0000
,  // measure 91
1010
1010
1010
0000
1010
1010
0000
0000
,  // measure 92
1100
0000
0000
0011
0000
0101
0000
0000
,  // measure 93
1010
0000
0000
1100
0000
0000
0011
0011
,  // measure 94
0011
0011
0011
0000
0000
0000
1000
0100
,  // measure 95
1000
0010
0001
0000
0010
0100
1000
0000
,  // measure 96
0000
0001
0010
0100
1010
1010
0000
1010
,  // measure 97
1010
1100
0000
0000
1000
0000
0000
0100
,  // measure 98
0000
0010
0000
0000
0001
0000
0000
0011
,  // measure 99
0000
0000
0110
0000
0000
0000
0000
0020
,  // measure 100
0000
0000
0000
2030
0000
0000
0000
0000
,  // measure 101
3100
0020
0000
0000
0031
0010
0100
0000
,  // measure 102
2000
3200
0000
0310
0001
0020
0000
2030
,  // measure 103
0000
3200
0000
0302
0000
0020
0003
0000
,  // measure 104
0000
0000
0000
1030
0100
0010
0001
0010
,  // measure 105
0200
0000
0300
1000
0100
0012
0000
0000
,  // measure 106
0010
0003
0200
0000
0000
2300
0000
0000
,  // measure 107
0000
3010
0001
0200
0000
0300
2000
0000
,  // measure 108
3200
0000
0000
0000
0320
0000
0000
0230
,  // measure 109
0000
0000
2300
0000
,  // measure 110
0000
3020
0000
0000
0000
0031
0200
0000
,  // measure 111
0000
0000
0301
0010
1000
0010
0001
0100
,  // measure 112
0000
1000
0200
0000
0320
0000
0000
0032
,  // measure 113
0000
0023
0000
0030
0200
0000
0000
0000
,  // measure 114
0000
1300
0100
0010
0001
0020
0000
0000
,  // measure 115
1030
0010
1020
0000
0000
0000
1030
0200
,  // measure 116
0000
0000
0000
0302
0000
0000
0013
0000
,  // measure 117
0100
0020
0000
0230
0000
0000
2300
0000
,  // measure 118
0000
0000
3002
0000
0000
0023
0000
0230
,  // measure 119
0000
0300
2000
0000
3200
0000
0000
0320
,  // measure 120
0000
0032
0000
0000
0023
0000
0000
0230
,  // measure 121
0000
2300
0000
0000
3200
0000
0000
0320
,  // measure 122
0000
0000
0032
0000
0000
2003
0000
0000
,  // measure 123
3002
0000
0000
0000
0000
0023
0000
0000
,  // measure 124
0230
0000
0000
2300
0000
0000
3200
0000
,  // measure 125
0000
0302
0000
0000
0203
0000
0000
0302
,  // measure 126
0000
0000
0023
0000
0000
2030
0000
0020
,  // measure 127
3000
2030
0000
3200
,  // measure 128
0000
0302
0000
0200
0003
0000
0302
0000
,  // measure 129
0000
0000
0000
0000
0023
0000
0000
0032
,  // measure 130
0000
0000
0020
0003
0000
0230
0000
0000
,  // measure 131
0000
2300
0000
0000
3020
0000
0000
2030
,  // measure 132
0000
0000
3200
0000
0000
0302
0000
0000
,  // measure 133
0023
0000
0000
0032
0000
0000
0203
0000
,  // measure 134
0000
2300
0000
0000
3200
0000
0000
0320
,  // measure 135
0000
0000
0000
0000
0000
0000
1030
0100
,  // measure 136
1000
0100
1000
0100
1000
0010
0100
0010
,  // measure 137
0100
0010
0100
0010
0001
1000
0001
1000
,  // measure 138
0001
1000
0001
1000
0001
1000
0001
1000
,  // measure 139
0001
0000
1000
0000
0001
0000
1000
0001
1000
0001
1000
0001
1000
0001
1000
0001
,  // measure 140
1000
0001
1000
0001
1000
0001
1000
0001
1000
0001
1000
0001
1000
0001
1000
0001
,  // measure 141
1000
4004
0000
0000
0000
0000
0000
0000
,  // measure 142
0000
0000
0000
3003
0000
0110
0000
0000
,  // measure 143
1100
0000
0000
0000
0000
0000
1000
0010
1000
0010
1000
0010
1000
0010
1000
0010
,  // measure 144
1000
0010
1000
0000
0000
0000
1000
0000
0100
0000
0010
0000
0001
0000
0010
0000
,  // measure 145
0000
0010
0100
1000
0000
0000
0100
0000
,  // measure 146
0100
0000
0100
0010
0100
0010
0100
0010
0100
0010
0100
0010
0100
0010
0100
0010
,  // measure 147
0000
1001
0000
0000
0011
0000
1100
0000
,  // measure 148
0000
0000
1010
0000
0000
0000
0000
0000
0101
0000
0000
0000
0000
0000
0001
0010
,  // measure 149
0001
0010
0001
0010
0001
0010
0001
0010
0001
0010
0001
0000
0000
0000
0001
0000
,  // measure 150
0010
0100
1000
0100
0010
0001
0010
0100
,  // measure 151
1010
0000
0000
0000
1000
0000
0000
0000
0000
0000
0100
1000
0100
1000
0100
1000
,  // measure 152
0100
1000
0100
1000
0100
1000
0100
1000
0100
0000
2000
0000
0000
0000
3020
0000
,  // measure 153
0000
0000
0032
0000
0000
0203
0000
0300
,  // measure 154
1000
0000
0100
0000
0000
0000
1000
0010
1000
0010
1000
0010
1000
0010
1000
0010
,  // measure 155
1000
0010
1000
0010
0000
0000
1000
0000
0000
0000
0100
0000
0010
0000
0001
0000
,  // measure 156
0000
0010
0100
1000
0000
0000
0011
0000
,  // measure 157
0000
0001
0010
0001
0010
0001
0010
0001
0010
0001
0010
0001
0010
0001
0010
0001
,  // measure 158
0010
0001
0110
0000
0000
0000
0000
0000
0101
0000
0000
0000
0000
0000
1010
0000
,  // measure 159
0000
0000
1001
0000
0000
1010
0000
0000
,  // measure 160
1000
0001
1000
0001
1000
0001
1000
0001
1000
0001
1000
0001
1000
0000
0000
0000
,  // measure 161
1000
0100
0010
0000
0001
0010
0100
0000
,  // measure 162
1000
0000
0000
0000
0000
0000
0001
0000
0000
0000
1000
0001
1000
0001
1000
0001
,  // measure 163
1000
0001
1000
0001
1000
0001
1000
0001
1001
0000
0000
0000
1010
0000
0000
0000
,  // measure 164
0011
0000
0000
1100
0000
0000
0011
0000
,  // measure 165
0000
0110
0000
0000
1010
1010
1010
0000
,  // measure 166
1010
1010
0000
0000
1000
0100
1000
0010
,  // measure 167
0001
0010
1000
0100
1000
0000
0000
0011
,  // measure 168
0000
0000
0101
0101
0101
0101
0101
0101
,  // measure 169
0000
0000
1100
0000
0000
0011
0000
1010
,  // measure 170
0000
0000
0101
0000
0000
1100
0000
0000
,  // measure 171
1100
1100
1100
1100
1100
0000
1100
0000
,  // measure 172
1000
0100
0001
0010
1000
0100
1000
0100
,  // measure 173
0000
0010
0000
0011
0000
0000
0011
0011
,  // measure 174
0011
0011
0011
0000
0011
0000
0000
0101
,  // measure 175
0000
1010
0000
0000
1100
0000
0000
0011
,  // measure 176
0000
0101
0000
0000
0101
0101
0101
0101
,  // measure 177
0101
0101
0000
0000
0000
0001
0010
0100
,  // measure 178
1000
1000
0100
0010
0001
0001
0000
1010
,  // measure 179
0000
0000
1010
1010
1010
1010
1010
0000
,  // measure 180
0000
0000
0110
0000
0000
1010
0000
0000
,  // measure 181
1001
0000
0000
0101
0000
0000
0011
0000
,  // measure 182
0011
0011
0011
0011
0011
0011
0000
0000
,  // measure 183
0000
0010
0100
1000
0100
0010
0001
0010
,  // measure 184
0100
1000
0000
0000
1100
0000
0000
1010
,  // measure 185
1010
1010
0000
1010
0000
0000
0000
1100
,  // measure 186
0000
0011
0000
0000
0101
0000
0000
1010
,  // measure 187
0000
0000
1100
0000
0000
1010
1010
1010
,  // measure 188
0000
1010
0000
0000
0000
0010
1000
0100
,  // measure 189
1000
0100
0010
0001
0010
0100
0000
0000
,  // measure 190
1100
0000
0000
1010
1010
0000
1010
1010
,  // measure 191
1010
0000
0000
2000
0000
0000
3200
0000
,  // measure 192
0320
0000
0000
0032
0000
0000
0003
0010
,  // measure 193
0000
0010
0100
0000
0010
0100
0010
0000
,  // measure 194
0000
1000
0010
0100
0010
0001
0100
0010
,  // measure 195
0100
0000
1000
0000
1100
0000
0000
0011
,  // measure 196
0011
0000
0011
0011
0000
0011
0000
0002
,  // measure 197
0000
0000
0023
0000
0230
0000
0000
2300
,  // measure 198
0000
3000
0000
1100
0000
1010
0000
1010
,  // measure 199
1010
1010
0000
1010
0000
0000
0010
0001
,  // measure 200
0010
1000
0100
1000
0000
0100
0010
0000
,  // measure 201
0000
0011
0000
0101
0000
0101
0101
0101
,  // measure 202
0000
0000
1000
0100
,  // measure 203
0000
0010
0000
0000
0001
0000
0000
0011
,  // measure 204
0000
1100
1100
1100
1100
1100
0000
1100
,  // measure 205
0000
0000
1000
0100
1000
0010
0001
0010
,  // measure 206
1000
0100
1000
0000
0000
1010
0000
0000
,  // measure 207
0011
0011
0011
0011
0011
0000
0000
0202
,  // measure 208
0000
0303
2000
0000
0000
3200
0000
0320
,  // measure 209
0000
0000
0000
0032
0000
0000
0000
0000
,  // measure 210
0000
0000
0000
0000
,  // measure 211
0000
0000
0000
0000
,  // measure 212
0000
0000
0000
0000
0000
0000
0000
0003
;
