#VERSION:0.83;
#TITLE:Lost One's Weeping;
#SUBTITLE:;
#ARTIST:Unknown artist;
#TITLETRANSLIT:;
#SUBTITLETRANSLIT:;
#ARTISTTRANSLIT:;
#GENRE:;
#ORIGIN:;
#CREDIT:;
#BANNER:banner.png;
#BACKGROUND:180691001v3.png;
#PREVIEWVID:;
#JACKET:;
#CDIMAGE:;
#DISCIMAGE:;
#LYRICSPATH:;
#CDTITLE:;
#MUSIC:Yokune Ruko KIREThe Lost One's Weeping sat1080 mixUTAUMP3.mp3;
#OFFSET:0.000000;
#SAMPLESTART:99.971581;
#SAMPLELENGTH:12.000000;
#SELECTABLE:YES;
#BPMS:0.000=187.000;
#STOPS:;
#DELAYS:;
#WARPS:;
#TIMESIGNATURES:0.000=4=4;
#TICKCOUNTS:0.000=4;
#COMBOS:0.000=1;
#SPEEDS:0.000=1.000=0.000=0;
#SCROLLS:0.000=1.000;
#FAKES:;
#LABELS:0.000=Song Start;
#BGCHANGES:;
#KEYSOUNDS:;
#ATTACKS:
;

//---------------dance-single - ----------------
#NOTEDATA:;
#CHARTNAME:;
#STEPSTYPE:dance-single;
#DESCRIPTION:;
#CHARTSTYLE:;
#DIFFICULTY:Hard;
#METER:9;
#RADARVALUES:0.703063,0.761606,0.487118,0.092784,0.000000,1273.000000,1147.000000,126.000000,24.000000,0.000000,0.000000,0.000000,0.000000,0.000000,0.703063,0.761606,0.487118,0.092784,0.000000,1273.000000,1147.000000,126.000000,24.000000,0.000000,0.000000,0.000000,0.000000,0.000000;
#CREDIT:;
#NOTES:
// measure 0
0000
0000
0000
0000
,  // measure 1
1000
1000
0100
1000
0100
0100
0010
0100
,  // measure 2
0010
0100
0100
0001
0100
0001
0001
1001
,  // measure 3
0000
1000
0000
0001
0001
0010
0001
0010
,  // measure 4
0010
0100
0010
0100
0010
0100
0100
0100
,  // measure 5
0100
0100
0000
1001
0000
0100
1000
0100
,  // measure 6
0010
0001
0010
0100
1000
0010
0001
0010
,  // measure 7
0100
0010
0010
0100
1000
0100
0001
1000
,  // measure 8
0100
1000
0100
1000
0100
1000
0010
1000
,  // measure 9
0010
0100
0001
1000
0001
0010
0001
0010
,  // measure 10
0001
0010
0100
1000
0100
0010
0001
1000
,  // measure 11
0001
1000
0001
1000
1000
0100
0010
0001
,  // measure 12
0010
0100
1000
0010
0001
0010
0100
1000
,  // measure 13
0100
0010
0001
0100
1000
1000
0100
0010
,  // measure 14
0001
0010
0000
1000
0100
0010
0100
0010
,  // measure 15
1000
0001
1000
0001
1000
0100
0010
0001
,  // measure 16
0010
0100
1000
0100
0010
0001
0010
1000
,  // measure 17
0100
0010
0001
0010
1000
0100
0010
0001
,  // measure 18
0010
0100
1000
0010
0001
0010
0100
1000
,  // measure 19
0001
0010
0100
1000
0010
0001
0100
1000
,  // measure 20
0010
0001
0100
1000
0010
0001
0010
0100
,  // measure 21
1000
0100
0010
0001
0010
0100
0000
0001
,  // measure 22
0010
0100
1000
0100
0010
0100
1000
0100
,  // measure 23
0010
0100
1000
0001
0010
0100
0010
0001
,  // measure 24
1000
0001
1000
0001
0100
1000
0000
0100
,  // measure 25
0010
0001
0010
0000
1100
0000
0011
0000
,  // measure 26
0000
0000
1000
0001
1000
0000
1000
0001
,  // measure 27
0010
0100
1000
0100
0010
1001
0000
0110
,  // measure 28
0000
1001
0000
0000
0000
0100
1000
0100
,  // measure 29
0010
0000
0001
0000
0010
0010
0100
0100
,  // measure 30
0000
0100
0000
2002
0000
0000
3003
1000
,  // measure 31
0100
0010
0001
0000
0010
0000
0100
0010
,  // measure 32
0000
0100
0100
0010
0000
0010
0000
0000
,  // measure 33
1001
1001
0002
0000
0000
0000
0000
0000
,  // measure 34
0000
0000
0000
0000
,  // measure 35
0000
0000
0000
0000
0003
1000
0100
0010
,  // measure 36
0001
0001
0100
1000
0100
0010
0001
0010
,  // measure 37
0100
0010
0001
0000
1100
0011
0000
0200
,  // measure 38
0000
0000
0000
0000
,  // measure 39
0000
0000
0000
0000
,  // measure 40
0000
0000
0000
0300
1000
0100
1000
0100
,  // measure 41
1000
0010
1000
0010
0001
1000
0001
1000
,  // measure 42
0001
0000
0010
1000
0100
1000
0100
0000
,  // measure 43
0010
0000
0010
0001
0010
0100
1000
0000
,  // measure 44
0100
0000
0020
0000
0000
0000
0031
0001
,  // measure 45
0001
1000
0000
0001
0000
1000
0100
0010
,  // measure 46
0001
0000
0010
0100
1000
0200
0000
0000
,  // measure 47
0300
0001
0010
0100
0000
0010
0000
0000
,  // measure 48
0001
0010
0100
1000
0100
0000
0010
0002
,  // measure 49
0000
0000
0003
1000
0100
0010
0100
0000
,  // measure 50
1000
0000
0100
0010
0000
1001
1001
0000
,  // measure 51
1001
1001
1001
0000
0000
0000
1000
0001
,  // measure 52
1001
0000
1000
0001
1001
0000
0001
1000
,  // measure 53
1001
0000
0001
1000
1001
0010
0100
0000
,  // measure 54
1000
0100
1000
0100
0000
0001
0010
0001
,  // measure 55
0000
0010
0100
0010
0100
0000
1000
0001
,  // measure 56
1000
0000
0000
0001
0100
0001
0000
0100
,  // measure 57
1000
0100
1000
0000
1000
0010
1000
0000
,  // measure 58
0001
0010
0001
0010
0000
0100
0010
0000
,  // measure 59
0100
0000
0010
0100
0000
1001
0000
1001
,  // measure 60
0000
1001
0000
1001
0000
1001
0000
1000
,  // measure 61
0001
1000
0000
1000
0100
0000
0010
0001
,  // measure 62
0001
0010
0100
0000
1000
0100
0010
0000
,  // measure 63
0000
0000
0001
0010
0100
1000
0100
0000
,  // measure 64
0000
0010
0001
0010
0100
0000
0010
0000
,  // measure 65
0100
1001
0000
0000
1000
0100
0010
0010
,  // measure 66
0001
0010
0000
0100
0000
0001
0010
0001
,  // measure 67
0010
0001
1100
1100
0000
0000
0000
1000
,  // measure 68
0100
0000
0010
0000
0001
0010
0000
0000
,  // measure 69
1000
0000
0100
0010
0000
0100
0220
0000
,  // measure 70
0300
1030
0100
1000
0100
0000
1000
0000
,  // measure 71
0010
0000
0001
0100
1000
0000
0100
0001
,  // measure 72
0000
0110
0000
0000
0100
0010
0100
1000
,  // measure 73
0000
0001
0000
1000
0001
1000
0100
0000
,  // measure 74
0010
0000
0001
0010
0000
0000
0100
1000
,  // measure 75
0100
0010
0000
0001
0000
0010
0100
0010
,  // measure 76
0000
0001
0010
0000
0100
1000
0000
0000
,  // measure 77
0000
0100
0010
0000
0010
0000
0010
1001
,  // measure 78
0000
0000
1000
0100
0000
0100
0000
0100
,  // measure 79
1001
0000
1001
0000
0000
1000
0100
0010
,  // measure 80
0001
0100
1000
0100
0010
0001
0010
0100
,  // measure 81
1000
0100
1000
0010
1000
0010
0100
0001
,  // measure 82
1000
0001
1000
0001
0100
0010
0001
0010
,  // measure 83
0100
1000
0001
0100
1000
0100
1000
0100
,  // measure 84
1000
0100
1000
0010
1000
0100
0001
1000
,  // measure 85
0001
1000
0001
0100
0010
0100
0010
0100
,  // measure 86
1000
0001
1000
0001
0010
0001
0010
0001
,  // measure 87
0010
0100
0001
0100
0001
0100
1000
0100
,  // measure 88
0010
0001
1000
0010
1000
0010
1000
0100
,  // measure 89
1000
0010
0001
0010
0100
1000
0100
0010
,  // measure 90
0001
0010
0100
1000
1000
0100
0010
0100
,  // measure 91
0010
1000
0100
0010
0001
0100
1000
0010
,  // measure 92
1000
0100
0010
0001
0010
0100
1000
0100
,  // measure 93
0010
0001
0010
0100
1000
0100
0010
0001
,  // measure 94
0010
1000
0100
0010
0001
0010
0100
0010
,  // measure 95
0001
0010
0100
0001
0001
0010
0100
1000
,  // measure 96
0100
0010
0100
1000
0100
0010
0100
0001
,  // measure 97
0010
0100
0010
0100
0001
0010
0100
0010
,  // measure 98
0200
0000
0000
0300
0100
0010
0000
0001
,  // measure 99
0010
0000
0002
0000
0010
0203
0000
0000
,  // measure 100
0300
0000
1000
0200
0000
0000
0310
0002
,  // measure 101
0000
0013
0000
0100
2000
0000
3100
0000
,  // measure 102
0020
0000
0000
0030
0001
2000
0000
0000
,  // measure 103
0000
3001
0020
0000
0130
0000
0010
0002
,  // measure 104
0000
0013
0100
0020
0000
0000
0230
0000
,  // measure 105
2000
0300
0000
0000
0000
0000
3000
0000
,  // measure 106
1000
0100
0010
0000
0001
0000
0010
0000
,  // measure 107
0010
0100
1000
0000
0000
0100
0010
0001
,  // measure 108
0010
0000
0100
0010
0100
0010
0000
1000
,  // measure 109
0001
1001
0000
1000
0010
1000
0010
0000
,  // measure 110
0001
0100
0001
0100
0000
1000
0100
1000
,  // measure 111
0000
1000
0010
1000
0010
0000
0001
0010
,  // measure 112
0001
0010
0000
0100
0001
0100
0000
1000
,  // measure 113
0100
1000
0100
0000
0010
1000
0010
0000
,  // measure 114
1000
0001
1001
1001
0000
1001
0000
1001
,  // measure 115
0000
0000
1100
1100
0000
1100
0011
0000
,  // measure 116
0011
0000
0000
1100
0010
0000
0001
0000
,  // measure 117
0010
0000
0100
0010
0100
1001
0000
1001
,  // measure 118
0000
1001
1001
0000
0000
1000
0100
0010
,  // measure 119
0001
0000
0010
0000
0100
0010
0001
0000
,  // measure 120
0011
0011
0000
1100
0000
1100
0000
0000
,  // measure 121
1000
0100
0010
0001
0000
0010
0000
0100
,  // measure 122
0010
0100
1001
0000
1001
0000
0011
1100
,  // measure 123
0000
0000
1100
0000
1100
0011
0000
0101
,  // measure 124
1010
0000
1100
1010
,  // measure 125
0101
0011
0000
0000
0000
1000
0100
0010
,  // measure 126
0001
0010
0000
0100
0000
0010
0100
0110
,  // measure 127
0000
0110
0000
1001
1001
0000
0000
1000
,  // measure 128
0110
0001
0010
0100
,  // measure 129
1001
1001
1001
1001
,  // measure 130
0000
1000
0100
0010
0000
0001
0000
0010
,  // measure 131
0000
0100
0010
0100
1001
0000
1010
0000
,  // measure 132
0101
1100
0000
0000
1000
0100
0000
0010
,  // measure 133
0000
0001
0010
0000
0000
0001
0000
0010
,  // measure 134
0100
0000
1000
0100
0000
0000
0000
1000
,  // measure 135
0100
0100
0010
0001
0000
0000
0010
0100
,  // measure 136
1000
0100
0000
0011
0000
0101
1010
0000
,  // measure 137
0000
1000
0100
0010
0001
0000
0010
0000
,  // measure 138
0100
0010
0100
0000
1001
1001
0000
0011
,  // measure 139
1100
0000
0000
1000
0100
0010
0001
0000
,  // measure 140
0010
0000
0100
0010
0001
0010
0101
0000
,  // measure 141
0101
0000
1010
1010
0000
0000
1000
0100
,  // measure 142
0000
0010
0000
0001
0011
0000
0000
1000
,  // measure 143
0100
0000
0010
0000
0100
0110
0000
0000
,  // measure 144
1000
0100
0010
0001
0000
0010
0000
0001
,  // measure 145
0000
0010
0100
0001
0010
0011
0000
1100
,  // measure 146
1100
0000
1000
0100
0010
0001
0010
0100
,  // measure 147
0010
0000
0001
0010
0100
0010
0000
0001
,  // measure 148
0000
0010
0100
0000
0000
1000
0100
0010
,  // measure 149
0100
0000
1000
0000
0100
0010
0100
0000
,  // measure 150
1001
0000
1001
1001
0000
1001
0000
0000
,  // measure 151
1000
0100
0000
0010
0000
0011
0011
0000
,  // measure 152
0000
1100
0000
1100
0000
0000
1010
1010
,  // measure 153
0000
0000
1000
0010
0000
0001
0000
0010
,  // measure 154
0000
0100
1000
0100
0000
0010
0001
0000
,  // measure 155
0010
0100
0000
0000
0000
1000
0100
0010
,  // measure 156
0001
0010
0000
0000
0100
0010
0001
0010
,  // measure 157
0000
0100
0000
0010
0100
0000
0000
1000
,  // measure 158
0100
0010
0001
0000
0010
0000
0100
0010
,  // measure 159
0100
0000
1010
0000
0001
1000
0001
0000
,  // measure 160
0000
0000
1010
1010
0000
0101
0000
0101
,  // measure 161
0101
0000
0000
1100
0000
1100
0011
0000
,  // measure 162
1100
1010
0000
0000
1000
0100
0010
0001
,  // measure 163
0000
0010
0000
0100
1000
1000
0100
0010
,  // measure 164
0001
0001
0010
0110
0000
0000
1000
0100
,  // measure 165
0010
0001
0010
0100
0010
0001
0001
0010
,  // measure 166
0100
1000
0000
0100
0000
0010
0001
0000
,  // measure 167
0000
0010
0100
1000
0100
0000
0010
0000
,  // measure 168
0001
0010
0100
0000
1000
0100
0000
0010
,  // measure 169
0100
0000
0000
0001
0000
1000
0000
0001
,  // measure 170
0000
1001
1001
0000
0000
1000
0100
0000
,  // measure 171
0010
0000
0011
0011
0000
2200
0000
0000
,  // measure 172
0000
0000
0000
0000
,  // measure 173
0000
0000
0000
0000
,  // measure 174
3300
0000
1000
0100
0010
0001
0010
0100
,  // measure 175
1000
0100
0001
0100
0010
0100
0010
0001
,  // measure 176
0100
1000
0100
0010
0100
1000
0100
0010
,  // measure 177
0001
0010
0100
0010
0001
0010
0100
1000
,  // measure 178
0100
0010
0100
1000
0100
0010
0001
0010
,  // measure 179
0100
0010
0001
0010
0100
1000
0100
0010
,  // measure 180
0100
1000
0100
0010
0001
0010
0100
0010
,  // measure 181
0001
0010
0100
0010
0100
0010
1000
0001
,  // measure 182
1000
0001
1000
0010
1000
0010
1000
0001
,  // measure 183
0100
0001
0010
0100
1000
0100
1000
0100
,  // measure 184
0001
0010
0001
0010
0001
0010
0001
0010
,  // measure 185
1000
0100
1000
0100
0010
0001
0010
0100
,  // measure 186
1000
0100
0010
0001
0010
0100
1000
0100
,  // measure 187
0010
0100
1000
0100
0010
0001
0010
0100
,  // measure 188
0010
0001
0010
0100
1000
0100
0010
0100
,  // measure 189
1000
0100
0010
0001
0010
0100
0010
0001
,  // measure 190
0010
0100
1000
0100
0010
0001
0100
1000
,  // measure 191
0100
0001
0010
1000
0100
1000
0010
0001
,  // measure 192
0100
1000
0100
0001
0010
1000
1000
0100
,  // measure 193
1000
0100
0100
0001
0100
0010
0010
0100
,  // measure 194
0010
0010
1000
1010
0000
0000
1001
0000
,  // measure 195
1000
1000
0010
1000
0010
0010
0001
0010
,  // measure 196
0001
0001
0100
0001
0100
1001
0000
0000
,  // measure 197
1001
0000
0000
0000
;
