#TITLE:LUVORATORRRRRY!;
#SUBTITLE:;
#ARTIST:Unknown artist;
#TITLETRANSLIT:;
#SUBTITLETRANSLIT:;
#ARTISTTRANSLIT:;
#GENRE:;
#CREDIT:;
#BANNER:LUVORATORRRRRY!-banner.png;
#BACKGROUND:Luvoratory.jpg;
#LYRICSPATH:;
#CDTITLE:;
#MUSIC:【GUMI & Rin】 - LUVORATORRRRRY! 「Sub. Español」.mp3;
#OFFSET:0.000000;
#SAMPLESTART:100.000000;
#SAMPLELENGTH:12.000000;
#SELECTABLE:YES;
#BPMS:0.000000=165.000000
,23.000000=176.000000
,44.000000=155.000000
,159.500000=100.000000
,160.500000=185.000000
,207.000000=155.000000
,284.000000=100.000000
,309.000000=185.000000
,355.000000=133.000000
,389.500000=144.000000
,390.000000=155.000000
,390.500000=166.000000
,391.000000=177.000000
,391.500000=188.000000
,392.500000=50.000000
,392.750000=185.000000
,509.333344=133.000000
,558.333313=156.000000
;
#STOPS:
;
#BGCHANGES:;
#KEYSOUNDS:;
#ATTACKS:;

//---------------dance-single - ----------------
#NOTES:
     dance-single:
     :
     Hard:
     9:
     0.599155,0.755259,0.086429,0.436694,0.975739,922.000000,903.000000,19.000000,96.000000,0.000000,1.000000,0.599155,0.755259,0.086429,0.436694,0.975739,922.000000,903.000000,19.000000,96.000000,0.000000,1.000000:
0000
0000
0000
0000
0000
0000
0000
0000
0000
0000
0000
0000
0000
1000
0000
0001
,
0010
0000
0000
0100
0000
0000
0010
1000
0000
0010
0000
0001
0000
0000
0100
0000
,
1000
0000
0000
0100
0000
0001
0100
0000
1000
0000
0100
0000
0010
0000
0001
0000
,
0010
0000
0000
0100
0000
1000
0000
0100
0000
0000
0010
0001
0010
0000
0000
1000
,
0000
0010
0000
0000
0001
0000
0000
0100
0000
1000
0000
0000
0100
0000
0010
0000
,
0001
0010
0000
0000
1000
0010
0000
0001
0000
0000
0100
0000
1000
0000
0000
0000
,
0200
0000
0000
0000
0000
0302
0000
0000
0010
0003
0000
1000
0000
0010
0000
0001
,
0000
0000
0020
0000
0000
0000
2030
0000
0000
0000
0000
3100
0000
0001
0000
0000
,
0010
1000
0000
0100
0000
0000
0010
0000
0001
0000
0000
0000
0000
0010
0000
0000
,
0000
1000
0000
0100
0000
0000
0001
0010
0000
0000
1000
0000
0000
0010
0000
0000
,
0001
0000
0000
0100
0000
0010
0000
0000
0100
0000
1000
0000
0000
0100
0000
0010
,
0000
0000
0001
0000
0000
0000
0010
0000
1000
0010
0000
0000
0001
0000
0010
0000
,
1000
0010
0000
0001
0000
0100
0000
0000
0010
0000
0000
1000
0000
0010
0000
0001
,
0010
0000
0000
1000
0000
0010
0000
0001
0100
0000
1000
0000
0000
0100
0000
0010
,
0000
0000
0001
0000
0010
0000
0000
0100
0000
0000
1000
0000
0000
0100
0000
0001
,
0010
0000
1000
0000
0000
0010
0000
0000
0001
0000
0000
0100
0000
0010
1000
0000
,
0010
0000
0001
0000
0010
0000
0000
0100
0000
0000
0010
0000
0000
1000
0000
0100
,
0000
0010
0001
0000
0010
0000
0100
0000
1000
0100
0000
0010
0001
0000
0000
0000
,
0010
0000
0100
0000
1000
0000
0100
0010
0001
0000
0010
0000
0100
0000
1000
0100
,
0000
0010
0001
0000
0010
0000
0000
0100
0000
1000
0000
0100
1000
0100
0000
1000
,
0000
0100
0000
1000
0010
1000
0010
1000
0000
0001
0000
0010
0000
0001
0000
0010
,
0000
1000
0000
0100
0010
0000
0001
0010
0000
0100
0000
1000
0100
0000
0010
0000
,
0001
0000
0010
0000
0000
0000
0000
1000
0000
0000
0001
0000
0000
0000
0010
0000
,
0000
0000
0100
0000
0000
1000
0000
0000
0000
0000
0000
1001
0000
0000
1010
0000
,
0000
0000
0000
1001
0000
0000
0011
0000
0000
0000
0101
0000
0000
0000
0000
0000
,
1100
0000
0000
0000
1010
0000
0000
0001
0000
0000
0000
0000
0010
0000
0000
1000
,
0000
0000
0100
0000
0010
0000
0001
0000
0000
0010
0000
0000
0100
0000
1000
0000
,
0000
0100
0000
0010
0000
0001
0000
0000
0000
0000
0010
0000
0000
0100
0000
0000
,
0000
1000
0000
0000
0200
0000
0000
0000
0320
0000
0000
0000
0030
0002
0000
0000
,
0000
0023
0000
0000
0000
0130
0000
0000
2000
0000
0000
0000
3200
0000
0000
0000
,
0310
0000
0002
0000
0000
0000
0000
0013
0000
1000
0000
0000
0110
0000
0000
0000
,
0010
0000
0001
0000
0000
0010
0000
0100
0000
1000
0000
0000
0100
0010
0000
0000
,
0001
1001
2002
0000
,
0000
0000
0000
0000
,
0000
0000
0000
0000
,
0000
0003
0001
0000
0001
0000
0010
0000
,
0001
0000
0000
0100
0000
0000
0000
0010
0000
0001
0000
0000
0010
0000
0000
0000
,
0100
0000
0000
0000
0001
0000
0010
0000
0001
0000
0000
0010
0000
0100
0000
3000
,
0000
0010
0000
0000
0000
0100
0000
0000
0010
0000
0100
0000
0010
0000
0100
0000
,
1000
0000
0000
0000
0000
0001
0000
0000
0010
0000
0100
0000
1000
0000
0100
0000
,
1000
0000
0100
0000
0000
1000
0000
0010
0000
0000
0001
0000
0000
0010
0000
0100
,
1000
0000
0100
0000
0010
0000
0001
0000
0000
0010
0000
0000
0100
0000
0000
0010
,
0000
0100
0000
0000
0010
0000
1000
0000
0001
1000
0000
1001
0000
0000
1000
0000
,
0010
0000
0001
0100
0000
1000
0000
0100
0000
0001
0000
0100
0000
0000
1000
0000
,
0010
0000
1000
0000
0001
0000
0010
0000
1000
0000
0000
0010
0001
0000
0100
0000
,
1000
0100
0000
0000
0010
0000
0001
0000
0000
0010
0000
1000
0000
0100
0000
0010
,
0000
0001
0010
0000
0000
0100
0000
0010
0000
1000
0000
0010
0000
0001
0000
0010
,
0000
0100
1000
0000
0000
0100
0010
0001
0000
0010
0000
0100
0000
1000
0000
0000
,
0100
0100
0000
0010
0000
0000
0001
0000
0000
0010
0000
1000
0100
0000
1000
0000
,
0100
0000
0001
0000
0100
0000
0000
1000
0001
0000
0100
0100
0000
1000
0000
0000
,
0010
0000
0000
0000
0001
0000
0000
0010
0000
0000
1000
0010
1000
0001
0000
0010
,
0000
0000
0100
0000
0000
0010
0000
0100
0000
1000
0000
0000
0100
0000
0010
0001
,
0000
0010
0000
0100
0000
1000
0000
0100
0000
0010
0000
0001
0000
0010
0000
0100
,
0000
0000
1000
0000
0100
0000
0010
0000
0001
0010
0000
0100
0010
0000
0100
0000
,
0010
0000
1000
0000
0010
0000
0002
0000
0000
0000
0013
0000
1000
0010
0001
0000
,
0010
0100
0000
1000
0100
0000
0010
0001
0000
0010
0000
0100
0000
1000
0100
0000
,
0010
0001
0010
0000
0100
1000
0100
0000
0010
0001
0000
1000
0000
0001
0000
1000
,
0000
0010
1000
0000
1010
0000
0001
0000
0000
1000
0001
1000
0000
0001
0100
0000
,
0000
0000
0001
0000
0100
0000
1000
0100
0000
0001
0000
0010
1000
0000
0100
0000
,
0010
0001
0010
0000
0100
0000
1000
0000
0100
0000
0010
0001
0000
0010
0100
0100
,
1000
0100
0000
1000
0010
0100
1000
0000
1000
0000
0000
0000
1000
0000
0010
1000
,
0001
0000
0100
1000
0100
0000
0001
0000
1010
0000
0000
0011
0000
0010
1000
0000
,
0000
0000
0001
0000
0010
1000
0000
0100
0000
0001
0000
0010
0000
1000
0000
0001
,
0000
1000
0000
0010
0000
0000
0000
1000
0010
0000
1000
0001
0100
1000
0101
0010
,
1000
0100
0001
1010
0000
0000
0000
0000
0010
0000
0001
0000
0000
0000
0000
0100
,
0000
0000
1000
0000
0100
0000
0001
0010
0000
0000
1000
0000
0010
0000
0000
0000
,
0000
1000
0000
0010
0000
0001
0000
0100
0000
1000
0000
0000
0100
0000
1000
0000
,
0001
0000
0100
0000
1000
0000
0000
0000
0000
1000
0000
0010
0000
0000
0001
0000
,
0000
0010
0000
0000
1000
0000
0010
0000
0000
0001
0000
0000
0000
0000
0000
0000
,
0001
0000
0000
0100
0000
1000
0000
0000
0000
0100
0000
0000
1000
0100
0000
0000
,
1000
0000
0000
0000
0010
0000
0000
0000
1000
0000
0001
0010
0000
1000
0000
0000
,
0001
0000
0010
1000
0000
0001
0000
1000
0000
0010
0000
0000
0000
0000
1000
0000
,
0000
0010
0000
0000
0100
0000
0010
0000
0000
1000
0010
0000
1000
0000
0000
0001
,
0010
0000
0000
1000
0010
0000
0001
0010
,
0000
1000
0000
0010
0000
0000
0000
0001
0000
0000
0000
0000
0000
0001
0000
0000
,
0100
0000
0000
1000
0000
0100
0000
0000
0000
1000
0100
0000
1000
0000
0000
0000
,
0010
0000
0000
0000
0000
1000
0000
0002
0000
0000
0000
0000
0023
0000
0000
0030
,
1000
0000
0100
0000
0010
0002
0000
0000
0000
0020
0003
0000
0000
0230
0000
0000
,
2300
0000
0000
3100
0000
0010
0000
0002
0000
0000
0023
0000
0000
0000
2030
0000
,
0000
0000
3002
0000
0000
0103
0000
1000
0000
0200
0000
0000
0310
0000
0000
0002
,
0000
0000
0013
1000
0000
0010
0000
0001
0000
0100
0000
2000
0000
0100
0000
0000
,
0000
3100
0000
0000
0010
0000
0002
0000
0000
0000
0013
1000
0000
0200
0000
0000
,
0000
0000
0320
0000
0000
0031
0000
1000
0000
0000
0010
0001
0000
0100
0000
1000
,
0000
0200
0000
0000
0000
0320
0000
0000
0032
0000
0000
2003
0000
0000
3010
0000
,
0001
0000
0200
0000
0000
0000
0300
1000
0000
0010
0000
0001
0000
0010
0000
0100
,
0000
1000
0000
0010
0000
0000
0002
0000
0000
0000
0023
0000
0000
0000
0000
0200
,
0030
0000
0000
1300
0000
0000
0100
0000
0020
0000
0000
0000
0000
0000
0032
0000
,
0000
0020
0003
0000
0000
0030
0200
0000
0000
1300
0000
0100
0000
0000
0020
0000
,
0000
0000
0032
0000
0000
0000
0000
0023
0000
0000
0000
0130
0000
0000
0000
1000
,
0000
0100
0000
0000
0010
0000
0001
0000
0000
1000
0000
0000
0010
0000
1000
0000
,
0000
0010
0000
0001
0000
0100
0000
1000
0100
0000
0000
0002
0000
0000
0000
0000
,
0000
0203
0000
0000
0000
2300
0000
0000
0000
3020
0000
0000
0000
0031
0000
0010
,
0000
0000
2000
0000
0000
0000
3000
1000
0000
0000
0020
0000
0000
0000
0000
0032
,
0000
0000
0010
0003
0000
1000
0000
0000
0200
0000
0000
0000
0000
0300
1000
0000
,
0020
0000
0000
0000
0030
0002
0000
0000
0000
0100
0003
0000
1000
0000
0200
0000
,
0020
0000
0300
0000
0000
0000
0031
0000
0000
0010
0000
0000
1000
0000
0010
0000
,
0001
0000
0000
0100
0000
0000
0010
0000
0000
2000
0000
0000
3000
0001
1000
0000
,
0001
0000
1000
0000
0010
0000
1000
0000
0001
0000
0000
0100
1000
0000
0100
0001
,
0010
1000
0000
0100
0000
0010
0000
0001
0000
0010
0000
0100
0000
0000
0000
1000
,
0000
0100
0010
0000
0001
0010
0000
0100
1000
0000
0100
0000
0010
0000
0001
0000
,
0000
0010
0100
0000
1000
0100
0000
1000
0000
0100
1000
0000
0001
0000
1000
0000
,
0001
1000
0000
0000
1000
0000
0000
0010
0001
0000
0100
0000
1000
0100
0000
0010
,
0001
0010
0000
0000
0100
1000
0000
0000
0100
0000
0010
0001
0010
0000
0100
1000
,
0100
0000
1000
0100
1000
0000
0010
0000
1000
0000
0000
0000
1000
0010
0000
0100
,
1000
0000
0100
0000
0000
0010
1000
0000
0100
0000
0010
0000
1000
0100
0000
0000
,
0000
1000
0010
0000
0001
0000
0010
0000
0100
0000
0010
0001
0000
0010
0100
0000
,
0001
0000
0010
0000
1000
0000
0020
0000
0000
0030
1000
0012
0000
0000
0100
0003
,
0000
0000
1000
0000
0001
0010
0000
0100
,
0000
1000
0000
0000
0010
0000
0000
0001
0000
0010
0000
0000
0000
1000
0000
0100
,
0000
0001
0000
0000
0010
0000
1000
0000
0000
0000
0010
0000
0000
0001
0100
0000
,
1000
0000
0000
0100
0100
0000
0001
0000
0100
0000
0000
1000
0000
0000
0010
0000
,
0000
0000
0001
0000
0010
0000
0000
1000
0000
0010
0000
1000
0001
0000
0000
0010
,
0000
0000
1000
0000
0000
0100
0000
0000
0000
0001
0010
0001
0000
0000
0010
0000
,
0000
1000
0000
0000
0010
0000
0001
0000
0000
0100
0000
1000
0000
0000
0100
0000
,
0001
0000
0010
0000
1000
0000
0000
0000
0000
0010
0000
0001
0000
0000
0000
0100
,
0000
0000
1000
0000
0000
0100
0000
0010
0000
0000
1000
0000
0000
0000
0010
0000
,
1000
0000
0000
0010
0000
0000
0001
0000
0100
0000
0000
1000
0000
0000
0100
0000
,
0000
0000
0001
0000
0010
1000
0000
0000
0100
0000
0000
0000
1000
0000
0000
0010
,
0000
0000
1000
0000
0001
0000
0000
0010
0000
1000
0000
0000
0100
0000
0000
0010
,
0000
0000
0001
0000
0010
0000
0000
1000
0000
0000
0100
0000
0000
0010
0000
0000
,
0001
0000
0000
0010
0000
0000
1000
0000
0000
0010
0000
0000
0001
0000
0000
0100
,
0000
1000
0000
0000
0100
0000
0001
0000
0010
1000
0000
0000
0100
0000
0000
0001
,
0000
0000
0000
0000
1000
0000
0000
0000
0020
0000
0000
0000
0031
0000
0000
0100
,
0000
1000
0000
0200
0000
0000
0000
0300
2000
0000
0000
0000
3020
0000
0000
0000
,
0032
0000
0000
0000
0013
1000
0000
0000
0000
0020
0000
0000
0000
0032
0000
0000
,
0000
0000
0203
0000
0000
0000
2300
0000
0000
0000
3100
0000
0000
1000
0000
0000
,
0010
0000
0000
1000
0000
0000
0010
0000
0100
0000
0000
1000
0000
0000
0100
0000
,
0010
0000
1000
0000
0100
0000
1010
0000
0000
1000
0000
0000
0000
0000
1000
0000
,
0000
0000
0002
0000
0000
0000
0013
0000
0000
1000
0000
0000
0100
0000
0020
0000
,
0000
0000
0000
0030
0002
0000
0000
0000
0013
0000
0100
0000
0000
0000
1000
0000
,
0100
0000
0000
0010
0000
0002
0000
0000
0000
0000
0000
0020
0003
0000
0000
0000
,
0230
0000
0000
0000
2300
0000
0000
0000
3100
0000
0000
0010
0000
0001
0000
0020
,
0000
0000
0000
0000
1030
0000
0100
0000
0000
0010
0000
0001
0000
0000
0000
1000
,
0000
0010
0000
0002
0000
0000
0200
0003
0000
0000
0000
0000
2300
0000
0000
0000
,
0000
3020
0000
0000
0000
0031
0000
0000
0000
0010
0000
2000
0000
0000
0000
0000
,
3000
2000
0000
3200
0000
0320
0000
0031
,
0010
0000
0000
0000
0100
0000
0000
0000
0020
0000
0000
0032
0000
0000
0000
0000
,
0023
0000
0000
0000
0130
0000
1000
0000
0000
0000
0100
0000
0000
0010
0000
0000
,
1000
0000
0100
0000
0000
0010
0000
1000
0000
0001
0000
1000
0000
0010
0000
1000
,
0000
0000
0001
0000
0000
0000
0000
1000
0000
0000
0000
0010
0000
0000
0000
0002
,
0000
0000
0103
0000
1000
0000
0200
0000
0000
0000
0000
0310
0000
0000
0002
0000
,
0000
0000
0000
0013
0000
1000
0000
0100
0000
0000
0020
0000
0000
0000
0000
0032
,
0000
0000
0023
0000
0000
0000
0130
0000
0000
1000
0000
0100
0000
0010
0000
0002
,
0000
0000
0000
1013
0000
0000
0010
0000
0001
0000
0010
0000
1000
0000
0100
0000
,
0000
0020
0000
0000
0000
0000
0030
0000
0000
0000
0000
0000
0000
0000
0000
0000
;

//---------------dance-single - ----------------
#NOTES:
     dance-single:
     :
     Challenge:
     8:
     0.570562,0.752700,0.254738,0.459439,0.152388,878.000000,822.000000,56.000000,101.000000,0.000000,0.000000,0.570562,0.752700,0.254738,0.459439,0.152388,878.000000,822.000000,56.000000,101.000000,0.000000,0.000000:
// measure 0
0000
0000
0000
0000
0000
0100
1000
0001
,  // measure 1
0010
0100
1000
0010
0100
1000
0100
0010
,  // measure 2
0001
0000
0010
1000
0100
0010
0001
0010
,  // measure 3
0100
0010
0100
0100
1000
0100
0010
0000
,  // measure 4
0001
0010
0100
0010
0100
1000
0100
0000
,  // measure 5
0001
0010
0001
0010
0001
0000
1010
0000
,  // measure 6
0000
0110
0000
1001
0000
0000
0000
0000
,  // measure 7
1001
1001
0000
0000
0000
1000
0010
0001
,  // measure 8
0100
0001
0000
0000
1001
0000
0110
0000
,  // measure 9
1010
0000
0000
0000
0000
0000
1000
0100
,  // measure 10
0000
0000
0000
0001
0010
0001
0010
0001
,  // measure 11
0000
0000
0100
0000
0010
0000
1000
0000
0100
0000
0000
0000
0001
0000
0010
0100
,  // measure 12
1000
0000
0100
0000
0010
0000
0001
0000
0010
0100
1000
0000
0100
0000
0010
0000
,  // measure 13
0001
0010
0100
0000
0010
0000
0100
0000
1000
0000
0100
0000
0001
0000
0100
0000
,  // measure 14
0010
0000
0001
0000
0010
0000
1000
0000
0100
0000
0010
0000
0000
0010
0001
0010
,  // measure 15
0100
1000
0100
0000
0000
0000
0001
0010
0001
0000
0100
0000
1000
0000
0100
0000
,  // measure 16
0010
0000
0001
0010
0100
1000
0010
0000
0010
0000
0100
0000
0001
1000
0001
1000
,  // measure 17
0001
0000
0000
0000
1000
0001
0010
0100
1000
0000
0100
0010
0001
0000
0010
0100
,  // measure 18
1000
0000
0010
0000
0000
0000
0001
0000
0010
0100
1000
0000
0110
0000
0000
0000
,  // measure 19
0001
0000
0010
0000
0100
0000
0010
0000
0000
0000
0001
0010
0100
0000
1000
0000
,  // measure 20
0010
0001
0010
1000
0100
0010
0000
0001
,  // measure 21
0002
0000
0023
0000
0230
0000
2300
3000
,  // measure 22
0200
0000
0302
0000
0023
0000
2030
3000
,  // measure 23
0200
0302
0000
0000
0203
0000
2300
3020
,  // measure 24
0000
0032
0000
0013
1000
0100
0000
0010
,  // measure 25
0001
0010
0100
0000
1000
0200
0300
0002
,  // measure 26
0000
0023
0000
0230
0320
0000
0230
0000
,  // measure 27
0000
2300
3002
0000
2003
0000
0000
3010
,  // measure 28
1000
0200
0000
0000
0301
0010
0200
0000
,  // measure 29
0320
0000
0032
0000
2003
0000
3000
0100
,  // measure 30
0020
0000
0032
0000
2000
0003
0000
0100
,  // measure 31
0000
0010
0000
0000
0000
0001
0010
0000
,  // measure 32
0000
0000
0100
0010
0001
0010
0001
0010
,  // measure 33
0000
0100
0000
0010
0001
0000
0000
0000
,  // measure 34
0000
0010
0001
0000
0000
0100
0010
0100
,  // measure 35
0010
0001
0000
0000
0010
0000
0100
0000
,  // measure 36
0010
0000
0000
0001
0000
0010
0000
0000
,  // measure 37
0000
0001
0100
0010
0000
0001
0010
0100
,  // measure 38
0000
0000
0010
0001
0000
0000
0000
0010
,  // measure 39
0100
0000
0000
0000
0000
0000
0000
0000
0001
0000
0010
0000
3100
0000
0000
1001
,  // measure 40
0000
1000
0000
0100
0010
0000
0001
0100
,  // measure 41
0000
0010
0001
0010
0100
0010
0000
1000
,  // measure 42
0000
0100
0010
0001
0010
0100
0000
1000
,  // measure 43
0100
0010
0001
0010
0000
0100
1000
0100
,  // measure 44
0010
0001
0000
0010
0100
0010
0000
0001
,  // measure 45
0010
0000
0100
0000
0000
0100
1000
0100
1000
0100
1000
0100
0010
0000
0000
0000
,  // measure 46
0001
0010
0100
0000
0010
0001
0010
0100
,  // measure 47
0010
0000
0100
1000
0000
0001
1000
0010
,  // measure 48
0001
1000
0010
0000
0001
0100
0000
0010
,  // measure 49
0001
0010
0000
0100
0010
0100
1000
0100
,  // measure 50
0000
0010
0001
0000
0010
0100
0010
0001
,  // measure 51
0010
0100
1000
0100
0010
0000
0001
0010
,  // measure 52
1000
0000
0100
0000
0010
0000
0001
0000
0100
0000
1000
0000
0100
0000
0100
0010
,  // measure 53
0001
0000
0100
0000
0010
0001
0010
0000
1000
0100
1000
0000
0010
0000
0100
0000
,  // measure 54
1000
0001
1000
1001
0010
1000
0010
1001
,  // measure 55
1001
0000
0000
0000
1000
0000
0010
0100
0001
0000
1000
0000
0100
0000
0010
0100
,  // measure 56
1000
0000
0010
0000
0001
0000
0100
0000
0010
0000
1000
0100
0010
0000
0001
0010
,  // measure 57
0100
0000
1000
0100
0010
0000
0001
0000
0010
0000
0100
0000
0010
0100
0010
0000
,  // measure 58
0100
0000
1000
0000
0001
1000
0001
0000
1000
0000
0010
0000
0001
0000
0100
0000
,  // measure 59
1000
0100
0110
0001
0010
0100
0010
0011
,  // measure 60
0000
0000
0100
0000
1000
0100
0010
0001
0010
0100
1000
0100
0010
0001
0010
0100
,  // measure 61
1000
0001
1000
1000
0100
0010
0001
0100
,  // measure 62
1000
0100
0010
0000
0000
0001
0010
0100
,  // measure 63
1000
0100
0001
0010
0100
0000
1000
1000
,  // measure 64
0100
0010
0000
0001
0110
0000
0110
0000
,  // measure 65
0000
0110
0110
1001
1001
1010
1010
0011
,  // measure 66
0000
0000
0010
0100
1000
0100
0001
0010
,  // measure 67
0100
0010
0000
0001
0010
1000
0100
0010
,  // measure 68
0001
0010
0100
0010
0000
1000
0100
0001
,  // measure 69
1000
0001
1000
0010
0001
0000
0000
0001
,  // measure 70
0010
0100
0001
0010
0001
0100
0001
0000
,  // measure 71
2000
0000
3200
0320
0031
0010
0002
0000
,  // measure 72
0023
0230
1300
0010
0002
0023
0230
0000
,  // measure 73
0320
0000
0130
0000
1200
0000
0000
0000
0301
0010
0001
0000
0001
0000
0010
0100
,  // measure 74
1000
0200
0302
0013
0100
0010
0100
0020
,  // measure 75
1030
0000
0002
0000
0000
0000
1003
0010
0001
1000
0200
0000
0000
0000
0320
0000
,  // measure 76
0230
0000
1300
0000
0001
0000
0010
0200
0000
0000
0301
0000
0010
0100
1000
0000
,  // measure 77
1100
0010
0000
2000
0000
3002
0000
0000
,  // measure 78
0023
0000
0130
0010
0000
0200
0000
0000
,  // measure 79
2300
0000
3002
0000
2003
0000
3010
0001
,  // measure 80
0000
0100
2000
0000
3200
0000
0000
0302
,  // measure 81
0000
0013
0100
0000
0020
0000
1030
0001
,  // measure 82
1000
0100
0010
0001
0100
1000
0000
0001
,  // measure 83
0010
0000
0000
2000
0000
3020
0030
0002
,  // measure 84
0000
0103
0001
0020
0000
0000
1030
0200
,  // measure 85
0000
0000
0300
1000
0010
1000
0000
0020
,  // measure 86
0000
0000
2030
0000
3002
0000
0000
0013
,  // measure 87
0100
0010
0000
0002
0000
0013
0100
0100
,  // measure 88
1000
0000
0100
0000
0010
0000
0000
0000
0200
0000
0000
0000
0300
0000
1000
0100
,  // measure 89
0010
0001
0010
0001
0000
0000
0100
0000
0010
0000
0001
0010
0100
0000
1000
0000
,  // measure 90
0100
0010
0001
0010
0100
1000
0100
0000
0010
0000
0001
0000
0000
0000
0010
0000
,  // measure 91
1000
0100
0010
0100
0010
0100
0001
0000
0100
0000
0010
0100
0001
0000
0100
0000
,  // measure 92
1000
0000
0010
0100
1000
0100
0010
0001
0010
0100
1000
0000
1000
0000
0100
0000
,  // measure 93
0001
0010
0100
1000
0110
0001
0010
0100
,  // measure 94
1000
0000
0100
0010
0001
0000
0100
0000
1000
0100
0010
0001
0010
0000
0000
0000
,  // measure 95
0100
0010
0100
0010
0100
0001
1000
0010
,  // measure 96
0000
0000
0001
0000
0100
1000
0100
0010
0001
0000
1000
0000
0100
0000
1000
0000
,  // measure 97
0001
1000
0000
1001
1001
1001
1001
1001
,  // measure 98
0000
2002
3003
1000
0100
0000
0010
0001
,  // measure 99
0010
0100
0010
0100
0000
0010
1000
0000
,  // measure 100
0100
0010
0100
0001
0100
0000
0010
0100
,  // measure 101
1000
0000
0001
1000
0001
0000
1000
0010
,  // measure 102
0000
0010
0001
0010
0000
0100
0010
0000
,  // measure 103
0100
0000
1000
0000
0000
0000
0001
0000
1000
0001
1000
0001
1000
0001
1000
0000
,  // measure 104
0001
0010
0100
0000
0010
0001
0010
0100
,  // measure 105
1000
0100
0000
0010
0001
0000
0010
0100
,  // measure 106
0000
1000
0010
0000
0001
0010
0100
0000
,  // measure 107
0010
0001
0000
0010
1000
0100
0000
0010
,  // measure 108
1000
0000
0100
0010
0000
0001
0010
0000
,  // measure 109
0100
0001
0010
0000
1000
0001
0000
2000
,  // measure 110
0000
3002
0000
0000
0023
0000
0130
0000
,  // measure 111
0010
0200
0000
0300
2000
0000
3002
0000
,  // measure 112
0023
0000
0130
0010
0000
0001
0000
2000
,  // measure 113
0000
3200
0000
0302
0000
0013
0000
1000
,  // measure 114
0100
0000
0010
0001
0000
0010
0100
1000
,  // measure 115
0100
0010
0000
1001
0110
0000
0000
0010
,  // measure 116
0000
0100
0000
1000
0000
0100
0010
0002
,  // measure 117
0000
0000
1003
0020
0000
0000
0000
0031
,  // measure 118
0100
1000
0200
0000
0000
0300
0002
0000
,  // measure 119
0023
0000
0030
0100
1000
0100
0000
0020
,  // measure 120
0000
0031
0000
0010
0100
0000
1000
0100
,  // measure 121
0000
0010
0000
1001
0000
0000
1010
0000
,  // measure 122
0101
0000
0000
1100
0011
0000
0011
0000
,  // measure 123
0000
0101
0000
1010
0000
1100
0000
0011
,  // measure 124
0011
0011
0000
0101
0000
1010
0000
0000
,  // measure 125
1100
0000
1010
1010
0000
1010
1100
0000
,  // measure 126
0001
0010
0000
0110
0000
0110
0000
0100
,  // measure 127
1000
0000
0000
2000
3002
0000
0023
0130
,  // measure 128
1000
0200
0000
0302
0020
0003
0130
0010
,  // measure 129
0100
0020
0000
2030
0000
3002
0000
0013
,  // measure 130
0100
1000
0200
0300
0001
0010
0100
1000
,  // measure 131
0002
0020
0000
0000
0000
0000
0000
0000
,  // measure 132
0000
0000
0000
0033
0000
0000
0000
0000
;
