#TITLE:Iris;
#SUBTITLE:;
#ARTIST:Unknown artist;
#TITLETRANSLIT:;
#SUBTITLETRANSLIT:;
#ARTISTTRANSLIT:;
#GENRE:;
#CREDIT:;
#BANNER:banner3.png;
#BACKGROUND:thumb-1920-425292.jpg;
#LYRICSPATH:;
#CDTITLE:;
#MUSIC:Iris - The Goo Goo Dolls (lyrics).mp3;
#OFFSET:0.000000;
#SAMPLESTART:99.971581;
#SAMPLELENGTH:12.000000;
#SELECTABLE:YES;
#BPMS:0.000000=154.000000
;
#STOPS:
;
#BGCHANGES:;
#KEYSOUNDS:;
#ATTACKS:;

//---------------dance-single - ----------------
#NOTES:
     dance-single:
     :
     Hard:
     6:
     0.339255,0.686006,0.437461,1.340157,0.000000,684.000000,558.000000,126.000000,386.000000,0.000000,12.000000,0.339255,0.686006,0.437461,1.340157,0.000000,684.000000,558.000000,126.000000,386.000000,0.000000,12.000000:
// measure 0
0000
0000
2000
0000
,  // measure 1
3200
0000
0320
0000
0032
0000
0000
0013
,  // measure 2
0100
1000
0000
0200
0000
0320
0000
0032
,  // measure 3
0000
0023
0230
0000
,  // measure 4
2300
0200
3000
0000
0320
0000
0000
0032
,  // measure 5
0000
0000
0023
0000
0000
0230
0000
0000
,  // measure 6
2300
0000
3200
0320
0000
0000
0000
0032
,  // measure 7
0000
0000
0023
0000
0030
0200
0000
0000
,  // measure 8
2302
0000
0023
3000
0032
0000
0000
0000
,  // measure 9
0023
0230
0000
2300
0000
0000
3100
0020
,  // measure 10
0000
0032
0000
0000
0000
0000
2003
0000
,  // measure 11
0000
0000
3100
0010
0002
0000
0000
0013
,  // measure 12
0200
0000
2300
0000
3100
0020
0000
0032
,  // measure 13
0000
0000
0000
0000
,  // measure 14
0003
1000
0200
0320
0000
0000
0032
0000
,  // measure 15
0013
0200
0000
0320
0000
0000
1030
0200
,  // measure 16
0000
0000
0310
0002
0000
0023
0000
0000
,  // measure 17
0000
1030
0200
0000
0320
0000
0032
0020
,  // measure 18
0003
0230
0000
0000
2300
3200
0000
0320
,  // measure 19
0000
0000
0000
2030
,  // measure 20
3002
0020
0003
0230
0000
0000
0000
2300
,  // measure 21
3100
0020
0000
0000
0032
0023
0200
0030
,  // measure 22
2300
3200
0000
0000
,  // measure 23
0300
0000
0010
0002
0000
0200
0003
2300
,  // measure 24
0000
3200
0000
0000
0302
0020
0003
0000
,  // measure 25
2030
0000
0000
0000
3010
0000
1001
0100
,  // measure 26
0010
0000
0001
0020
0000
2030
0000
0000
,  // measure 27
0000
3100
0020
0032
0000
0000
0013
0200
,  // measure 28
0000
2300
0000
0000
0000
0000
0000
3002
,  // measure 29
0000
0023
0000
0230
0000
2300
0000
0000
,  // measure 30
3100
0020
0000
0032
0000
0023
0000
0230
,  // measure 31
0000
0000
0000
0000
0000
0300
1001
1001
,  // measure 32
0000
1001
0000
2002
0000
0000
0003
3000
,  // measure 33
0110
0220
0000
0000
0330
1001
2001
0000
,  // measure 34
3000
2002
0000
0000
0000
0000
0000
3003
,  // measure 35
1000
0200
0000
0320
0000
0032
0000
0023
,  // measure 36
0000
0230
0000
0300
2000
0200
3000
0320
,  // measure 37
0000
0000
0000
0000
0000
0000
0000
0030
,  // measure 38
0000
1001
0000
1001
1001
0000
0000
1001
,  // measure 39
0000
1001
0000
0000
1001
1001
0000
1001
,  // measure 40
0000
2002
0000
0000
0000
0000
3003
0000
,  // measure 41
1000
0100
0000
0020
0000
0000
0032
0000
,  // measure 42
0013
0200
0000
0000
1300
0200
0000
0000
,  // measure 43
0320
0000
0000
0000
0000
0000
0000
1031
,  // measure 44
1001
0000
1001
0000
2002
0000
0003
3020
,  // measure 45
0000
0030
0002
0000
0000
0203
0000
2300
,  // measure 46
0000
3200
0000
0320
0000
0000
0000
0032
,  // measure 47
0000
0000
0023
0000
0000
0032
0000
0000
,  // measure 48
0203
0000
2300
0000
3200
0000
0000
0320
,  // measure 49
0000
0000
0032
0000
0000
0023
0000
0000
,  // measure 50
2030
0000
3200
0000
0320
0000
0000
0032
,  // measure 51
0000
0000
0023
0000
0000
0230
0000
1300
,  // measure 52
0200
0000
0000
0320
0000
0031
0020
0000
,  // measure 53
0002
0030
0020
0003
0230
0000
2300
0000
,  // measure 54
0000
0000
3200
0000
0000
0000
0302
0020
,  // measure 55
0003
0230
0000
2300
0000
0000
3100
0020
,  // measure 56
0000
0032
0023
0000
0032
0000
0000
0000
,  // measure 57
0200
0003
2300
0000
0020
3000
0032
0000
,  // measure 58
0020
0003
2030
0000
3200
0000
0000
0320
,  // measure 59
0002
0030
0000
0013
0002
0000
0203
0000
,  // measure 60
0000
0000
0000
0000
0000
2300
0000
3100
,  // measure 61
0000
0020
0000
0032
0000
0013
0200
0000
,  // measure 62
0000
2300
0000
3200
0000
0302
0000
0000
,  // measure 63
0000
0000
0000
0000
0010
0000
0010
0010
,  // measure 64
0003
0000
2002
0000
0000
3003
1001
2002
,  // measure 65
0000
0000
0003
3000
1001
2002
0000
3000
,  // measure 66
2000
0000
0000
0000
0000
3003
0000
1001
,  // measure 67
0000
0000
2002
0000
3103
0000
0020
0032
,  // measure 68
0000
0000
0023
0230
0000
0000
2300
0000
,  // measure 69
0000
0000
0001
3000
0001
0001
0010
0000
,  // measure 70
0001
0000
0110
0110
0000
0020
0000
0000
,  // measure 71
2030
0000
3100
0020
0000
0032
0000
0023
,  // measure 72
0000
0000
0030
1001
,  // measure 73
1001
0000
2001
3000
0000
1001
0000
1000
,  // measure 74
0200
0000
0300
0001
0010
0000
2200
0000
,  // measure 75
0000
0000
0000
0000
0000
0300
3000
0011
,  // measure 76
0000
0011
0000
0011
0011
0000
0011
0000
,  // measure 77
0000
1100
0000
1100
0000
1100
0000
2020
,  // measure 78
0000
0000
0000
3030
0000
0022
0000
0000
,  // measure 79
0000
0033
0002
0200
0000
0000
0000
0303
,  // measure 80
2200
0000
0000
0000
0000
3300
0000
2020
,  // measure 81
0000
0000
0000
0000
0000
3200
0000
0000
,  // measure 82
0000
0330
2002
0000
0000
0000
0000
0000
,  // measure 83
3003
0022
0000
0000
0000
0000
0033
2200
,  // measure 84
0000
0000
0000
0000
,  // measure 85
0000
3300
2020
0000
0000
0000
0000
3030
,  // measure 86
0202
0000
0000
0000
0000
0000
0303
2020
,  // measure 87
0000
0000
0000
0000
,  // measure 88
3030
0000
1000
1000
0100
0100
0000
0000
,  // measure 89
0000
1001
1001
1001
0000
0000
1001
0000
,  // measure 90
1001
2002
0000
0000
,  // measure 91
0000
0000
0000
0000
0000
3003
0000
0000
,  // measure 92
0000
1001
1001
1001
1001
0000
0000
1001
,  // measure 93
1001
1001
1001
0000
1001
0000
1001
0000
,  // measure 94
2002
0000
0000
0000
0020
0003
3230
0000
,  // measure 95
0000
2300
0000
0000
3200
0000
0320
0030
,  // measure 96
1010
1010
1010
1010
0000
0000
0010
0010
,  // measure 97
0010
0000
0000
1001
0000
1001
0000
2002
,  // measure 98
0000
0000
0000
0000
0000
3023
0000
0000
,  // measure 99
0230
0000
0320
0000
0130
0000
0000
1001
,  // measure 100
1001
1001
0000
0000
1001
1001
1001
1001
,  // measure 101
0000
2001
0000
0020
0000
3230
0000
0000
,  // measure 102
0000
2300
0000
3200
0000
0320
0000
0000
,  // measure 103
0032
0000
0020
0003
0230
0000
0000
2300
,  // measure 104
0000
0000
3200
0000
0000
0320
0000
0032
,  // measure 105
0000
0023
0000
0032
0000
0000
0203
0000
,  // measure 106
0000
2300
0000
0000
3200
0000
0000
2300
,  // measure 107
0000
3020
0000
2030
0000
0020
3000
0000
,  // measure 108
0230
0000
0000
0320
0000
0000
0230
0000
,  // measure 109
0302
0020
0003
0000
0230
0000
0000
0320
,  // measure 110
0000
0000
0032
0000
0000
0203
0000
0302
,  // measure 111
0000
2003
0000
3000
0002
0000
2003
0000
,  // measure 112
0000
3002
0000
0000
2003
0000
3200
0000
,  // measure 113
2300
0000
0000
3020
0000
2030
0000
0000
,  // measure 114
3020
0000
0000
2030
0000
3002
0000
2003
,  // measure 115
0000
0000
3002
0000
0200
0003
0000
2300
,  // measure 116
0000
0000
3200
0320
0000
0032
0000
0000
,  // measure 117
0020
0003
0000
0230
0000
0000
2300
0000
,  // measure 118
0000
3100
0020
0000
0230
0000
0000
2300
,  // measure 119
0000
0000
3002
0000
0000
2003
0000
3002
,  // measure 120
0000
0020
0003
0230
0000
0000
0320
0000
,  // measure 121
0230
0000
0000
0000
0302
0000
0000
0203
,  // measure 122
0000
0302
0200
0003
0000
2300
0000
0200
,  // measure 123
3000
0320
0032
0023
,  // measure 124
0230
0000
0000
0000
,  // measure 125
0000
0000
0000
0000
0000
0000
1300
0100
,  // measure 126
0000
0010
0001
0010
0000
0100
0000
1000
,  // measure 127
0100
0010
0001
0010
0100
0000
1000
0000
,  // measure 128
0100
0000
0010
0001
0000
0020
0000
0000
,  // measure 129
0230
0000
0000
2300
0000
3200
0000
0320
,  // measure 130
0000
0032
0000
0023
0000
0230
0000
2300
,  // measure 131
0000
0000
0000
0000
0000
3200
0000
0000
,  // measure 132
0000
0000
0320
0000
0000
0032
0000
0023
,  // measure 133
0230
0000
0000
0000
2300
0000
0000
3200
,  // measure 134
0000
0000
0000
0320
0000
0000
0000
0000
,  // measure 135
0000
0000
0000
0001
0000
0000
0031
0000
,  // measure 136
0000
0022
0000
0000
0033
0000
1100
2200
,  // measure 137
0000
0000
3300
1010
1010
0000
2020
0000
,  // measure 138
0000
0000
0000
3030
0000
0011
0011
0202
,  // measure 139
0000
0000
0303
0200
2300
0000
3020
0000
,  // measure 140
0032
0023
2030
0000
,  // measure 141
0000
0000
3200
0310
,  // measure 142
0001
0020
0000
2030
0000
0000
3200
0000
,  // measure 143
0310
0002
0000
0023
0000
0032
0000
0000
,  // measure 144
0000
0000
0000
0000
0103
1000
0000
0200
,  // measure 145
0000
0320
0000
0031
0020
0000
0000
0030
,  // measure 146
1000
0200
0000
0320
0000
0000
0000
0000
,  // measure 147
0000
0000
0000
0030
0000
1001
1001
1001
,  // measure 148
1001
0000
1001
1001
0000
1001
0000
1001
,  // measure 149
1001
0000
0000
2002
0000
0000
3003
0110
,  // measure 150
0220
0000
0000
0330
0000
1001
1000
0000
,  // measure 151
2002
0000
0000
0000
0000
3003
1001
0001
,  // measure 152
1000
0020
0000
0000
1130
0000
1100
0000
,  // measure 153
0022
0033
0101
0000
0101
0000
0202
0000
,  // measure 154
0000
0000
0000
0000
0000
0303
0000
1100
,  // measure 155
0000
0000
1100
1100
0000
0020
0000
0032
,  // measure 156
0000
0010
0203
0000
2300
0000
0000
3200
,  // measure 157
0000
0000
0000
0300
0000
1001
1001
0000
,  // measure 158
2002
0000
0003
0020
0000
3031
0200
0000
,  // measure 159
0000
0000
1300
0200
0000
0302
0000
0000
,  // measure 160
0000
0000
0000
0003
0000
1000
0001
0000
,  // measure 161
2000
0000
0000
3002
0000
0013
0200
0000
,  // measure 162
0310
0200
2302
0000
,  // measure 163
0000
0000
0000
3003
0000
1000
0100
0020
,  // measure 164
0000
0000
0032
0000
0010
0203
0000
0000
,  // measure 165
0310
0200
0000
0000
0320
0000
0000
0000
,  // measure 166
0000
0000
0000
0030
1000
0200
0000
0320
,  // measure 167
0000
0032
0000
0000
0013
0200
0000
0000
,  // measure 168
1300
0000
0200
0000
0002
0300
0000
0000
,  // measure 169
0000
0000
0000
0000
0000
0000
0000
0003
,  // measure 170
0000
1000
0000
0110
0001
0000
0010
0000
,  // measure 171
0100
0000
0010
0100
1000
0100
0000
0010
,  // measure 172
0000
0001
0010
0100
0010
0000
0001
0000
,  // measure 173
0001
0000
0010
0100
1000
0100
0010
0000
,  // measure 174
0100
0010
0200
0000
,  // measure 175
0000
0320
0000
0000
0000
0000
0000
0230
,  // measure 176
0000
0000
0000
0000
0000
0320
0000
0000
,  // measure 177
0000
0000
2030
0000
,  // measure 178
0000
0002
3000
0000
0000
0000
0000
2003
,  // measure 179
0000
0000
0000
0000
0000
3000
0000
0000
;
