#VERSION:0.83;
#TITLE:Indigo Children;
#SUBTITLE:;
#ARTIST:Unknown artist;
#TITLETRANSLIT:;
#SUBTITLETRANSLIT:;
#ARTISTTRANSLIT:;
#GENRE:;
#ORIGIN:;
#CREDIT:;
#BANNER:banner.png;
#BACKGROUND:Ascension.jpg;
#PREVIEWVID:;
#JACKET:;
#CDIMAGE:;
#DISCIMAGE:;
#LYRICSPATH:;
#CDTITLE:;
#MUSIC:PUSCIFER - Indigo Children.mp3;
#OFFSET:0.000000;
#SAMPLESTART:99.971581;
#SAMPLELENGTH:12.000000;
#SELECTABLE:YES;
#BPMS:0.000=156.000;
#STOPS:;
#DELAYS:;
#WARPS:;
#TIMESIGNATURES:0.000=4=4;
#TICKCOUNTS:0.000=4;
#COMBOS:0.000=1;
#SPEEDS:0.000=1.000=0.000=0;
#SCROLLS:0.000=1.000;
#FAKES:;
#LABELS:0.000=Song Start;
#BGCHANGES:;
#KEYSOUNDS:;
#ATTACKS:
;

//---------------dance-single - ----------------
#NOTEDATA:;
#CHARTNAME:;
#STEPSTYPE:dance-single;
#DESCRIPTION:;
#CHARTSTYLE:;
#DIFFICULTY:Hard;
#METER:8;
#RADARVALUES:0.503353,0.615117,0.238407,0.043347,0.000000,1138.000000,1061.000000,77.000000,14.000000,0.000000,1.000000,0.000000,0.000000,0.000000,0.503353,0.615117,0.238407,0.043347,0.000000,1138.000000,1061.000000,77.000000,14.000000,0.000000,1.000000,0.000000,0.000000,0.000000;
#CREDIT:;
#NOTES:
// measure 0
0000
0000
0000
0000
,  // measure 1
0000
0000
0000
0000
0000
2000
0000
0000
,  // measure 2
0000
0000
0000
0200
,  // measure 3
0000
0000
0000
0000
0000
0000
0000
3002
,  // measure 4
0000
0000
0000
0300
,  // measure 5
0020
0000
0000
0030
0003
0000
0000
0000
,  // measure 6
0000
0000
0000
0000
,  // measure 7
0000
0000
0000
0000
,  // measure 8
0000
0000
0000
0000
,  // measure 9
0000
0000
0000
0000
,  // measure 10
0000
0000
0000
0000
,  // measure 11
0000
0000
0000
0100
,  // measure 12
1000
0000
0100
0000
0010
0001
0010
0100
,  // measure 13
1000
0000
0100
0000
0000
0000
0000
0001
,  // measure 14
0010
0100
1000
0100
0000
0020
0000
0000
,  // measure 15
0000
0000
0030
0000
0000
1001
0000
1000
,  // measure 16
0100
0010
0000
0001
0010
0100
1000
0100
,  // measure 17
0010
0000
0000
0001
0010
0100
0001
0000
,  // measure 18
0010
0000
0100
0000
1000
0100
0010
0100
,  // measure 19
1000
0100
0010
0000
0100
1000
0100
0010
,  // measure 20
0100
1000
0000
0010
0100
0010
0001
0010
,  // measure 21
0100
1000
0100
0010
1000
0100
0010
0000
,  // measure 22
0001
0000
0110
0000
0010
0100
1000
0000
,  // measure 23
0001
0000
1000
0000
0100
0010
0000
0001
,  // measure 24
0000
0001
0010
0100
1000
0100
0000
0010
,  // measure 25
0000
0001
0000
0010
0100
1000
0000
0100
,  // measure 26
0010
0100
1000
0100
0000
0001
0010
0000
,  // measure 27
0100
0000
0001
0010
0100
0000
1000
0100
,  // measure 28
0010
0001
0010
0000
0100
0010
0000
1000
,  // measure 29
0000
0001
0000
1000
0000
1000
0100
0010
,  // measure 30
0001
0010
0000
0100
0000
0000
0000
0000
,  // measure 31
1000
0100
0010
0100
0001
0010
0100
0000
,  // measure 32
0000
0000
0000
1001
,  // measure 33
0001
0010
0100
1000
0100
0010
0000
0011
,  // measure 34
0000
1100
0000
0000
0001
0010
0100
1000
,  // measure 35
0000
0100
0000
0010
0001
0010
0100
0010
,  // measure 36
0000
0001
0010
0100
1000
0100
0010
0100
,  // measure 37
1000
0100
0010
0001
0010
0100
0010
0001
,  // measure 38
0010
0100
1000
0100
0010
0100
0010
0000
,  // measure 39
0100
0010
0000
0000
0000
1001
0000
0110
,  // measure 40
0000
0000
0100
1000
0100
0010
0001
0010
,  // measure 41
0100
1001
0000
0000
,  // measure 42
0000
0000
1001
0000
1000
0100
0010
0000
,  // measure 43
0001
0010
0100
1000
0000
0100
0000
0000
,  // measure 44
0001
0010
0100
0010
0000
0001
0000
0010
,  // measure 45
0100
1000
0100
0010
0001
0010
0100
1000
,  // measure 46
0100
0010
0001
0010
0100
1000
0100
0010
,  // measure 47
0001
0010
0100
1000
0100
0010
0001
0010
,  // measure 48
0100
1000
0100
0010
0100
0010
0100
1001
,  // measure 49
0000
1001
0000
1001
0000
1001
1000
0100
,  // measure 50
0010
0001
0010
0100
0101
0000
1010
0000
,  // measure 51
0101
0000
0000
1001
,  // measure 52
1000
0100
0010
0001
0010
0100
1000
0100
,  // measure 53
0000
0001
0010
0001
0010
0001
0010
0001
,  // measure 54
0000
0010
0000
0100
1000
0100
0010
0001
,  // measure 55
0000
0010
0100
0000
0010
0000
0001
0010
,  // measure 56
0100
0000
1000
0100
0010
0001
0010
0000
,  // measure 57
0100
0000
1000
0100
0000
0010
0001
0010
,  // measure 58
0000
0100
0000
0100
0010
0100
0000
1000
,  // measure 59
0000
0001
0000
1000
0000
0100
0010
0001
,  // measure 60
0010
0100
0010
1000
0100
1000
0100
0000
,  // measure 61
0010
0000
0001
0000
0010
0100
1000
0000
,  // measure 62
0100
0010
0001
0010
0100
1000
0000
0100
,  // measure 63
0000
1010
0000
0101
0000
1010
0000
0100
,  // measure 64
0010
0001
0010
0100
0000
1000
0000
0000
,  // measure 65
0000
0000
1000
0001
1000
0001
1000
0000
,  // measure 66
0110
0000
0000
0000
,  // measure 67
1001
0000
1000
0100
0010
0000
0001
0010
,  // measure 68
0100
0010
0001
0010
0000
0000
1000
0100
,  // measure 69
0010
1000
0000
0100
0000
0010
0001
0010
,  // measure 70
0100
0000
1000
0000
0100
0000
0010
0001
,  // measure 71
0010
0100
1000
0100
0010
0001
0010
0100
,  // measure 72
1000
0100
0010
0001
0010
0000
1000
0001
,  // measure 73
1000
0000
0001
1000
0000
0000
0000
1001
,  // measure 74
0000
1001
0000
0000
0100
1000
0100
0010
,  // measure 75
0001
0010
0100
0000
0010
0000
0000
0000
,  // measure 76
0000
0000
0000
0000
1001
0000
1000
0100
,  // measure 77
0010
1000
0100
0010
0000
0001
0000
0010
,  // measure 78
0000
0100
0010
0001
0100
1000
0000
0100
,  // measure 79
0000
0010
0000
0001
0010
1000
0100
0010
,  // measure 80
0000
0001
0010
0000
0100
1000
0100
0010
,  // measure 81
0001
0010
0100
1000
0100
0010
0001
0010
,  // measure 82
0100
1000
1000
0100
0010
0001
0010
0100
,  // measure 83
0010
1001
0000
1001
0000
1001
0000
1001
,  // measure 84
0000
1000
0010
0001
0010
0000
0101
0000
,  // measure 85
1010
1001
0000
0000
,  // measure 86
1001
0000
1000
0100
0010
0001
0010
0100
,  // measure 87
0010
0010
0000
0100
0000
0100
1000
0100
,  // measure 88
0010
0001
0000
0010
0000
0100
0000
0010
,  // measure 89
0100
0010
1000
0000
0001
0000
1000
0100
,  // measure 90
0010
0001
0010
0100
1000
0100
0010
0001
,  // measure 91
0010
0100
1000
0100
0000
0000
1001
0000
,  // measure 92
0000
0000
1100
0000
0000
0011
0000
0000
,  // measure 93
0101
1000
0100
0000
0000
1000
0000
0100
,  // measure 94
0010
0001
0010
0100
0010
0000
0000
0000
,  // measure 95
0000
0000
1001
1000
,  // measure 96
0100
0000
0010
0001
0010
0000
0001
0000
,  // measure 97
0010
0100
1000
0100
0010
0001
0000
0010
,  // measure 98
0000
0100
0000
1000
0000
0100
1000
0100
,  // measure 99
1000
0000
0200
0000
0000
0320
0000
0000
,  // measure 100
0032
0000
0020
0003
0000
0230
0000
0000
,  // measure 101
0000
0000
0000
2300
0000
0000
0000
0000
,  // measure 102
0000
0000
0200
0000
,  // measure 103
0000
0000
0000
0000
0000
3000
0000
0000
,  // measure 104
0000
0000
0000
0000
,  // measure 105
0000
0000
0000
0000
,  // measure 106
0000
0000
0000
0000
,  // measure 107
0000
0301
0000
1001
0000
0000
0000
1000
,  // measure 108
0000
0001
0000
1000
0000
0000
0000
1000
,  // measure 109
0000
0001
1000
0000
0000
0001
0000
0000
,  // measure 110
1000
0001
0000
1000
,  // measure 111
0001
1000
0001
0000
1000
0001
0000
1000
,  // measure 112
0000
0001
0000
0000
0000
1000
0000
0001
,  // measure 113
1000
0001
0000
1000
0001
0000
0000
1000
,  // measure 114
0000
0001
0000
0000
1000
0000
0001
1000
,  // measure 115
0001
0000
1000
0001
0000
0000
1000
0000
,  // measure 116
0001
0000
0000
1000
0100
0010
0000
0001
,  // measure 117
0010
0100
1000
1001
0000
1001
0000
1001
,  // measure 118
0000
1001
0000
1000
0100
0010
0001
0010
,  // measure 119
0100
0010
0100
0000
,  // measure 120
0000
0000
1001
0000
1000
0100
0010
0001
,  // measure 121
0010
0100
0010
0001
0000
0010
0000
0100
,  // measure 122
1000
0100
0010
0100
0000
1000
0000
0100
,  // measure 123
0000
0001
0000
0010
0100
0010
0001
0010
,  // measure 124
0100
1000
0010
0100
1000
0100
0010
0001
,  // measure 125
0010
0100
1000
0100
0010
0001
0000
1001
,  // measure 126
0000
0000
0000
0101
0000
0000
0000
0011
,  // measure 127
0000
0101
0000
1010
0000
1100
0000
1000
,  // measure 128
0000
0100
0001
0010
0100
0000
1001
0000
,  // measure 129
0000
0000
0000
1001
,  // measure 130
1000
0000
0100
0000
0010
0001
0010
0001
,  // measure 131
0000
0100
0000
0010
0000
1000
0010
0100
,  // measure 132
0000
0010
0000
0100
0000
1000
0001
1000
,  // measure 133
0000
1000
0100
0000
0010
0000
0001
0100
,  // measure 134
0010
0000
0100
0010
0100
0010
0100
0000
,  // measure 135
1000
0000
0001
0000
1000
0100
1000
0000
,  // measure 136
0010
1000
0000
0010
0001
0010
0000
0001
,  // measure 137
0000
0100
0000
0100
1000
0100
0000
1000
,  // measure 138
0010
0000
1000
0010
1000
0000
0001
0000
,  // measure 139
1000
0000
0001
0010
0001
0000
0010
0000
,  // measure 140
0100
0010
0100
0010
0100
1000
0000
0001
,  // measure 141
1000
0001
0000
1000
0100
0010
0000
0001
,  // measure 142
0010
0100
0010
0001
0000
0010
0100
0000
,  // measure 143
0000
0010
1000
0001
1000
0000
0100
1000
,  // measure 144
0100
1000
0010
0000
1000
0000
0001
0000
,  // measure 145
1000
0100
0001
1000
0001
0000
1000
0001
,  // measure 146
0010
0001
0010
0100
0000
0010
0000
0100
,  // measure 147
1000
0100
1000
0100
0010
0001
1001
0000
,  // measure 148
1001
0000
1001
0000
1001
0000
1000
0100
,  // measure 149
0010
0001
0010
0000
0100
0000
0010
0000
,  // measure 150
0100
0000
0000
0000
0000
1001
0000
1000
,  // measure 151
0100
0010
0001
0010
0100
1000
0000
0100
,  // measure 152
0000
0010
0001
0100
1000
0100
0001
0010
,  // measure 153
0000
1000
0010
0000
1000
0100
0010
0001
,  // measure 154
0010
0000
0100
0000
1000
0100
0010
0001
,  // measure 155
0100
1000
0100
0010
0001
0010
0100
1000
,  // measure 156
0100
0001
0010
1001
0000
0000
0000
0110
,  // measure 157
0000
0000
0000
1001
0000
1010
0000
0011
,  // measure 158
0101
0000
1000
0000
0100
0010
0001
0010
,  // measure 159
0100
1000
1100
0000
0000
0000
0000
0000
,  // measure 160
0000
1000
0001
1000
0000
1001
0000
1000
,  // measure 161
0100
0010
0000
0011
0000
0011
0000
1100
,  // measure 162
1000
0100
0010
0001
0000
0010
0100
0000
,  // measure 163
0010
0000
1000
0001
1000
0000
0001
1000
,  // measure 164
0100
0010
0001
0000
0010
0100
0000
1000
,  // measure 165
1000
0100
0000
1000
0000
0010
0000
0001
,  // measure 166
0010
0100
1000
0100
0000
0010
0001
0010
,  // measure 167
0100
0010
1000
0001
1001
0000
1000
0100
,  // measure 168
0010
0001
0010
0000
0100
1000
0100
1000
,  // measure 169
0100
0000
1010
1010
0000
1000
1000
0100
,  // measure 170
0010
0001
0000
0010
0001
0010
0100
0010
,  // measure 171
0000
1001
0000
1001
0000
1000
0100
0010
,  // measure 172
0000
0001
0010
0000
0010
0010
0100
0000
,  // measure 173
1001
0000
1001
0000
1000
0100
0010
0000
,  // measure 174
0001
0000
0010
0100
0010
0100
1000
0100
,  // measure 175
0000
0010
0000
0011
0000
1100
0000
0010
,  // measure 176
0000
0001
0010
0100
1000
0100
0000
0001
,  // measure 177
0010
0000
0010
0100
0010
0100
1000
0000
,  // measure 178
0001
1000
0100
0010
0001
0000
1000
0000
,  // measure 179
0001
1000
0100
1000
0000
1000
0000
0010
,  // measure 180
0000
0001
0010
0001
0010
0001
0000
0100
,  // measure 181
0000
1000
0100
1000
0000
0010
0000
1000
,  // measure 182
1000
0100
0010
0001
0010
0100
1000
0010
,  // measure 183
0001
0010
0100
1000
0100
0010
0001
0010
,  // measure 184
0100
1000
0100
0010
0001
0010
0100
1000
,  // measure 185
0100
0001
0010
0100
1000
0100
0010
0001
,  // measure 186
0010
0100
1000
0100
0010
0001
0010
0100
,  // measure 187
1000
0100
0010
0001
0010
0100
1000
0010
,  // measure 188
0001
0010
0100
1000
0100
0010
0001
0010
,  // measure 189
0100
1000
0100
0010
0001
0010
0100
1000
,  // measure 190
0100
0010
0001
0010
0100
1000
0100
0010
,  // measure 191
0001
0100
1000
0100
0010
0001
0010
0100
,  // measure 192
1000
0100
0010
0001
0010
0100
1000
0100
,  // measure 193
0010
0001
0010
0100
1000
0100
0010
0001
,  // measure 194
0010
1000
0100
0010
0001
0010
0100
1000
,  // measure 195
0100
0010
0001
0010
0100
1000
0100
0010
,  // measure 196
0001
0010
0100
1000
0100
0010
0001
0010
,  // measure 197
0100
1000
0100
0010
0001
0010
0100
1000
,  // measure 198
0100
0010
0001
0010
0100
1000
0100
0010
,  // measure 199
0001
0010
0100
1000
0100
0001
1000
0001
,  // measure 200
1000
0001
0000
1000
0001
1000
0001
1000
,  // measure 201
0000
0001
0000
1000
0000
1000
0001
0000
,  // measure 202
1000
0000
0001
1000
0002
0000
0000
0000
,  // measure 203
0000
0000
0000
1000
0100
0010
0100
1000
,  // measure 204
0100
0010
0100
1000
0100
0010
0203
0000
,  // measure 205
0000
0000
0000
0000
,  // measure 206
0000
0000
0000
0000
,  // measure 207
0000
0000
0000
0000
,  // measure 208
0000
0000
0000
0000
,  // measure 209
0000
0300
0000
0000
0000
0000
0000
0000
;
