#TITLE:Incense & Iron;
#SUBTITLE:;
#ARTIST:Unknown artist;
#TITLETRANSLIT:;
#SUBTITLETRANSLIT:;
#ARTISTTRANSLIT:;
#GENRE:;
#CREDIT:;
#BANNER:banner.png;
#BACKGROUND:unnamed.jpg;
#LYRICSPATH:;
#CDTITLE:;
#MUSIC:POWERWOLF - Incense & Iron (Official Lyric Video) _ Napalm Records.mp3;
#OFFSET:0.000000;
#SAMPLESTART:99.971581;
#SAMPLELENGTH:12.000000;
#SELECTABLE:YES;
#BPMS:0.000000=155.000000
,60.000000=177.000000
,107.000000=155.000000
,223.000000=177.000000
,269.500000=155.000000
,386.500000=177.000000
,432.000000=155.000000
,559.500000=177.000000
,605.000000=155.000000
;
#STOPS:
;
#BGCHANGES:0.000=unnamed.jpg=1.000=0=0=0=StretchNoLoop====,
0.021=videoplayback.mp4=1.000=0=0=1=====,
99999=-nosongbg-=1.000=0=0=0 // don't automatically add -songbackground-
;
#KEYSOUNDS:;
#ATTACKS:;

//---------------dance-single - ----------------
#NOTES:
     dance-single:
     :
     Hard:
     8:
     0.431155,0.585276,0.245949,0.575271,0.000000,724.000000,665.000000,59.000000,138.000000,0.000000,1.000000,0.431155,0.585276,0.245949,0.575271,0.000000,724.000000,665.000000,59.000000,138.000000,0.000000,1.000000:
// measure 0
0000
0000
0000
0000
0000
2000
0000
0000
,  // measure 1
0000
0000
0000
0000
,  // measure 2
0000
0000
0000
0000
0000
0000
0000
3002
,  // measure 3
0000
0000
0000
0000
,  // measure 4
0000
0020
0000
0000
,  // measure 5
0000
0033
0100
1000
0100
0010
0001
0010
,  // measure 6
0100
0000
0100
1000
0100
0000
0010
0001
,  // measure 7
0010
0100
0000
0010
0000
0000
1000
0000
,  // measure 8
0100
0010
0001
0010
0000
0001
0010
0100
,  // measure 9
1000
0000
0100
0010
0100
0020
0000
0000
,  // measure 10
0030
0000
1000
0000
0001
1000
1001
0000
,  // measure 11
0000
1000
0001
0100
0000
0000
0010
1000
,  // measure 12
0010
0000
0000
0200
0300
0010
0000
0010
,  // measure 13
0001
1000
0100
0000
0010
0001
0100
1000
,  // measure 14
0100
0000
0001
0100
0020
0000
0000
0030
,  // measure 15
0000
1001
0000
0000
1000
0010
0001
0100
,  // measure 16
0000
1000
0100
0001
0010
0000
0000
1000
,  // measure 17
0010
0001
0200
0000
0320
0000
0000
1030
,  // measure 18
0000
0000
0001
1000
0001
1000
0000
0000
,  // measure 19
1000
0010
1000
0000
0100
0010
0001
0100
,  // measure 20
0020
0000
0030
1001
,  // measure 21
0000
0010
0001
0100
0000
0000
1000
0100
,  // measure 22
0001
0010
0000
0000
1000
0010
0101
0000
,  // measure 23
0220
0000
0000
0330
0000
1000
0000
0100
,  // measure 24
0010
0001
0010
0000
0000
0010
1000
0100
,  // measure 25
0010
0100
1000
0100
0010
0002
0000
0000
,  // measure 26
0000
0000
0000
0000
0003
0020
0000
1030
,  // measure 27
0200
0000
0000
0300
0010
0001
0010
0100
,  // measure 28
0010
0000
0200
0000
2300
0000
0000
3000
,  // measure 29
0000
1000
0010
0001
0200
0000
0300
0001
,  // measure 30
0010
0010
0100
0000
0010
0000
0200
0000
,  // measure 31
0000
0000
0300
0000
0000
1000
1000
0002
,  // measure 32
0000
0000
0003
0010
0100
0010
0100
0000
,  // measure 33
1000
0200
0000
0320
0000
0000
0032
0000
,  // measure 34
0000
0000
0000
0003
,  // measure 35
1001
0000
1001
1001
0000
1001
0000
1001
,  // measure 36
1001
0000
1001
0000
1000
0100
0010
0001
,  // measure 37
0000
0000
0001
0001
0010
0010
0000
0100
,  // measure 38
0000
2000
0000
3200
0000
0000
0300
0000
,  // measure 39
0010
0010
0000
1000
0000
0000
0100
0010
,  // measure 40
0001
0001
0000
0010
0200
0000
0000
0000
,  // measure 41
0300
0000
0000
0000
1000
1000
0200
0000
,  // measure 42
0300
0000
0010
0001
0000
0001
0001
0000
,  // measure 43
0010
0000
0000
0200
0000
0320
0000
0000
,  // measure 44
0000
0000
0000
0030
0000
0000
0000
1001
,  // measure 45
1001
0000
1001
0000
1001
1001
0000
1001
,  // measure 46
0000
2002
3003
0010
0100
0010
0002
0000
,  // measure 47
0003
0010
0100
1000
0100
0000
0010
0002
,  // measure 48
0000
0000
0023
0000
0000
0030
0000
1000
,  // measure 49
1000
1000
0000
0100
0000
0010
0002
0000
,  // measure 50
0000
0000
0000
0003
,  // measure 51
0000
0000
0010
0010
0010
0210
0000
0000
,  // measure 52
1300
0100
0010
0000
0001
0010
0000
0002
,  // measure 53
0010
0003
2000
0000
3200
0000
0000
0000
,  // measure 54
0000
0000
0000
0300
0000
1001
0000
1001
,  // measure 55
0000
1001
2002
0000
0000
3003
0000
0000
,  // measure 56
1000
0000
0100
0010
0001
0010
0000
0000
,  // measure 57
0001
0010
0100
0000
0000
1000
0100
0010
,  // measure 58
0200
0000
0000
0320
0000
0030
0001
0000
,  // measure 59
0000
0010
1000
0100
0000
0000
0100
0010
,  // measure 60
0001
0010
0100
0010
0001
0100
1000
0200
,  // measure 61
0000
0000
0300
0000
0000
1001
0000
1000
,  // measure 62
0010
0001
0100
0000
0000
0100
0001
0010
,  // measure 63
1000
0000
1000
0010
0001
0200
0000
0000
,  // measure 64
0320
0000
0030
1000
0000
0000
0001
1000
,  // measure 65
0010
0001
0000
0100
1000
0100
0010
0001
,  // measure 66
0010
0100
1000
0100
0020
0000
0000
0000
,  // measure 67
0000
0030
0000
0000
1001
0000
1000
0020
,  // measure 68
0000
0030
0001
0100
1000
0100
0000
0010
,  // measure 69
0002
0000
0000
0023
0000
0030
0000
0000
,  // measure 70
1000
0010
0002
0000
0000
0000
0103
0010
,  // measure 71
0000
0100
0020
0000
0230
0000
0000
0000
,  // measure 72
0000
0300
0000
1000
1000
1000
0020
0000
,  // measure 73
0030
0001
0001
0001
0000
0100
0010
0200
,  // measure 74
0000
0000
0320
0000
0000
0230
0000
0000
,  // measure 75
0000
0000
0000
0000
0000
0300
0000
1001
,  // measure 76
1001
0000
1001
1001
0000
1001
0000
1001
,  // measure 77
1001
0000
0000
1000
0100
0010
0000
0000
,  // measure 78
0010
0001
0000
0001
0010
0100
0000
0020
,  // measure 79
0000
2030
0000
0000
3000
0000
1000
0100
,  // measure 80
0010
0002
0000
0003
0010
0100
0010
0000
,  // measure 81
0001
0010
0000
0200
0000
0000
0000
0300
,  // measure 82
0000
0000
1000
0001
1000
0002
0000
0003
,  // measure 83
1000
0010
1000
0100
0000
1000
0200
0000
,  // measure 84
0000
0302
0000
0000
0023
0000
0000
0000
,  // measure 85
0000
0000
0000
0000
0030
1001
0000
1001
,  // measure 86
1001
0000
1001
1001
0000
1001
0000
1001
,  // measure 87
0000
0100
1000
0010
0002
0000
0000
0003
,  // measure 88
0010
1000
0000
0100
0010
0000
0200
0000
,  // measure 89
0320
0000
0000
0030
0000
1000
1000
1000
,  // measure 90
0001
0001
0000
0001
0020
0000
0000
0000
,  // measure 91
0000
0000
0030
0000
,  // measure 92
0000
1000
1001
0002
0000
0000
0003
1000
,  // measure 93
0100
0010
0100
0000
0010
0002
0000
0023
,  // measure 94
0030
0200
0320
0000
0000
0000
0000
0000
,  // measure 95
0000
0000
0030
0000
1001
0000
1001
1001
,  // measure 96
0000
2002
0000
3003
0000
0000
1001
0000
,  // measure 97
0000
1000
0100
0001
0000
0000
0001
0010
,  // measure 98
0100
1000
0000
0000
1000
0010
0200
0000
,  // measure 99
0000
0020
0300
0030
0001
0000
0000
0010
,  // measure 100
0100
1000
0100
0000
0000
0100
0010
0001
,  // measure 101
0100
1000
0100
0010
0100
1000
0200
0000
,  // measure 102
0000
0300
0000
0002
0000
0003
0010
0100
,  // measure 103
0010
0001
0000
0001
0010
0100
1000
0000
,  // measure 104
0000
1000
0100
0010
1100
0000
0110
0000
,  // measure 105
0000
0200
0000
0000
0301
0010
0001
0100
,  // measure 106
0000
0000
0010
0001
0010
1000
0100
0010
,  // measure 107
0100
1000
0100
0020
0000
0000
0000
0000
,  // measure 108
0030
0000
2001
0000
0000
0020
3000
0230
,  // measure 109
0000
0000
2300
0000
3020
0000
0002
0030
,  // measure 110
0000
0023
0000
2030
0000
3000
0100
0010
,  // measure 111
0001
0000
0000
0100
1000
0010
0000
0000
,  // measure 112
0100
0010
0001
0020
0000
0032
0000
0203
,  // measure 113
0000
0300
1000
0010
0100
0000
0000
1000
,  // measure 114
0010
0001
0010
0100
0010
0001
0010
0000
,  // measure 115
0000
0000
0000
1001
0000
0100
1000
0010
,  // measure 116
0001
0000
0001
0010
0100
1000
0000
1000
,  // measure 117
0100
0010
0002
0000
0023
0000
2030
0000
,  // measure 118
0000
3100
0001
1010
0000
0000
1000
0001
,  // measure 119
0100
0000
0000
1000
0001
0010
2000
0000
,  // measure 120
3000
0000
2000
0000
3000
0100
0001
0000
,  // measure 121
0010
0001
0100
0000
0010
0100
0000
1000
,  // measure 122
0010
0000
0001
0010
0100
1000
0100
0010
,  // measure 123
0001
0010
0100
0000
0010
0100
1000
0010
,  // measure 124
0100
0000
0010
0002
0000
0023
2030
0000
,  // measure 125
3100
0000
2000
0000
3100
0012
0000
0000
,  // measure 126
0013
1000
0100
0010
0000
0000
0001
0020
,  // measure 127
0000
0031
0010
0100
1000
0100
1000
0000
,  // measure 128
1100
0020
0000
1030
0010
0001
0100
0000
,  // measure 129
0010
0001
0010
0001
0010
0001
0010
0001
,  // measure 130
0000
0022
0000
0000
0000
2033
0000
0000
,  // measure 131
3200
0000
0310
0000
0002
0023
0000
0000
,  // measure 132
0000
0000
0000
0000
1030
0100
0020
0000
,  // measure 133
0000
0032
0000
0020
0003
0130
2000
0000
,  // measure 134
0000
0000
0000
0000
0000
0000
0000
3000
,  // measure 135
1000
0100
0010
0001
0010
1000
0100
0010
,  // measure 136
0001
0010
1000
0100
0010
0001
0010
1000
,  // measure 137
0100
0010
0001
0010
0200
0000
0320
0000
,  // measure 138
0230
0000
0000
0320
0000
0230
0000
0000
,  // measure 139
0000
0000
0000
0300
,  // measure 140
1001
0000
0000
1000
0010
0002
0000
0003
,  // measure 141
0010
0100
1000
0200
0000
0300
0010
0001
,  // measure 142
0200
0000
0000
0320
0000
0030
1001
0000
,  // measure 143
0000
1000
0100
0010
0001
0000
0001
0010
,  // measure 144
0100
1000
0100
0010
0001
0100
1000
0100
,  // measure 145
0020
0000
0030
0000
0000
1001
0000
0000
,  // measure 146
1000
0010
0100
0000
0000
0100
0010
0001
,  // measure 147
0010
0000
0000
0010
0100
1000
0200
0000
,  // measure 148
2300
0000
3000
1000
0000
0000
1000
0010
,  // measure 149
0001
0100
0000
0000
0001
0010
1000
0100
,  // measure 150
1000
0010
0001
1000
0200
0000
0000
0000
,  // measure 151
0000
0000
0300
0000
2001
0000
0000
0020
,  // measure 152
3000
0230
0000
2000
0300
0000
3020
0000
,  // measure 153
0032
0000
0000
0023
0000
2030
0000
0000
,  // measure 154
3100
0010
0001
0020
0030
0100
0010
0100
,  // measure 155
0010
0000
1000
0100
0010
2002
0000
0000
,  // measure 156
3003
0000
0000
0000
;
