#TITLE:I'm Sorry, I'm Sorry;
#SUBTITLE:;
#ARTIST:Unknown artist;
#TITLETRANSLIT:;
#SUBTITLETRANSLIT:;
#ARTISTTRANSLIT:;
#GENRE:;
#CREDIT:;
#BANNER:I'm Sorry, I'm Sorry-banner.png;
#BACKGROUND:i_m_sorry_i_m_sorry_by_hippieunicornflower-d95yvnb.png.jpeg;
#LYRICSPATH:;
#CDTITLE:;
#MUSIC:【Fan-PV】 I'm Sorry, I'm Sorry 18 (Lo siento, lo siento Hatsune Miku) Sub Español.mp3;
#OFFSET:0.000000;
#SAMPLESTART:100.000000;
#SAMPLELENGTH:12.000000;
#SELECTABLE:YES;
#BPMS:0.000000=100.000000
,57.000000=120.000000
,71.000000=124.999992
,75.000000=130.000000
,78.000000=135.000000
,86.000000=140.000000
,96.000000=147.000000
,105.333336=50.000000
,105.625000=206.000000
,164.333328=157.000000
,210.333328=124.999992
,245.333328=175.000000
,305.000000=206.000000
,364.666656=156.000000
,410.000000=125.999992
,445.000000=176.000000
,505.000000=124.999992
,551.000000=333.000000
,558.000000=176.000000
,669.000000=206.000000
;
#STOPS:
;
#BGCHANGES:;
#KEYSOUNDS:;
#ATTACKS:;

//---------------dance-single - ----------------
#NOTES:
     dance-single:
     :
     Hard:
     8:
     0.489092,0.675402,0.080187,0.373045,0.852424,982.000000,959.000000,23.000000,107.000000,0.000000,0.000000,0.489092,0.675402,0.080187,0.373045,0.852424,982.000000,959.000000,23.000000,107.000000,0.000000,0.000000:
0000
0000
0000
2002
0000
0000
0000
0000
,
0000
0000
0000
0000
0000
0000
0000
3003
0000
0000
0000
0000
0000
2000
0000
0000
,
0000
0000
0000
3000
0000
2000
0000
0000
3200
0000
0000
0320
0000
0031
0000
0010
,
0100
1000
0100
0010
0001
0020
0000
0200
0030
0000
0000
0000
0000
0000
0300
2000
,
0000
3200
0000
0320
0000
0032
0000
0010
0003
0100
0000
1000
0100
0000
0002
0000
,
0000
0000
0000
0000
0000
0000
0000
0003
0000
0000
1000
0000
0010
0000
0100
0002
,
0000
0000
0013
0100
0000
1000
0000
0200
0000
0000
0320
0000
0000
0032
0000
0000
,
0000
0023
0000
0000
0000
0000
0000
0000
0000
0000
0000
0000
0000
0000
0000
0000
,
0000
0000
0000
0000
0000
0000
0000
0000
0000
0000
0000
0130
0000
2000
0000
3200
,
0000
0000
0300
0000
0000
2000
0000
0000
0000
0000
0000
0000
3200
0000
0000
0000
,
0000
0000
0320
0000
0000
0000
0002
0030
0000
0000
0000
0020
0003
0000
0000
0000
,
0230
0000
0000
0000
0000
2300
0000
0000
0000
3200
0000
0000
0000
0000
0320
0000
,
0000
0000
0000
0000
0000
0031
0020
0000
0000
0000
0000
0000
0000
0000
0000
0000
,
0000
0000
0000
0000
,
0000
0030
0000
0000
0000
0000
0000
2002
0000
0000
0000
3003
0000
0010
0000
0001
,
0000
0100
2000
0000
0000
0000
0000
0000
0000
0000
3000
0100
0001
0010
0000
0100
,
0000
1000
0100
0000
0010
0001
0000
0010
0100
0000
1000
0000
0100
0010
0000
0001
,
0020
0000
0000
0000
0000
0000
0000
0000
0000
0000
0000
0030
2000
0000
0000
0000
,
3100
0000
0020
0000
0000
0000
0000
0000
0000
0030
0002
0000
0000
0200
0003
0000
,
0300
2000
0000
0000
0000
0000
3100
0000
0010
0000
0001
0000
0000
0020
0000
0000
,
0230
0000
0000
0300
0000
0000
0200
0000
0000
0000
0000
0000
0000
0000
0000
0000
,
0000
0000
0000
0302
0000
0000
0000
0000
,
0000
0000
0000
0000
0010
0000
0010
0000
0010
0000
0010
0000
0000
0010
0000
0000
,
0010
0000
0010
0000
0000
0010
0000
0000
0010
0000
0010
0000
0000
0010
0000
0010
,
0000
0000
0020
0003
0000
0000
0000
0000
0000
0000
0000
0000
0000
0000
0000
0000
,
0000
0000
0000
0000
,
0030
0000
0000
0000
0002
0000
0000
2003
0000
0000
0000
0000
0000
0000
0000
0000
,
0000
0000
0000
0000
0000
0000
0000
3000
,
0000
0000
0000
0000
1000
0000
0100
0000
0010
0000
0001
0010
0000
0100
0000
1000
,
0000
0100
0000
0010
0001
0000
0010
0000
0100
0000
0000
1000
0000
0000
0100
0010
,
0000
0000
0000
0001
0000
0000
0000
0010
0000
0100
1000
0000
0100
0000
0010
0000
,
0001
0010
0000
0100
0000
1000
0100
0000
0000
0010
0001
0000
0010
0000
0100
1000
,
0000
0100
0000
0000
1000
0100
0000
1000
0000
0100
1000
0000
0010
0000
0000
0000
,
0000
1000
0000
0100
0000
0000
0000
0010
0000
0001
0010
0000
0200
0000
0000
0000
,
0000
0000
0000
0000
0300
0000
1000
0100
0000
0020
0000
0000
0000
0030
0000
0000
,
0000
0000
0000
0000
0001
0010
0100
1000
,
0100
0000
0010
0001
0000
0010
0000
0100
1000
0000
0100
0000
0010
0000
0001
0010
,
0000
0100
0000
0000
1000
0100
0000
0000
1000
0000
0000
0000
0000
0100
0000
0000
,
0000
0010
0000
0000
0000
0001
0000
0000
0010
0000
0000
0100
0000
0000
1000
0000
,
0000
0000
0100
0000
0000
0000
0010
0000
0000
0001
0000
0000
0010
0000
0000
0100
,
0000
0000
0000
0000
1001
0000
0000
1001
0000
0000
0000
2020
0000
0000
0000
0000
,
0000
0000
0000
3030
0000
0000
1000
0000
0100
0000
0000
0010
0000
0000
0001
0000
,
0000
0010
0000
0000
0100
0000
0000
1000
0000
0100
0000
0010
0000
0000
0000
0001
,
0000
0000
1000
0000
0000
0001
0000
1000
0000
0000
0000
0000
0000
1010
0000
0000
,
0000
0000
1000
0000
0000
0100
0000
0000
0010
0000
0000
0001
0000
0000
0010
0000
,
0100
0000
0000
1000
0000
0000
0100
0000
0000
0010
0000
0000
0001
0000
0010
0000
,
0000
0100
0000
0000
0010
0000
0000
0000
0000
0000
0000
1001
0000
0000
0000
0000
,
0000
1000
0000
0100
0000
0000
0010
0000
0000
0100
0000
0000
1000
0000
0000
0100
,
0000
0010
0000
0000
0001
0000
0000
0010
0000
0100
0000
0000
0010
0000
0000
0001
,
0000
0000
1000
0000
0000
0000
0000
0000
0000
1001
0000
0000
0000
0000
1000
0000
,
0000
0100
0000
0010
0000
0000
0000
0001
0000
0010
0000
0000
0100
0000
0000
1000
,
0000
0000
0100
0000
0010
0000
0000
0100
0000
1000
0000
0000
0100
0000
0000
0001
,
0000
0000
0000
1001
0000
0000
1000
0010
,
0001
0000
0100
0000
0000
0000
0000
1000
0000
0100
0000
0011
0000
0000
1000
0000
,
0010
0001
0100
1000
0100
0000
0000
0001
0000
0020
0000
0000
0000
0000
0030
0000
,
1000
0000
0100
0000
0010
0000
0000
0002
0000
0000
0003
0010
0000
0000
1000
0100
,
0010
0000
0001
0010
0000
0000
0100
1000
0100
0000
0100
0000
0001
0000
0100
0000
,
1000
0100
0002
0000
0000
0000
0000
0003
0100
1000
0200
0000
0000
0000
0300
1000
,
0100
0010
0001
0000
0010
0000
0100
0000
0000
1000
0000
0100
0000
0010
0000
0001
,
0010
0100
0000
1000
0100
0000
0020
0000
0000
0030
0000
0001
0000
0010
0000
0000
,
0100
0000
1000
0000
0100
0000
0001
0000
0000
2000
0000
0000
0000
0000
0000
0000
,
0000
3002
0000
0000
0000
0003
1000
0000
0000
0000
0000
0000
0000
0200
0000
0000
,
0000
0300
0010
0000
0000
0001
0000
0000
0010
0000
0000
0200
0000
0000
0000
1300
,
0000
0000
0100
0000
0010
0000
0001
0010
0000
0000
0100
0000
0000
1000
0100
0000
,
1000
0100
1000
0000
0000
0000
0010
0000
0000
1000
0000
0000
0010
0000
0000
0000
,
0001
0000
0000
0100
0000
0000
1000
0000
0000
0100
0000
0000
0000
0001
0000
0000
,
0010
0000
0000
0100
0000
0000
0000
0000
0000
1000
0000
0000
0100
0000
0010
0001
,
0010
0000
0000
0000
0100
1000
0000
0100
0000
0000
0010
0000
0000
0100
0000
0000
,
1000
0000
0000
0200
0000
0000
0000
0000
0300
1000
0000
0000
0100
0000
0000
0020
,
0000
0000
0000
0030
0001
0010
0000
0100
1000
0000
0100
0010
0000
0001
0010
0000
,
0100
0000
1000
0100
0000
0000
1000
1000
0010
0000
0000
0000
1000
0000
0000
0100
,
0000
0000
0010
0000
0000
0001
0000
0000
0010
0000
0000
0000
0100
0000
0000
1000
,
0000
0000
0100
0000
0000
0010
0000
0000
0002
0000
0000
0000
0000
0003
0000
0010
,
0000
0000
0100
0000
0000
1000
0000
0000
0100
0000
0010
0001
0000
0000
0000
0010
,
0000
0100
0000
0000
0000
1000
0100
0000
0010
0000
0001
0000
0000
0010
0000
0100
,
0000
0000
1000
0000
0000
1001
0000
0000
1001
0000
0000
2020
0000
0000
0000
0000
,
0000
3030
1000
0000
0000
0000
0100
0000
0000
0010
0000
0000
0000
0001
0010
0100
,
0000
0000
1000
0000
0000
0100
0000
0010
0000
0000
0000
0001
0000
0000
0000
0010
,
0000
0000
0000
0100
0000
0000
2000
0000
0000
0000
0000
0000
0000
0000
3200
0000
,
0000
0000
0000
0000
0000
0310
0000
0000
0002
0000
0000
0000
0023
0000
0000
0000
,
0000
0000
0000
0000
,
0000
0000
0000
0000
0000
0000
0000
0000
0030
0000
0000
0000
0000
0000
0000
1000
,
0000
0100
0010
0000
0001
0010
0000
0100
0000
1000
0100
0000
0010
0000
0001
0010
,
0000
0100
0000
1000
0000
0000
1000
0100
0000
0020
0000
0000
0000
0000
0000
0000
,
0000
0000
0030
0000
0000
1000
0200
0000
0000
0000
0000
0000
0000
0000
0300
0000
,
0000
0000
0000
0000
0000
0000
0000
1000
0000
0100
0000
0010
0000
0001
0000
0010
,
0000
0100
1000
0000
0100
0000
0010
0000
0000
0000
0001
0010
0000
0100
0000
0010
,
0000
0001
0000
0010
0000
0000
0200
0000
0000
0000
0000
0000
0000
0000
0000
0300
,
0000
2000
0000
0000
0000
3200
0000
0000
,
0000
0000
0320
0000
0000
0000
0000
0000
0000
0032
0000
0000
0000
0000
0000
0000
,
0000
0023
0000
0000
0000
0000
0000
0000
0000
0230
0000
0000
0000
0000
0000
0000
,
0000
0300
0000
0000
0000
1000
0000
0100
0000
0000
0010
0000
0000
0001
0000
0010
,
0000
0000
0100
0000
0000
1000
0000
0000
0100
0000
0010
0000
0000
0100
0000
0000
,
1000
0000
0100
0000
0000
0010
0000
0100
0000
0000
0000
0000
0110
0000
0000
0000
,
0000
1000
0000
0000
0100
0000
0000
0010
0000
0000
0001
0000
0000
0010
0000
0100
,
0000
0010
0000
0000
0001
0000
0000
0010
0000
0100
0000
0000
1000
0000
0100
0000
,
0000
0010
0000
0000
0100
0000
0000
0000
0000
0110
0000
0000
0000
0000
0000
1000
,
0000
0000
0100
0000
0000
0010
0000
0001
0000
0000
0010
0000
0000
0100
0000
0010
,
0000
0000
0001
0000
0000
0010
0000
0100
0000
1000
0000
0000
0100
0000
0010
0000
,
0000
0100
0000
0000
0000
0000
0000
0110
0000
0000
0000
0000
1000
0000
0000
0001
,
0000
0000
1000
0000
0001
0000
1000
0000
0000
0010
0000
1000
0000
0000
0010
0000
,
0000
0100
0000
0010
0000
0000
0100
0000
0000
0001
0000
0100
0000
0000
0010
0000
,
0000
0000
0000
0000
0110
0000
0000
0000
0000
1000
0000
0100
0000
0000
0010
0000
,
0002
0000
0000
0003
0000
0010
0000
0100
1000
0000
0100
0000
0010
0000
0100
1000
,
0000
0100
0010
0001
0000
0000
0010
0000
0200
0000
0000
0000
0300
0000
1000
0000
,
0100
0000
0000
0010
0000
0001
0000
0000
0000
0010
0000
0000
0100
1000
0100
0000
,
0000
0010
0001
0000
0010
0100
1000
0100
0000
0000
0010
0000
0001
0000
0010
0000
,
2100
0000
0000
0000
0000
3000
0000
0100
0010
0001
0000
0000
0000
0010
0100
1000
,
0100
0000
0010
0001
0000
0010
0000
0000
0100
0000
1000
0000
0100
0000
0000
0001
,
0010
0100
0010
0000
0100
0020
0000
0000
0000
0030
1000
0000
0100
0000
0010
0000
,
0000
0001
0000
0010
0000
0100
0000
0220
0000
0000
0000
0000
0000
0000
0330
0000
,
2002
0000
0000
0000
3003
2000
0000
0000
0000
0000
0000
0000
3020
0000
0000
0000
,
0000
0031
0000
0000
0100
0000
0000
1000
0000
0000
0200
0000
0000
0000
0300
1000
,
0000
0010
0000
0001
0100
0000
1000
0000
0000
0100
0000
0000
0000
0001
0010
0000
,
0100
0000
0010
0100
0000
0000
0000
1000
0000
0000
0100
0000
0000
0010
0000
0000
,
0001
0000
0000
0010
0000
0000
0100
0000
0000
1000
0000
0000
0000
0100
0000
0000
,
0010
0000
0000
0002
0000
0000
0000
0000
0003
1000
0000
0000
0100
0000
0010
0000
,
0001
0010
0000
0100
1000
0000
0100
0000
0000
0010
0000
0000
0000
0100
0000
0000
,
1000
0000
0000
0200
0000
0000
0000
0000
0300
1000
0000
0000
0000
0100
0000
0020
,
0000
0000
0000
0000
0030
0001
0010
0100
0000
1000
0100
0000
0010
0000
0001
0010
,
0000
0100
1000
0000
0100
0000
0010
0001
0000
0010
0000
0100
0000
0000
0010
0000
,
0100
0000
0000
0000
1000
0000
0100
0000
0000
0010
0000
0000
0001
0000
0000
0000
,
0010
0000
0000
0100
0000
0000
1000
0000
0000
0200
0000
0000
0000
0000
0300
1000
,
0000
0000
0000
0100
0000
0000
0001
0000
0000
0010
0100
0000
1000
0000
0000
0100
,
0000
0000
0000
1000
0000
0000
0100
0010
0000
0001
0000
0000
0010
0000
0000
0100
,
0000
0000
0000
1000
0000
0000
0100
0000
0000
0010
0000
0000
0200
0000
0000
0000
,
0000
0300
0000
1000
0100
0010
0001
0000
,
0010
0000
0000
0100
1000
0100
0000
0000
0010
0000
0100
0001
0000
0010
0100
0000
,
0000
1000
0000
0200
0000
0000
0000
0000
0300
0000
1000
0000
0100
0000
0001
0000
,
0000
0010
0000
0000
0000
1000
0000
0100
0000
0010
0001
0000
0100
0000
0010
0000
,
0100
1000
0100
0010
0000
0001
0000
0010
0000
0100
1000
0100
0200
0000
0000
0000
,
0300
0000
0000
1000
0100
0010
0001
0000
0000
0010
0100
1000
0100
0010
0001
0000
,
0000
0010
0000
0100
0000
1000
0000
0100
0000
0000
0010
0100
1000
0100
0010
0000
,
0100
0000
0000
0000
0000
1000
0000
0100
0000
0010
0000
0000
0001
0000
0010
0000
,
0100
0020
0000
0000
0000
0000
0000
0000
,
0000
0000
0000
0000
,
0000
0000
0000
0000
0000
0000
0000
0000
0000
0030
0100
0000
0002
0000
0000
0000
0000
0000
0000
0000
0000
0000
0000
0000
,
0000
0000
0000
0003
0220
0000
0000
0000
,
0000
0000
0000
0000
,
0000
0000
0000
0000
0000
0300
0030
0000
0000
2002
0000
0000
0000
0000
0000
3003
,
0000
1000
0000
0000
0000
0000
0000
0010
0000
0000
0001
0000
0000
0100
0000
0000
,
1000
0000
0000
0000
0100
0000
0010
0001
0000
0010
0100
0000
1000
0000
0000
0100
,
0000
0000
0010
0001
0010
0000
0100
0010
0000
0001
0000
0000
0010
0000
0100
0000
,
0000
0000
1000
0000
0100
0000
0000
0000
0010
0000
0000
0100
0000
0000
1000
0000
,
0000
0000
0100
0000
0000
0010
0000
0000
0001
0000
0000
0000
0000
0000
0010
0000
,
0000
0100
1000
0000
0100
0010
0000
0001
0000
0010
0000
0100
0000
1000
0000
0000
,
0100
0000
0000
0000
0010
0000
0000
0001
0000
0010
0000
0000
0000
0000
0100
0000
,
0000
0000
1000
0000
0100
0000
0000
0000
0000
0010
0001
0000
0010
0000
0100
0000
,
1000
0000
0100
0010
0000
0001
0010
0000
0100
1000
0000
0100
0010
0000
0001
0000
,
0000
0010
0000
0000
0100
0000
0000
0000
1000
0000
0000
0100
0000
0000
0010
0000
,
0000
0001
0000
0000
0000
0010
0000
0100
0000
0000
1000
0000
0000
0100
0000
1000
,
0000
0000
0000
0000
0000
1000
0000
0010
0000
0000
0000
0100
0000
0000
0001
0010
,
0100
0000
1000
0000
0000
0000
0100
0000
0010
0000
0000
0001
0010
0100
0000
1000
,
0000
0000
0000
0000
0100
0000
0000
0010
0000
0001
0000
0010
0000
0100
0000
0000
,
1000
0000
0000
0100
0000
0010
0000
0001
0010
0000
0000
0000
0100
0000
1000
0000
,
0100
0001
0000
1000
0100
0001
0000
0000
0000
1000
0000
0000
0100
0000
0001
0000
,
0000
0000
0100
0000
0000
1000
0000
0000
0010
0000
0000
0001
0000
0000
0010
0000
,
0000
1000
0000
0000
0000
0100
0000
0000
0000
0000
0010
0000
0000
0000
0100
1000
,
0000
0100
0001
0000
0010
0000
1000
0000
0100
0000
0000
0001
0000
0000
0010
0000
,
0000
0100
0000
0000
2000
0000
0000
0000
0000
0000
3000
0100
0000
0010
0000
0000
,
0002
0000
0000
0000
0000
0000
0013
1000
0000
0100
0000
0010
0000
0001
0000
0010
,
0100
0000
1000
0100
0000
0010
0001
0000
0010
0100
1000
0000
0000
0000
0100
0000
,
1000
0100
0000
0000
1000
0000
0000
0010
0000
0000
0100
0000
0000
0000
0001
0000
,
0000
0010
0000
0000
0100
0000
0000
1000
0000
0000
0000
0100
0000
0000
0000
0000
,
0000
0010
0000
0000
0001
0000
0000
0010
0000
0000
0100
0000
1000
0100
0000
0000
,
0001
0000
0000
0100
0000
1000
0000
0000
0100
0000
0001
0100
0000
0000
1000
0000
,
0000
0010
0000
0000
0100
0000
0000
0000
0010
0000
0000
0100
0000
0000
0000
2002
,
0000
0000
0000
0000
3003
0000
2000
0000
0000
0000
3000
0000
0100
0000
0000
0010
,
0000
0001
0000
0010
0000
0100
0000
1000
0000
0100
0000
0000
0001
0000
0000
0010
,
0000
0000
1000
0000
0000
0000
0000
0100
0001
0010
0000
0001
0000
0000
0100
0000
,
0000
1000
0000
0000
0100
0000
0001
0000
0010
1000
0000
0100
0000
0001
0000
0000
,
0010
0000
0000
0000
1000
0000
0000
0010
0000
0000
0000
0100
0000
0010
0000
0100
,
0000
0000
0010
0000
0100
0000
0000
0010
0000
0000
0100
0000
0000
0000
1000
0000
,
0000
0001
0000
0000
0100
0000
1000
0000
0100
0000
0010
0000
0001
0000
0010
0000
,
0000
0100
0000
1000
0000
0100
0000
0010
0001
0000
0100
0000
0000
0000
0000
1000
,
0000
0000
0100
0000
0001
0000
0000
0100
0000
1000
0000
0100
0000
0000
0001
0000
,
0100
0000
1000
0000
0100
0000
0001
0000
0000
0010
0000
0000
0100
0000
0000
1000
,
0000
0000
0100
0000
0000
0010
0001
0000
0010
0100
0000
1000
0000
0100
0000
0010
,
0000
0001
0000
0100
0000
0000
1000
0000
0000
0100
0000
0000
0001
0000
0010
0000
,
0000
1000
0000
0100
0000
0001
0000
0010
0000
1000
0000
0000
0100
0000
0001
0000
,
0010
1000
0000
0100
0000
0001
0000
1000
0000
0001
0000
2000
0000
0000
0000
0000
,
0000
0000
0000
0000
,
0000
0000
0000
0000
,
0000
0000
0000
0000
,
0000
0000
3000
0000
;

//---------------dance-single - ----------------
#NOTES:
     dance-single:
     :
     Challenge:
     423345568:
     0.445263,0.582446,0.094133,0.411395,0.001743,894.000000,867.000000,27.000000,118.000000,0.000000,4.000000,0.445263,0.582446,0.094133,0.411395,0.001743,894.000000,867.000000,27.000000,118.000000,0.000000,4.000000:
// measure 0
0000
2000
0000
0000
,  // measure 1
0000
0000
0000
0000
0002
0000
0000
3000
,  // measure 2
0000
0000
0020
0003
0230
2000
0300
3200
,  // measure 3
0010
0301
0100
1000
0200
0000
0000
0302
,  // measure 4
0010
0203
0000
1300
0200
0310
0002
0000
,  // measure 5
0000
0000
0000
0000
0000
2003
3100
0010
,  // measure 6
0002
0013
0100
0020
0230
2300
0000
3002
,  // measure 7
0000
2003
0000
0000
0000
0020
0000
3000
,  // measure 8
0000
0000
0000
0002
0030
0200
2303
3010
,  // measure 9
0002
0000
0020
0003
0000
0000
2030
0000
,  // measure 10
0000
0200
3000
0000
0302
0000
0023
0000
,  // measure 11
2000
0030
0000
3020
0000
0032
0000
0203
,  // measure 12
0000
0000
1300
0020
0000
0000
0000
0000
,  // measure 13
0000
0000
0000
0000
,  // measure 14
0030
0000
0000
0000
2002
0000
0003
3010
,  // measure 15
0100
0120
0000
0000
0030
1000
0100
0010
,  // measure 16
0001
0010
1000
0100
0001
0010
1000
0100
,  // measure 17
0010
0002
0000
0000
0003
0000
0020
0000
,  // measure 18
1030
0200
0000
0000
0300
0002
0000
0023
,  // measure 19
0000
2030
0000
0000
3100
0010
0002
0023
,  // measure 20
0000
0230
0000
0320
0000
0000
0000
0000
,  // measure 21
0000
0000
0000
0030
2002
0000
0000
0000
,  // measure 22
0000
0000
0000
0000
,  // measure 23
0000
0000
0000
0000
3013
0000
0000
0440
,  // measure 24
0000
0000
0000
0000
,  // measure 25
0000
0000
0000
0000
,  // measure 26
0330
0000
0000
0000
0000
4004
0000
0000
0000
0000
0000
0000
0000
0000
0000
0000
,  // measure 27
0000
0000
0000
0000
,  // measure 28
3003
0000
0000
0000
0000
1000
0100
0001
,  // measure 29
0010
0100
1000
0010
0001
0010
0100
1000
,  // measure 30
0100
0010
0001
0000
0001
0000
0010
0100
,  // measure 31
1000
0010
1000
0001
1000
0001
1000
0001
,  // measure 32
0100
0001
0010
0100
1000
0100
0010
0100
,  // measure 33
0010
0100
1000
0010
0001
0010
0000
0100
,  // measure 34
1000
0200
0000
0000
0000
0300
0001
0010
,  // measure 35
0000
0000
0000
0000
0000
0000
0000
1000
,  // measure 36
0100
0001
0010
0100
1000
0010
0001
0010
,  // measure 37
0100
1000
0000
0010
0100
0000
0020
0000
,  // measure 38
0000
0230
0000
0000
0000
0320
0000
0000
,  // measure 39
0000
0230
0000
0000
0300
2000
0000
0000
,  // measure 40
0000
3002
0000
0000
2003
0000
0000
0000
,  // measure 41
0002
3000
0000
0000
0003
1000
0100
0010
,  // measure 42
0000
0001
0010
0000
0100
1000
0100
0000
,  // measure 43
0010
0001
1000
0000
0001
1000
0000
0000
,  // measure 44
0000
1010
0000
0000
1000
0100
0000
0010
,  // measure 45
0001
0010
0000
0100
1000
0100
0000
0010
,  // measure 46
0001
0010
0000
0100
0010
0100
0000
0000
,  // measure 47
0110
0000
1000
0000
0100
0010
0000
0100
,  // measure 48
1000
0100
0000
0010
0001
0000
0010
0100
,  // measure 49
0010
0001
0010
0100
0000
0000
0101
0000
,  // measure 50
0000
1000
0100
0000
0010
0100
0000
1000
,  // measure 51
0100
0010
0000
0001
0010
0000
0100
0010
,  // measure 52
0001
0010
0100
0000
0000
1001
0000
0000
,  // measure 53
1000
0100
0010
0001
0000
0001
0010
0100
,  // measure 54
1000
1000
0100
0001
0100
1000
0200
0000
,  // measure 55
0300
0010
0001
0010
1000
0100
0000
0010
,  // measure 56
0100
0010
0000
1001
1000
0100
0001
0010
,  // measure 57
0001
0010
0120
0000
0030
0000
1000
0010
,  // measure 58
0000
0001
0100
0001
0010
0100
1000
0100
,  // measure 59
0010
0100
0001
0100
1000
0200
0300
0010
,  // measure 60
0001
0010
1000
0000
0100
0010
0200
0000
,  // measure 61
0000
0320
0000
0000
0030
2002
0000
0000
,  // measure 62
0003
3020
0000
0130
0000
0001
0000
0020
,  // measure 63
0000
0030
0100
1000
0100
0010
0001
0010
,  // measure 64
0100
1000
0100
0010
0001
0010
1000
0100
,  // measure 65
0010
0000
0100
0000
1000
0100
0000
0010
,  // measure 66
0001
0000
0010
0100
0000
0000
0000
0001
,  // measure 67
1000
0001
1000
0000
1010
0001
0100
0000
,  // measure 68
0100
0000
0010
0000
0200
0000
0300
0010
,  // measure 69
0000
0100
0010
0000
0100
0010
0100
1000
,  // measure 70
0100
0010
0001
0010
1000
0100
0001
0010
,  // measure 71
0100
1000
0010
0001
0000
0010
0100
1000
,  // measure 72
1000
0100
0010
0001
0001
0010
0000
0100
,  // measure 73
0000
0000
1000
0100
0000
0010
0100
0001
,  // measure 74
0100
0000
0010
0001
0000
0010
0100
1000
,  // measure 75
0100
0000
0010
0100
0000
1000
0100
0000
,  // measure 76
2002
0000
0000
0000
3003
0010
0000
0100
,  // measure 77
0000
1000
0100
0000
0010
0001
0000
0010
,  // measure 78
0000
0100
0010
0000
0001
0000
0020
0000
,  // measure 79
0000
0000
2030
0000
0000
0100
3000
0010
,  // measure 80
0000
0002
0000
0000
0000
0000
0000
0000
,  // measure 81
0000
0000
0000
0000
0000
0000
0000
0003
,  // measure 82
0000
0000
1000
0100
0010
0001
0100
1000
,  // measure 83
0100
0010
0001
0100
1000
0100
0011
0020
,  // measure 84
0000
0000
0000
0000
0000
0130
0020
0000
,  // measure 85
0000
0000
0030
0000
0000
2000
0000
0000
,  // measure 86
0000
0000
3100
0010
0001
0010
1000
0100
,  // measure 87
0010
0001
0010
0100
1000
0200
0000
0000
,  // measure 88
0000
0000
0000
0320
0000
0000
0000
0032
,  // measure 89
0000
0000
0000
0000
2003
0000
0000
0020
,  // measure 90
3000
0000
0000
0230
0000
0000
0000
0320
,  // measure 91
0000
0000
0030
0000
1000
0100
0000
0010
,  // measure 92
0001
0010
0000
0100
1000
0000
0100
0010
,  // measure 93
0000
0001
0010
0000
0100
0010
0000
0000
,  // measure 94
0110
0000
0000
1000
0100
0000
0010
0001
,  // measure 95
0000
0010
0100
0000
0010
0001
0010
0000
,  // measure 96
0100
1000
0000
0100
0010
0000
0000
1010
,  // measure 97
0000
0000
1000
0100
0000
0010
0100
0000
,  // measure 98
1000
0100
0010
0000
0001
0010
0100
0000
,  // measure 99
0010
0001
0010
0100
0000
0101
0000
0000
,  // measure 100
1000
0000
0100
0010
0000
0100
0010
0001
,  // measure 101
0000
0010
0100
0000
0010
0001
0010
0100
,  // measure 102
0000
0010
0100
0000
0110
0000
1000
1000
,  // measure 103
0100
0010
0001
0000
0010
0100
1000
0100
,  // measure 104
0010
0001
0100
0001
0010
0210
0000
0000
,  // measure 105
0300
1000
0010
0001
0100
0000
0100
0000
,  // measure 106
0010
0100
1000
0100
0001
0010
0100
0010
,  // measure 107
0002
0023
2030
0000
0000
3100
0012
0000
,  // measure 108
0013
1000
0100
0010
0010
0100
0010
0001
,  // measure 109
0010
1000
0100
0010
0002
0000
0000
0013
,  // measure 110
1000
0100
0010
0001
0010
0200
0000
0000
,  // measure 111
0000
0320
0000
0000
0030
2002
0000
0003
,  // measure 112
0020
3000
0000
0130
0000
0002
0000
0023
,  // measure 113
0000
0030
0100
1000
0010
0001
0000
0010
,  // measure 114
0100
0010
0100
1000
0100
0010
0001
0001
,  // measure 115
0000
0001
0010
0000
0100
1000
0000
0100
,  // measure 116
0100
0010
0001
0100
0010
0000
0000
1000
,  // measure 117
0100
0010
0001
0010
0100
1000
0100
0000
,  // measure 118
0010
0000
1000
0200
0000
0000
0300
0010
,  // measure 119
0001
0000
0010
0000
1000
0100
0001
0010
,  // measure 120
0100
1000
0100
0010
0001
0100
1000
0010
,  // measure 121
0001
0000
0010
0000
1000
0100
0000
0001
,  // measure 122
0010
0000
0010
0000
0001
0100
0000
1000
,  // measure 123
0000
0000
1000
0000
0002
0013
0100
1000
,  // measure 124
0100
0000
0010
0000
0001
0010
0100
1000
,  // measure 125
0100
0000
0010
0000
0001
0010
0000
0001
,  // measure 126
0020
0000
0000
0000
1030
0100
0000
0010
,  // measure 127
0002
0000
0013
0100
0010
1000
0100
0010
,  // measure 128
0001
0100
0010
0200
0000
0300
1000
0000
,  // measure 129
0010
0001
0010
0000
0100
0010
1000
0100
,  // measure 130
0010
0001
0010
1000
0001
0100
1000
0200
,  // measure 131
0000
0000
0300
0001
0010
2000
3100
0001
,  // measure 132
0010
0100
0010
0100
0010
0001
0010
1100
,  // measure 133
0011
1000
0020
0000
0130
0010
0100
0010
,  // measure 134
0100
1000
0000
0002
0000
0000
0000
0000
,  // measure 135
0000
0000
0000
0000
,  // measure 136
0000
0000
0000
0000
0000
1203
0000
0000
,  // measure 137
0000
0000
0000
0000
0000
2302
0000
0000
,  // measure 138
0000
0000
0000
0000
,  // measure 139
0000
0000
0000
0000
0003
3020
0000
0000
,  // measure 140
0000
0230
0000
0000
1300
0000
0100
0000
,  // measure 141
0020
0000
0030
0001
0010
0100
1000
0100
,  // measure 142
0010
0001
0001
0100
1000
0100
0010
0100
,  // measure 143
0001
0000
0010
0100
0010
1000
0100
0000
,  // measure 144
0010
0100
0001
0010
0000
0100
0000
0000
,  // measure 145
1000
0100
0010
0001
0010
0100
1000
0000
,  // measure 146
0100
0010
0010
0001
0000
0020
0000
0000
,  // measure 147
1030
0000
0100
0010
0000
0001
0010
0100
,  // measure 148
1000
0100
0010
1000
0100
0010
0001
0100
,  // measure 149
0010
0001
0000
0010
0100
0000
1000
0000
,  // measure 150
0100
0010
0000
0001
0000
0010
0100
0000
,  // measure 151
1000
0000
0000
1000
0000
0001
1000
0100
,  // measure 152
0010
0001
0000
0100
0000
0001
0010
1000
,  // measure 153
0100
0000
0000
0010
0000
0100
0020
0000
,  // measure 154
0030
0100
1000
0100
0010
0001
0000
0010
,  // measure 155
0100
0001
0010
0100
0000
1000
0100
0000
,  // measure 156
0010
0100
0000
1000
0100
0000
0010
0000
,  // measure 157
0001
0010
0000
0100
0000
0000
1000
0000
,  // measure 158
0001
0100
1000
0010
0000
1000
0010
0000
,  // measure 159
1000
0000
1000
0200
0000
0300
0010
0000
,  // measure 160
0001
0010
0100
0000
1000
0100
0001
0010
,  // measure 161
0100
1000
0010
0001
0010
1000
0100
0010
,  // measure 162
0001
0100
0000
0010
0001
0000
0010
1000
,  // measure 163
0000
0100
0000
0002
0013
0000
2000
0000
,  // measure 164
3000
0010
0000
0001
0100
0000
1000
0100
,  // measure 165
0001
0000
0010
0100
0000
0010
0100
0010
,  // measure 166
1000
0100
0000
0010
0000
0001
0010
0000
,  // measure 167
2002
0000
0000
3003
0000
1000
0000
0010
,  // measure 168
0000
0001
0100
0000
0010
0001
0010
0100
,  // measure 169
0000
1000
0100
0010
0000
0001
0010
0100
,  // measure 170
1000
0100
0010
0001
0010
1000
0100
0010
,  // measure 171
0001
0010
0000
0100
0010
0000
0100
0010
,  // measure 172
0000
0100
0010
0000
0100
0010
0100
0000
,  // measure 173
1000
0000
0100
0010
0001
0000
0010
0100
,  // measure 174
1000
0010
0001
0010
0100
1000
0010
0000
,  // measure 175
0000
0001
0010
0000
0001
0010
0000
0001
,  // measure 176
0010
0000
0000
0001
0010
0000
0000
0001
,  // measure 177
0010
0100
1000
0000
1000
0100
1000
0100
,  // measure 178
0010
0001
0010
0100
1000
0000
1000
0100
,  // measure 179
0000
0000
1000
0100
0000
0000
1000
0010
,  // measure 180
0000
1000
0010
0001
0000
0002
0000
0000
,  // measure 181
0000
0000
0000
0000
,  // measure 182
0000
0000
0000
0000
,  // measure 183
0000
0000
0000
0000
,  // measure 184
0000
0000
0000
0000
,  // measure 185
0000
0000
0000
0000
0000
0003
0000
0000
;
