#VERSION:0.83;
#TITLE:Hartmann's Youkai Factory;
#SUBTITLE:;
#ARTIST:Unknown artist;
#TITLETRANSLIT:;
#SUBTITLETRANSLIT:;
#ARTISTTRANSLIT:;
#GENRE:;
#ORIGIN:;
#CREDIT:;
#BANNER:banner.png;
#BACKGROUND:Komeiji.Koishi.full.2056745.jpg;
#PREVIEWVID:;
#JACKET:;
#CDIMAGE:;
#DISCIMAGE:;
#LYRICSPATH:;
#CDTITLE:;
#MUSIC:[Touhou Arrangement] Hartmann's Youkai Factory.mp3;
#OFFSET:0.000000;
#SAMPLESTART:99.971581;
#SAMPLELENGTH:12.000000;
#SELECTABLE:YES;
#BPMS:0.000=80.000,
35.750=133.000,
94.750=200.000,
131.000=222.000,
168.000=133.000,
172.500=177.000,
204.000=200.000,
240.000=133.000,
263.000=155.000,
291.000=177.000,
338.500=100.000,
346.000=200.000,
347.000=222.000,
428.000=177.000,
489.000=200.000,
490.000=222.000,
570.000=133.000;
#STOPS:;
#DELAYS:;
#WARPS:;
#TIMESIGNATURES:0.000=4=4;
#TICKCOUNTS:0.000=4;
#COMBOS:0.000=1;
#SPEEDS:0.000=1.000=0.000=0;
#SCROLLS:0.000=1.000;
#FAKES:;
#LABELS:0.000=Song Start;
#BGCHANGES:;
#KEYSOUNDS:;
#ATTACKS:
;

//---------------dance-single - ----------------
#NOTEDATA:;
#CHARTNAME:;
#STEPSTYPE:dance-single;
#DESCRIPTION:;
#CHARTSTYLE:;
#DIFFICULTY:Hard;
#METER:8;
#RADARVALUES:0.463890,0.608051,0.381774,0.922264,0.115819,757.000000,668.000000,89.000000,215.000000,0.000000,3.000000,4.000000,0.000000,0.000000,0.463890,0.608051,0.381774,0.922264,0.115819,757.000000,668.000000,89.000000,215.000000,0.000000,3.000000,4.000000,0.000000,0.000000;
#CREDIT:;
#NOTES:
// measure 0
0000
2002
0000
0000
0000
0000
0000
0000
0000
0000
3003
0000
0000
0000
0000
2002
,  // measure 1
0000
0000
0000
0000
0000
0000
0000
0000
0000
0000
3003
0220
0330
2002
0000
0000
,  // measure 2
3003
0200
0000
0000
0000
0320
0000
0000
0032
0000
0000
0023
0000
0000
0000
0230
,  // measure 3
0000
0000
0300
2000
0000
0000
3200
0000
0000
0000
0320
0000
0000
0032
0000
0000
,  // measure 4
0020
0003
0000
0000
0230
0000
0000
2300
0000
0000
0000
3200
0000
0000
0000
2300
,  // measure 5
0000
0000
0200
3000
0000
0000
0320
0000
0000
0032
0000
0000
0000
0023
0000
0000
,  // measure 6
0230
0000
0000
0000
0320
0000
0000
0030
0200
0000
0000
2300
0000
0000
0000
3020
,  // measure 7
0000
0000
0000
2030
0000
0000
3200
0000
0000
2300
0000
0000
0000
3200
0000
0000
,  // measure 8
0320
0000
0000
0000
0032
0000
0000
0020
0003
0000
0000
0230
0000
0000
0300
0000
,  // measure 9
1000
0000
0000
0100
0000
0000
0010
0000
0000
0001
0000
0000
0010
0000
0000
0100
,  // measure 10
0000
0000
1000
0000
0100
0000
0000
0020
0000
0000
0000
0000
0030
0200
0000
0000
,  // measure 11
0000
0000
0000
0320
0000
0000
0000
0000
0230
0000
0000
0000
0000
0000
1300
0000
,  // measure 12
0000
0000
0200
0000
0000
0320
0000
0032
0000
0000
0020
0003
0000
0230
0000
0000
,  // measure 13
2300
0000
0000
3020
0000
0000
0230
0000
0000
0000
0000
0000
0320
0000
0000
0000
,  // measure 14
0000
0000
0230
0000
0000
0000
0000
0000
0000
0000
0000
0301
0010
0000
2000
0000
,  // measure 15
0000
3200
0000
0000
0320
0000
0000
0032
0000
0000
0013
0000
0000
0200
0000
2000
,  // measure 16
0300
0000
0000
0200
3000
0000
0320
0000
0032
0000
0000
0020
0003
0000
0000
0032
,  // measure 17
0000
0020
0003
0000
0000
0000
0000
2030
0000
0000
0000
0000
0000
0000
3200
0000
,  // measure 18
2300
0000
0000
3200
0000
0000
0302
0000
0000
0203
0000
0000
0302
0000
0000
0023
,  // measure 19
0000
0030
0002
0000
0000
0023
0000
0000
2030
0000
0000
3020
0000
0000
1030
0000
,  // measure 20
0200
0000
0000
0000
0000
0000
0000
0000
0000
0000
0000
0000
0000
0320
0000
0000
,  // measure 21
0000
0000
0000
0000
0000
0002
0030
0000
0000
0000
0000
0000
0000
0000
0000
0000
,  // measure 22
0023
0000
0000
0000
0000
0000
2030
0000
0000
0000
0000
0000
0000
0000
0200
3000
,  // measure 23
0000
0000
0000
0000
0000
0320
0000
0000
0000
0000
0000
0030
0000
0000
1000
0000
,  // measure 24
0000
0100
0000
0010
0000
0001
0000
0010
,  // measure 25
0000
0100
0000
1000
0000
0110
0000
0000
,  // measure 26
1001
0000
0000
0100
0000
0010
0000
0100
,  // measure 27
0000
1001
0000
0000
0000
0000
0110
0000
,  // measure 28
0110
1001
1001
1001
,  // measure 29
1001
0110
0110
0110
,  // measure 30
0110
0110
1001
1001
,  // measure 31
1001
1001
1010
0101
,  // measure 32
1100
0011
0101
0110
,  // measure 33
1010
0000
1100
0000
0011
0000
0000
0101
,  // measure 34
0000
1010
1100
0011
,  // measure 35
0000
0101
0000
1010
0000
0000
1100
0000
,  // measure 36
1010
0000
0000
1100
0000
0011
0000
0000
,  // measure 37
0101
0000
0011
0000
0000
0101
0000
1100
,  // measure 38
0000
0000
1010
0000
1100
0000
0000
0011
,  // measure 39
0000
0101
0000
0011
0000
0000
0101
0000
,  // measure 40
1100
0000
0000
1010
0000
1010
0000
0000
,  // measure 41
1010
0000
0101
0000
0000
0011
0000
0101
,  // measure 42
0000
2200
0000
0001
3310
0001
0010
0000
,  // measure 43
0000
0010
0100
1000
0000
0010
0001
0010
,  // measure 44
0100
1000
0100
0010
0000
0001
0010
0100
,  // measure 45
0000
1000
0100
0010
0000
0100
0010
0000
,  // measure 46
0100
0001
1000
0001
0000
1000
0010
0001
,  // measure 47
0000
0100
1000
0100
0000
0001
0010
0000
,  // measure 48
1000
0010
0001
0100
0010
0100
0010
0000
,  // measure 49
0100
1000
0010
0000
0010
0001
0010
0100
,  // measure 50
0010
0001
0010
0000
0100
1000
0100
0000
,  // measure 51
0010
0100
1000
0000
0000
0100
0010
0000
,  // measure 52
0001
0010
0100
0010
0000
0000
1000
0100
,  // measure 53
0010
0000
0010
0100
0001
0000
0010
0001
,  // measure 54
0010
0000
0100
1000
0100
0100
0000
0000
,  // measure 55
1000
0010
0001
0000
0001
0010
1000
0000
,  // measure 56
1000
0000
0100
0000
0001
0010
1000
0010
,  // measure 57
0000
0001
0100
1000
0000
1000
0100
0001
,  // measure 58
0000
0000
0001
1000
0001
1000
0010
0100
,  // measure 59
0001
0000
0000
0100
0001
0010
0000
1000
,  // measure 60
0000
0010
0001
0000
0100
0000
0010
0100
,  // measure 61
1000
0100
0010
1000
0100
0001
0010
0100
,  // measure 62
0001
0100
0010
1000
0100
0001
1000
0010
,  // measure 63
0100
0010
1000
0100
0010
0001
0100
0010
,  // measure 64
0001
0010
0100
0001
0100
0010
0001
0100
,  // measure 65
0010
4040
0000
0000
3030
0100
1000
0010
,  // measure 66
0000
0100
0010
0000
0100
0000
0010
0000
,  // measure 67
1001
0000
0000
1010
0000
0101
0000
0000
,  // measure 68
1100
0000
0000
0011
0000
0000
1010
0000
,  // measure 69
0000
0101
0000
1010
,  // measure 70
0000
1100
0000
0000
1100
0000
0000
0000
,  // measure 71
0011
0000
0000
0000
0101
0000
0000
1010
,  // measure 72
0000
0000
1100
0000
0000
0000
0001
0010
,  // measure 73
0100
0000
0010
0100
0000
1000
0100
0010
,  // measure 74
0001
0000
0001
0010
0100
0000
1000
0100
,  // measure 75
0010
0000
0100
0010
0000
0100
1000
0100
,  // measure 76
1000
0000
1000
0010
1000
0000
0001
0010
,  // measure 77
0001
0000
0001
0100
1000
0000
1000
1000
,  // measure 78
0100
0000
1000
0010
1000
0001
0010
0001
,  // measure 79
0000
0001
0000
0100
0010
0100
1000
0100
,  // measure 80
0000
1000
0010
1000
0000
1000
0000
0100
,  // measure 81
0000
0010
0000
0001
0000
0010
0000
0100
,  // measure 82
0000
1000
0000
0100
0000
0010
4004
0000
,  // measure 83
0000
0000
0000
0000
,  // measure 84
0000
0000
3003
0000
0000
1002
0000
0000
,  // measure 85
0000
0003
0220
0000
0000
0000
0330
2002
,  // measure 86
0000
0000
0000
0000
0000
0000
3003
0000
1000
0100
0010
0001
0000
0000
0000
0000
,  // measure 87
0000
2000
0000
0000
3100
0010
0001
0010
,  // measure 88
0000
0100
0010
0100
0020
0000
0200
0000
,  // measure 89
2330
0000
0000
3100
0000
0000
0010
0001
,  // measure 90
0010
0100
1000
0100
0010
0001
0000
2000
,  // measure 91
0000
3002
0000
0000
2003
0000
0000
3000
,  // measure 92
1000
0100
0010
0001
0010
0100
0010
0001
,  // measure 93
0010
0100
0000
1000
0100
0010
0100
0020
,  // measure 94
0000
0000
0130
0000
0000
1000
0100
0010
,  // measure 95
0001
0010
0100
1000
0100
0000
0010
0001
,  // measure 96
0010
0001
0010
0002
0000
0000
0000
0003
,  // measure 97
0100
1000
0100
0010
0001
0100
1000
0100
,  // measure 98
0001
0010
2000
0000
0020
0000
0030
3002
,  // measure 99
0000
0003
0100
0000
1000
0100
0010
0001
,  // measure 100
0000
0010
0100
1000
0100
0000
0010
0000
,  // measure 101
0100
0000
0020
0000
0000
0030
1000
0100
,  // measure 102
0010
0001
0010
0100
0010
0001
0010
0100
,  // measure 103
1000
0100
0001
0010
0100
1000
0100
0010
,  // measure 104
0000
0200
0000
0300
1000
0100
0010
0001
,  // measure 105
0010
0100
0010
0000
0001
0010
0100
1000
,  // measure 106
0100
0010
0200
0000
0000
2300
0000
3100
,  // measure 107
0010
0001
0010
0100
0010
0001
0010
0100
,  // measure 108
0020
0000
0000
1000
0000
1000
0030
2000
,  // measure 109
0000
3200
0000
0320
0000
0000
0000
0032
,  // measure 110
0000
0000
0000
0023
0000
0000
0000
0230
,  // measure 111
0000
2300
0000
3200
0000
0320
0032
0000
,  // measure 112
0020
0003
0230
0000
2300
0000
3200
0000
,  // measure 113
0000
0320
0000
0230
,  // measure 114
0000
0000
0000
0000
0000
1300
0100
0010
,  // measure 115
0002
0023
0230
2300
,  // measure 116
0000
3100
0020
0000
0032
0000
0023
0000
,  // measure 117
0230
0000
1300
0200
0000
0000
0320
0000
,  // measure 118
0000
0230
0000
0000
0000
0302
0000
0023
,  // measure 119
0000
0032
0000
0203
0000
0002
0300
0203
,  // measure 120
0000
2300
0000
3200
0000
2300
0000
3020
,  // measure 121
0000
0000
2030
3020
0000
0032
0000
0000
,  // measure 122
0000
0000
0003
0000
1000
0100
0010
0001
0000
0000
0000
0000
1000
0000
0100
0000
,  // measure 123
0010
0000
0000
0001
0000
0010
0000
0000
,  // measure 124
0100
0000
1000
0000
0000
0100
0000
0010
,  // measure 125
0000
0000
0022
0000
0000
0033
2200
0000
,  // measure 126
0000
0000
3300
2020
0000
0000
0000
3030
,  // measure 127
0202
0000
0303
1100
,  // measure 128
1010
0000
0000
0100
0000
0010
0000
0000
,  // measure 129
0001
0010
0100
0010
,  // measure 130
0000
0022
0000
0000
0033
0000
0202
0000
,  // measure 131
0000
0303
0000
2020
0000
0000
0000
0000
,  // measure 132
3030
0000
1000
0100
0010
0000
0000
0001
,  // measure 133
0000
0000
0010
0000
0100
0000
0000
0010
,  // measure 134
0000
0001
0000
0000
0100
0000
1000
0000
,  // measure 135
0100
0000
0000
0010
0000
0100
0000
0000
,  // measure 136
0010
0000
0220
0000
0000
0000
0330
2002
,  // measure 137
0000
0000
0000
3003
0000
1000
0000
0100
,  // measure 138
0000
0010
0001
0010
,  // measure 139
0000
0100
0000
1000
0000
0000
0100
0000
,  // measure 140
0010
0000
0100
0000
0000
1000
0000
0100
,  // measure 141
0000
0020
0000
0000
,  // measure 142
0000
0000
0000
0002
0030
2003
0000
3200
,  // measure 143
0000
0320
0032
0000
0023
0000
0230
2300
,  // measure 144
0000
3200
0000
0000
0320
0000
0000
0032
,  // measure 145
0000
0000
0023
0000
0000
0000
0230
2000
,  // measure 146
0300
3200
0320
0000
0032
0000
0023
0032
,  // measure 147
0000
0023
0000
0230
0000
0000
2300
0000
,  // measure 148
0000
3200
0000
0000
0300
0000
0001
0010
,  // measure 149
0100
1000
0010
0100
0000
0020
0032
0000
,  // measure 150
0023
0000
0230
2300
0000
3200
0320
0000
,  // measure 151
0032
0020
0003
0032
0000
0000
0023
0000
,  // measure 152
0000
0230
0000
2300
0000
3200
0320
0000
,  // measure 153
0032
0000
0023
0032
0000
0203
0000
2300
,  // measure 154
3200
0000
0320
0032
0000
0023
0000
0000
,  // measure 155
0000
0000
2000
0000
,  // measure 156
0000
0030
0000
0000
0000
0000
0000
0000
,  // measure 157
0000
0000
3000
0000
;
